#TITLE:lower world;
#SUBTITLE:;
#ARTIST:DJ SETUP;
#TITLETRANSLIT:;
#SUBTITLETRANSLIT:;
#ARTISTTRANSLIT:;
#CREDIT:;
#BANNER:Lower World.png;
#BACKGROUND:Lower World-bg.png;
#LYRICSPATH:;
#CDTITLE:!toph-cdtitle.png;
#MUSIC:DJ Setup - Lower World.mp3;
#OFFSET:-0.090;
#SAMPLESTART:97.550;
#SAMPLELENGTH:12.350;
#SELECTABLE:YES;
#BPMS:0.000=155.000,160.000=310.000,160.500=360.000,161.000=400.000,161.500=450.000,162.000=400.000,162.500=360.000,163.000=290.000,163.500=200.000,164.000=155.000,164.500=110.000,164.750=70.000,165.000=50.000,165.250=35.000,165.500=25.000,165.750=20.000,166.000=15.000,166.500=10.000,167.000=77.500,185.000=155.000,212.000=77.500,213.500=155.000;
#STOPS:167.000=0.940
,213.500=0.570
;
#BGCHANGES:;
// cache tags:
#FIRSTBEAT:0.000;
#LASTBEAT:278.000;
#SONGFILENAME:Songs/Community Keyboard Megapack - Volume 1/(Toph) Lower World/Lower World.sm;
#HASMUSIC:1;
#HASBANNER:1;
#MUSICLENGTH:128.479;
// end cache tags

//---------------dance-single - ----------------
#NOTES:
     dance-single:
     :
     Easy:
     5:
     0.362,0.379,0.062,0.109,0.004,304.000,8.000,14.000,0.000,0.000:  // measure 1
0000
0000
0000
0000
,  // measure 2
0000
0000
0000
0000
,  // measure 3
0000
0000
0000
0000
,  // measure 4
0000
0000
0000
0000
,  // measure 5
1000
1000
1000
1000
,  // measure 6
0001
0001
0001
0001
,  // measure 7
0100
0000
0000
0000
0100
0000
0000
0000
0100
0000
0000
0000
0100
0000
0000
0100
,  // measure 8
0000
0000
0000
0000
,  // measure 9
1001
0000
0100
0000
0010
0001
0100
0000
,  // measure 10
0001
0000
0100
0000
0010
1000
0001
0000
,  // measure 11
1000
0000
0100
0000
0010
0001
1000
0000
,  // measure 12
0001
0000
0100
0000
0001
0100
0010
0000
,  // measure 13
1000
0000
0100
0000
1000
0010
0100
0000
,  // measure 14
0001
0000
1000
0000
0001
0100
0010
0000
,  // measure 15
1000
0000
0100
0000
1000
0001
0010
0000
,  // measure 16
0002
0000
0100
0000
0010
0000
1003
0100
,  // measure 17
0100
0000
0010
0000
0001
0100
0010
0000
,  // measure 18
1000
0000
0001
0000
0010
0001
0100
0000
,  // measure 19
0010
0000
1000
0000
0001
1000
0010
0000
,  // measure 20
0100
0000
0001
0000
1000
0100
0010
0001
,  // measure 21
0100
0000
0010
0000
1000
0001
0010
0000
,  // measure 22
1000
0000
0001
0000
0010
0001
1000
0010
,  // measure 23
0100
0000
0001
0000
0100
0010
1000
0000
,  // measure 24
0001
0001
0002
0000
,  // measure 25
1003
0010
1000
0100
,  // measure 26
1000
0000
0001
0000
0010
0100
1000
0000
,  // measure 27
0001
0100
0010
0100
,  // measure 28
0001
0000
1000
0000
0100
0010
0001
0000
,  // measure 29
1001
0000
0100
0000
0010
1000
0001
0000
,  // measure 30
1000
0000
0100
0000
0010
0001
1000
0000
,  // measure 31
0001
0000
0010
0000
0001
0100
0010
0000
,  // measure 32
1000
0000
0000
0000
0100
0000
0000
0000
1000
0000
0000
0000
0202
0000
0000
0303
,  // measure 33
1000
0001
0100
0000
0001
1000
0100
0000
,  // measure 34
1000
0010
0100
0000
0001
0010
0100
0000
,  // measure 35
1000
0001
0010
0000
0001
1000
0010
0000
,  // measure 36
1000
0100
1000
0000
0001
0100
0001
0000
,  // measure 37
1001
0000
0100
0000
0010
1000
0001
0000
,  // measure 38
1001
0000
0100
0000
0010
0001
1000
0010
,  // measure 39
0100
0001
1000
0010
,  // measure 40
1000
0100
1000
0100
0010
0001
0010
0002
,  // measure 41
2000
0000
0000
0000
,  // measure 42
0000
0000
0000
3003
,  // measure 43
2000
3001
0100
0010
,  // measure 44
1000
0001
0100
0000
0020
0000
2030
0000
,  // measure 45
3200
0000
0320
0000
0030
0001
2000
0000
,  // measure 46
3020
0230
0000
0000
,  // measure 47
0300
1001
0100
0010
,  // measure 48
0001
1000
0010
0100
,  // measure 49
0001
0010
0001
0100
,  // measure 50
0010
1000
0001
1000
,  // measure 51
0100
1000
0010
0100
,  // measure 52
0001
0010
0100
1000
,  // measure 53
0001
0000
0000
0000
,  // measure 54
0000
0000
1001
0100
,  // measure 55
0010
0001
0100
0000
0001
0000
1000
0000
,  // measure 56
0010
1000
0001
0000
0010
0000
0001
0000
,  // measure 57
1000
0001
0100
0000
0010
0000
1000
0000
,  // measure 58
0001
1000
0010
0100
0001
0000
0010
0000
,  // measure 59
0100
1000
0001
0000
0010
0000
0001
0000
,  // measure 60
0100
0010
1000
0000
0001
0000
1000
0000
,  // measure 61
0100
1000
0100
0000
0010
0000
0001
0000
,  // measure 62
1000
0000
0000
0000
1000
0100
0010
0000
,  // measure 63
0001
1000
0100
0000
0010
0001
1000
0000
,  // measure 64
0001
0100
0010
0000
1000
0100
0010
0000
,  // measure 65
0001
0010
0100
0000
1000
0001
0010
0000
,  // measure 66
0001
0100
0010
0010
1000
0001
0010
0000
,  // measure 67
0100
1000
0001
0001
0100
0010
1000
0000
,  // measure 68
0001
0010
0100
0100
1000
0001
0100
0000
,  // measure 69
0000
0001
0100
0000
0000
0001
0100
0000
,  // measure 70
0000
0001
0000
0000
1100
0000
0000
0000
;

//---------------dance-single - ----------------
#NOTES:
     dance-single:
     :
     Medium:
     8:
     0.517,0.514,0.187,0.218,0.179,413.000,24.000,28.000,0.000,0.000:  // measure 1
0000
0000
0000
0000
,  // measure 2
0000
0000
0000
0000
,  // measure 3
0000
0000
0000
0000
,  // measure 4
0000
0000
0000
0000
,  // measure 5
1000
0000
0001
0010
0100
0000
1000
0000
,  // measure 6
0001
0000
1000
0010
0100
0000
0001
0000
,  // measure 7
1000
0000
0000
0000
0001
0000
0010
0000
0100
0000
0000
0000
1000
0000
0000
1000
,  // measure 8
0000
0000
0000
0000
,  // measure 9
1000
0001
0010
0001
0100
0010
1000
0000
,  // measure 10
0100
1000
0010
0100
0001
1000
0100
0000
,  // measure 11
1000
0010
0100
0001
1000
0100
0010
0000
,  // measure 12
0001
0100
0010
0100
0001
1000
0100
0010
,  // measure 13
0001
0010
0100
1000
0010
0100
0001
0000
,  // measure 14
0001
0010
0001
0100
0010
1000
0100
0000
,  // measure 15
1000
0010
1000
0001
0010
0100
1000
0000
,  // measure 16
0002
0000
0203
0000
0320
0000
1030
0001
,  // measure 17
1001
1000
0001
1000
0010
1000
0100
0000
,  // measure 18
0010
0001
0100
0010
0100
0001
1000
0000
,  // measure 19
0100
0010
0100
1000
0001
0100
0010
0000
,  // measure 20
1000
0100
1000
0010
0100
0001
0010
0100
,  // measure 21
1000
0001
1000
0010
1000
0001
1000
0100
,  // measure 22
1000
0000
0010
0000
1000
0000
0100
0000
1000
0000
0001
0000
0010
0100
0010
0000
,  // measure 23
0001
1000
0001
0100
0010
1000
0100
0000
,  // measure 24
1000
0001
1000
0010
1000
0100
0020
0000
,  // measure 25
0031
0000
0100
0000
0010
0000
0000
1000
0000
0000
0001
0000
0010
0000
0000
0100
,  // measure 26
0000
0000
1000
0000
0001
0000
0000
0100
0000
0000
0010
0000
1000
0000
0000
0100
,  // measure 27
0000
0000
0010
0000
0001
0000
0000
1000
0000
0000
0001
0000
0100
0000
0000
0010
,  // measure 28
0000
0000
1000
0000
0100
0000
0000
1000
0000
0000
0010
0000
0100
0000
0000
0001
,  // measure 29
1000
0000
0100
0000
0010
0000
0000
0001
0000
0000
1000
0000
0001
0000
0000
0100
,  // measure 30
0000
0000
0010
0000
1000
0000
0000
0001
0000
0000
1000
0000
0100
0000
0000
0010
,  // measure 31
0000
0000
0001
0000
0100
0000
0000
0001
0000
0000
1000
0000
0010
0000
0000
0100
,  // measure 32
0000
0000
0001
0000
1000
0000
0000
0100
0000
0000
0010
0000
0202
0000
0000
0303
,  // measure 33
1010
0000
0001
0000
1000
0100
0000
0010
0000
0000
0001
0000
1000
0001
0000
0100
,  // measure 34
0000
0000
0010
0000
1000
0010
0000
0100
0000
0000
0001
0000
1000
0001
0000
0010
,  // measure 35
0000
0000
0100
0000
1000
0100
0000
0010
0000
0000
0001
0000
0100
0001
0000
1000
,  // measure 36
0000
0000
0100
0000
1000
0100
0000
0010
0000
0000
0100
0000
1000
0100
0000
1000
,  // measure 37
0001
0000
0100
0000
0010
0100
0000
0001
0000
0000
1000
0000
0100
1000
0000
0010
,  // measure 38
0100
0000
0001
0000
1000
0001
0000
0010
0000
0000
0001
0000
0100
0001
0000
1000
,  // measure 39
0100
0000
0000
0010
0001
0000
0000
1000
0010
0000
0000
0100
0001
0000
0000
0010
,  // measure 40
0100
1000
0001
0100
0010
1000
0100
0010
,  // measure 41
2002
0000
0000
0000
,  // measure 42
0000
0000
0000
3003
,  // measure 43
2000
0000
3001
0100
0010
1000
0002
0000
,  // measure 44
0013
0001
0200
0000
0320
0000
2030
0000
,  // measure 45
3002
0000
0023
0000
0030
0100
2000
0000
,  // measure 46
3002
0203
0320
2030
,  // measure 47
0001
3100
0010
1001
,  // measure 48
1010
1001
0101
0110
,  // measure 49
1010
0120
1030
0012
,  // measure 50
0103
2010
3100
0012
,  // measure 51
1003
0210
0301
1000
,  // measure 52
1010
0102
1003
0110
,  // measure 53
0001
2100
0000
0000
,  // measure 54
0000
3002
0000
0003
1000
0100
0010
0001
,  // measure 55
1000
0001
0100
0000
0010
1000
0100
1000
,  // measure 56
0001
0010
0100
1000
0001
0100
0001
0010
,  // measure 57
0100
1000
0001
0000
1000
0010
1000
0100
,  // measure 58
1000
0010
0100
0001
1000
0010
1000
0100
,  // measure 59
1000
0001
0010
0000
0001
0100
0010
1000
,  // measure 60
0100
0010
0001
0000
1000
0010
1000
0100
,  // measure 61
1000
0001
0010
0000
0001
0100
0010
1000
,  // measure 62
0001
0010
0100
0000
1001
0100
0010
1000
,  // measure 63
0001
0010
0001
0000
0100
0010
1000
0100
,  // measure 64
1000
0010
0100
0000
0001
0010
0001
1000
,  // measure 65
0010
0100
0001
0000
1000
0100
0001
0100
,  // measure 66
1000
0010
0100
0100
1001
0100
0010
1000
,  // measure 67
0001
0000
0010
0000
0100
1000
0100
0000
1001
0000
0010
0000
0001
0000
0100
0000
,  // measure 68
0010
1000
0001
0001
1100
0010
0001
0000
,  // measure 69
1000
0001
0100
0000
0010
1000
0100
0010
,  // measure 70
0001
0001
0001
0001
1001
0000
0000
0000
;

//---------------dance-single - ----------------
#NOTES:
     dance-single:
     :
     Hard:
     10:
     0.789,0.838,0.241,0.195,0.926,654.000,31.000,25.000,0.000,0.000:  // measure 1
0000
0000
0000
0000
,  // measure 2
0000
0000
0000
0000
,  // measure 3
0000
0000
0000
0000
,  // measure 4
0000
0000
0000
0000
,  // measure 5
1000
0100
0000
0100
1000
0000
0001
0000
1000
0000
0010
0000
0100
0000
0001
0000
,  // measure 6
1000
0100
0000
0100
1000
0000
0001
0000
0100
0000
0010
0000
1000
0000
0100
0000
,  // measure 7
0010
0001
0000
0001
0010
0000
0100
0000
1000
0000
0010
0000
0100
0000
0001
0100
,  // measure 8
0000
0000
0000
0000
,  // measure 9
1001
0000
0100
1000
0000
0100
0010
0000
0001
0100
0001
0000
1000
0100
1000
0000
,  // measure 10
0001
0000
0100
0001
0000
1000
0100
0000
0010
0001
0010
0000
0100
1000
0100
0000
,  // measure 11
1000
0000
0001
0100
0000
0010
1000
0000
0100
0010
0100
0000
1000
0001
1000
0000
,  // measure 12
0010
0000
0100
0001
0000
1000
0010
0000
1000
0100
1000
0000
0001
0000
0110
0000
,  // measure 13
1001
0000
0100
0010
0000
1000
0001
0000
0010
0001
0010
0000
0100
1000
0100
0000
,  // measure 14
1000
0000
0001
0100
0000
0010
0100
0000
0001
0010
0001
0000
1000
0100
1000
0000
,  // measure 15
0010
0000
0100
0001
0000
1000
0100
0000
0010
0001
0010
0000
0100
1000
0100
0000
,  // measure 16
0010
0000
0001
0000
0100
0000
0010
1000
0001
1000
0010
0100
0001
0010
0100
0000
,  // measure 17
1001
0000
1000
0100
0010
0001
1000
0000
0010
1000
0010
0000
0100
0001
0100
0000
,  // measure 18
0001
0000
1000
0100
0010
0100
1000
0000
0001
0100
0010
0000
1000
0001
0010
0000
,  // measure 19
0001
0000
0100
0010
1000
0001
0010
0000
0001
0100
0010
0000
1000
0001
0010
0000
,  // measure 20
0001
0000
1000
0010
1000
0001
0100
0000
0010
1000
0001
0000
1000
0100
0010
0000
,  // measure 21
0001
0000
1000
0010
1000
0001
0010
0000
0001
1000
0001
0000
0100
0010
1000
0000
,  // measure 22
0010
0000
1000
0001
1000
0100
0010
0000
0001
1000
0001
0000
0100
0010
0010
0000
,  // measure 23
1000
0000
0001
0010
0001
0100
0010
0000
1000
0100
0010
0000
0001
1000
0010
0000
,  // measure 24
0100
0000
0001
1000
0001
0010
0100
0000
1000
0010
0100
0001
0010
0001
0100
0010
,  // measure 25
1000
0000
0001
0000
0100
0001
0000
1000
0100
0000
0010
0000
0001
0010
0000
0100
,  // measure 26
1000
0001
0010
0000
0100
1000
0000
0010
0100
0001
1000
0000
0010
0100
0000
0001
,  // measure 27
0010
0100
1000
0000
0100
0010
0000
0001
1000
0000
0010
0000
1000
0100
0000
0010
,  // measure 28
0001
0100
0010
0000
1000
0100
0000
1000
0001
0000
0010
0000
0001
0100
0010
1000
,  // measure 29
0100
0010
0001
0000
1000
0001
0000
0100
0010
0000
1000
0000
0100
0010
0000
0001
,  // measure 30
1000
0010
0100
0000
0001
0010
0000
0100
1000
0000
0010
0000
0100
0001
0000
0010
,  // measure 31
0100
0010
0001
0000
1000
0010
0000
0100
0001
1000
0010
0000
1000
0001
0000
0010
,  // measure 32
0001
0010
0100
0000
1000
0001
0000
0100
0010
0000
1000
0000
0202
0000
0000
0303
,  // measure 33
1010
0000
0001
0000
0010
0001
0000
0100
0010
0000
1000
0000
0001
1000
0000
0100
,  // measure 34
0010
0001
1000
0000
0010
1000
0000
0100
0010
0000
0001
0000
1000
0010
0000
1000
,  // measure 35
0100
1000
0010
0000
0100
0001
0000
1000
0100
0000
0010
0000
0001
1000
0000
0001
,  // measure 36
0100
0001
1000
0000
0100
0010
0000
0001
0100
0010
1000
0000
0001
0010
0100
0000
,  // measure 37
1000
0001
0100
0000
0010
1000
0000
0100
0010
0000
0001
0000
1000
0001
0100
0001
,  // measure 38
1000
0100
0010
0000
0001
1000
0000
0010
1000
0001
0010
0000
0100
1000
0000
0010
,  // measure 39
0100
0001
0000
1000
0100
0010
0000
0001
1000
0010
0000
0100
0001
1000
0000
0100
,  // measure 40
0010
0001
1000
0001
0010
0001
1000
0001
0100
0010
1000
0100
0010
0001
0100
0010
,  // measure 41
2002
0000
0000
0000
,  // measure 42
0000
0000
0000
3003
,  // measure 43
0002
0000
0000
0003
1010
0001
1000
0000
0100
0000
1000
0000
0020
0000
0000
0000
,  // measure 44
0130
0001
1200
0000
0320
0000
0032
0000
,  // measure 45
2003
0000
0000
3000
0021
0000
0000
0000
1000
0000
0130
0000
1002
0000
0000
0000
,  // measure 46
0203
0000
0000
0300
2001
0000
0000
0000
0020
0000
0030
0000
0002
0000
0000
0003
,  // measure 47
0200
3300
1000
0000
0010
0000
1001
0000
,  // measure 48
1010
1001
0101
0110
,  // measure 49
1010
0120
1030
0012
,  // measure 50
0103
2010
3100
0012
,  // measure 51
1003
0210
0301
1000
,  // measure 52
1010
0102
1003
0110
,  // measure 53
0001
2100
0000
0000
,  // measure 54
0000
0000
3002
0000
0000
0000
0003
0000
1000
0000
0001
0100
0001
1000
0010
0000
,  // measure 55
1000
0100
0010
0000
0001
1000
0010
0000
1000
0000
0001
0010
0001
0100
0010
0000
,  // measure 56
1000
0100
0010
0000
0001
1000
0010
0000
1000
0000
0001
0010
0001
1000
0010
0000
,  // measure 57
0100
0001
1000
0000
0100
0010
0001
0000
1000
0000
0010
1000
0010
0100
0001
0000
,  // measure 58
0010
0001
0100
0000
0010
1000
0100
0000
1000
0000
0001
0100
0010
1000
0001
0000
,  // measure 59
0010
0100
1000
0000
0001
0100
0010
0000
1000
0000
0100
0010
0100
1000
0001
0000
,  // measure 60
0100
0010
1000
0000
0001
0010
0100
0000
1000
0000
0010
1000
0010
0100
0001
0000
,  // measure 61
0010
0001
0100
0000
0010
1000
0001
0000
0010
0000
0001
0010
0100
1000
0010
0000
,  // measure 62
1000
0001
0010
0100
1000
0000
0000
0000
1001
0000
0100
1000
0000
0010
0100
0010
,  // measure 63
1000
0100
1000
0100
0010
0001
0010
0000
0001
0100
0010
1000
0100
0000
0100
0010
,  // measure 64
0001
0100
0001
0100
0010
1000
0010
0000
1000
0100
0001
0100
1000
0000
0001
0000
,  // measure 65
0100
0010
0100
0001
1000
0100
1000
0000
0010
0001
0100
0010
1000
0100
0010
0100
,  // measure 66
1000
0010
0100
0001
1001
0000
1001
0000
0010
0001
0100
0010
1000
0000
0001
0010
,  // measure 67
0100
0010
0001
0100
0010
1000
0001
0000
1000
0010
0100
0001
0010
0001
0100
0001
,  // measure 68
0010
0100
1000
0010
0100
0001
0100
0000
0001
0010
0100
1000
0100
0000
0010
0100
,  // measure 69
0010
0001
1000
0000
0010
0000
0100
0000
0001
1000
0001
1000
0001
1000
0001
1000
,  // measure 70
0001
1000
0001
1000
0001
1000
0001
1000
1001
0000
0000
0000
0000
0000
0000
0000
;

//---------------dance-single - ----------------
#NOTES:
     dance-single:
     :
     Challenge:
     12:
     1.000,1.000,0.833,0.202,1.000,832.000,107.000,26.000,0.000,0.000:  // measure 1
1001
0100
0000
0010
0001
1000
0010
0000
1000
0100
0010
0001
0100
0010
1000
0000
,  // measure 2
0001
0010
0000
0100
1000
0001
0010
0000
0100
0010
0001
0100
0010
1000
0110
0000
,  // measure 3
0001
1000
0000
0010
0100
0001
1000
0100
1000
0000
1000
0000
1000
0100
1000
0000
,  // measure 4
1000
0100
0010
0001
0100
0010
1000
0100
0010
0001
0010
0001
0010
0001
0010
0001
,  // measure 5
1000
0010
0000
0100
0001
1000
0010
0000
0100
0010
0100
0001
1000
0100
0010
0000
,  // measure 6
0001
0100
0000
0001
1000
0100
0010
0000
0100
1000
0010
0100
0001
1000
0100
0000
,  // measure 7
0010
0001
0000
0001
1000
0010
0100
0000
0001
0010
0100
0010
0001
0100
0010
1001
,  // measure 8
0000
0000
0000
0000
0000
0000
0000
0000
0000
1000
0001
0100
0010
0000
1010
0000
,  // measure 9
1001
0100
0010
0001
1000
0010
0100
0010
1000
0100
1000
0100
0010
0001
1000
0000
,  // measure 10
1000
0100
0010
0001
0100
0001
0100
0010
1000
0100
1000
0100
0010
0001
0100
0010
,  // measure 11
1000
0100
1000
0100
0010
0001
0100
0010
1000
0001
1000
0001
0010
0100
1000
0000
,  // measure 12
0001
0100
0001
1000
0100
1000
0010
0100
0001
1000
0011
1000
0101
0010
1001
0000
,  // measure 13
1001
0100
0010
0100
0001
0010
0100
1000
0001
0100
0001
0010
0100
1000
0100
0000
,  // measure 14
0010
0001
0100
0010
1000
0010
1000
0010
0100
0001
0010
0001
0100
0010
1000
0001
,  // measure 15
0010
0100
0010
0001
1000
0100
0010
0100
1000
0001
0100
0010
1000
0100
1000
0000
,  // measure 16
0012
0000
0100
0003
1010
0000
0010
1000
0100
0010
0001
1000
0010
0100
1001
0000
,  // measure 17
1001
0010
0100
0001
1000
0100
0010
0100
1000
0010
0100
0010
1000
0001
0010
0000
,  // measure 18
0100
1000
0100
0010
0001
0100
0010
0100
0001
0010
0100
1000
0010
0100
0001
1000
,  // measure 19
0001
0010
0001
0100
0010
1000
0001
0010
0001
0100
0010
1000
0100
0010
0001
0000
,  // measure 20
1000
0010
1000
0001
1000
0001
0100
0001
0010
0100
1000
0010
0100
0001
1010
0001
,  // measure 21
0100
0010
1000
0100
0010
0001
1000
0001
0100
0010
0100
0001
1000
0100
1000
0000
,  // measure 22
0001
0100
0001
0100
0010
1000
0100
0010
0001
0100
0001
1000
0100
0010
0010
0000
,  // measure 23
0010
0100
1000
0100
0010
0001
0100
0010
1000
0001
1000
0001
0010
0100
1000
0000
,  // measure 24
1000
0010
1000
0001
0100
0010
0100
0001
0010
0100
1000
0010
0001
0010
0100
1000
,  // measure 25
0011
0000
0100
0000
1001
0010
0000
0100
0001
0000
0010
0000
1001
0010
0000
0100
,  // measure 26
0001
1000
0010
0000
0011
1000
0000
0010
0100
0001
1100
0000
0110
0001
0000
1000
,  // measure 27
0010
0100
0001
0000
0110
1000
0000
0001
0010
0000
0100
0000
1001
0010
0000
1000
,  // measure 28
0001
0010
0100
0000
1001
0100
0000
0010
1000
0000
0011
0000
1100
0001
0110
1000
,  // measure 29
0011
1000
0100
0000
0011
1000
0000
0001
0100
0000
1010
0000
0101
0010
0000
1000
,  // measure 30
0001
0010
0100
0000
1001
0100
0000
0010
1000
0000
0011
0000
1100
0001
0000
0010
,  // measure 31
0100
0010
0001
0000
0110
1000
0000
0001
0010
0100
1001
0000
0110
1000
0000
0001
,  // measure 32
0010
0001
1000
0000
0110
0001
0000
1000
0001
0000
0100
0000
0220
0000
0000
0330
,  // measure 33
1001
0100
0011
1000
0000
0100
0010
0001
1000
0010
1100
0010
0100
0001
1000
0000
,  // measure 34
0100
0010
1001
0100
0010
0000
0100
0010
0001
1000
0011
1000
0100
0010
0001
0100
,  // measure 35
0010
0100
1001
0100
0010
0001
0100
0010
1000
0001
1100
0001
0010
0100
1000
0000
,  // measure 36
0001
0100
0011
1000
0100
1000
0010
0100
0001
0010
1001
0100
0010
0001
0010
0000
,  // measure 37
1001
0100
0011
0000
1100
0001
0000
0100
0010
0000
1010
0000
1100
0001
0001
0100
,  // measure 38
1001
0010
1100
0000
0110
1000
0000
0001
0010
0100
1001
0000
0010
0001
0010
0100
,  // measure 39
1001
0010
0100
0010
1001
0100
0000
0010
1001
0100
0010
0100
0011
1000
0010
0100
,  // measure 40
1001
0100
0011
0100
1000
0100
0010
0100
1000
0100
0011
0100
1000
0100
0010
0100
,  // measure 41
2002
0000
0000
0000
,  // measure 42
0000
0000
0000
3003
,  // measure 43
0020
0000
0000
0030
1001
0100
1000
0000
0010
0000
1000
0000
0002
0000
0000
0000
,  // measure 44
0013
0100
1020
0000
0230
0000
0302
0000
,  // measure 45
0023
0000
0000
0030
1200
0000
0000
0000
0010
0000
0301
0000
1020
0000
0000
0000
,  // measure 46
0230
0000
0000
0300
2001
0000
0000
0000
0020
0000
0030
0000
0002
0000
0000
0003
,  // measure 47
0200
3300
1001
0000
1000
0000
1100
0000
,  // measure 48
1010
1100
1001
1010
,  // measure 49
1001
1100
1000
1020
,  // measure 50
1030
1200
1300
1002
,  // measure 51
1003
0021
0031
0001
,  // measure 52
0201
0000
0000
0300
2001
0000
0000
0000
3001
0000
0000
0000
0201
0000
0000
0300
,  // measure 53
0001
0010
0001
0000
0001
0000
0001
0010
0100
1000
0010
0100
0001
0010
0100
1000
,  // measure 54
0002
0000
0000
0000
0003
0000
0000
0000
1001
0000
0001
0100
0010
1000
0100
1000
,  // measure 55
0001
0010
0001
0100
0010
1000
0010
0000
1000
0100
0010
0001
1000
0001
0100
0010
,  // measure 56
1000
0001
1000
0010
0100
0001
0100
0000
0010
1000
0100
0010
0001
0000
0001
0100
,  // measure 57
0010
1000
0100
1000
0001
0100
0001
0000
0010
0001
0100
0010
1000
0001
0010
0001
,  // measure 58
0100
0010
1000
0001
0010
0100
1001
0000
0010
0100
0010
1000
0001
0000
0001
0010
,  // measure 59
0100
0010
0001
0100
0010
1000
0001
0000
0010
0100
1000
0001
0010
0001
0100
0001
,  // measure 60
0010
0100
1000
0010
0100
0001
0100
0000
0010
1000
0001
1000
0010
0100
0001
0100
,  // measure 61
0010
1000
0010
0100
0001
0010
0001
0000
1000
0100
0010
0001
0100
0010
0100
0001
,  // measure 62
1000
0100
0010
0001
0100
0000
0000
0000
1001
0000
0110
0001
0000
0100
0010
0100
,  // measure 63
0001
0010
1001
0100
0010
1000
0010
0000
1000
0100
0011
1000
0100
0000
0100
0010
,  // measure 64
0001
0100
1001
0100
0010
1000
0010
0000
0010
0100
1001
0100
0010
0000
0011
0000
,  // measure 65
0100
1000
0101
1000
0001
0100
0001
0000
0010
0001
0110
1000
0001
0010
0100
0010
,  // measure 66
0001
1000
0011
0100
1001
0000
1001
0000
0011
0100
0011
1000
0001
0000
0001
0010
,  // measure 67
0100
0010
1001
0100
0010
1000
1000
0000
1001
0010
1100
0001
0010
0001
0100
0001
,  // measure 68
0010
0100
1001
0010
0100
0001
0100
0000
1001
0010
1100
0001
0100
0000
0100
0010
,  // measure 69
0100
0001
0010
0000
0100
0000
1000
0000
0010
0100
0001
1000
0100
0010
0100
0010
,  // measure 70
0100
0010
0100
0010
0100
0010
0100
0010
1001
0000
0000
0000
0000
0000
0000
0000
;
