#TITLE:Conspiracy Of Silence;
#SUBTITLE:Time to be an asshole pt 2;
#ARTIST:Fleshgod Apocalypse;
#TITLETRANSLIT:;
#SUBTITLETRANSLIT:;
#ARTISTTRANSLIT:;
#CREDIT:;
#BANNER:Conspiracy of Silence - bn.png;
#BACKGROUND:Conspiracy of Silence - bg.png;
#LYRICSPATH:;
#CDTITLE:../aCD.png;
#MUSIC:Conspiracy Of Silence.ogg;
#OFFSET:0.009;
#SAMPLESTART:164.209;
#SAMPLELENGTH:20.000;
#SELECTABLE:YES;
#DISPLAYBPM:280.000;
#BPMS:0.000=278.800,64.000=281.700,74.000=279.800,126.000=282.000,140.000=279.650,204.000=280.060,264.000=279.997;
#STOPS:;
#BGCHANGES:;
// cache tags:
#FIRSTBEAT:0.000;
#LASTBEAT:1521.000;
#SONGFILENAME:Songs/Aoreo's Index Jawn 2/Conspiracy Of Silence - [Aoreo]/Conspiracy Of Silence.sm;
#HASMUSIC:1;
#HASBANNER:1;
#MUSICLENGTH:329.555;
// end cache tags

//---------------dance-single - J. Nero----------------
#NOTES:
     dance-single:
     J. Nero:
     Challenge:
     28:
     1.000,1.000,0.049,0.176,1.000,5017.000,16.000,58.000,0.000,0.000:
1000
0001
0100
0001
0010
0100
1000
0010
0100
0010
1000
0001
0100
0001
0010
0100
,
1000
0001
0100
0010
0100
0001
1000
0100
1000
0010
0100
0001
0100
0010
1000
0100
,
0010
0001
0100
0001
1000
0100
0010
0100
1000
0010
0100
0001
1000
0100
0010
0001
,
1000
0001
0100
0010
1000
0001
0100
0001
2000
0000
3200
0000
0320
0000
0032
0000
,
1003
0010
1000
0001
0100
0010
0100
0001
1000
0100
0010
0001
0100
0001
1000
0100
,
1000
0010
0100
0001
0100
0010
1000
0001
1000
0100
0010
0001
0100
0001
1000
0010
,
0100
0000
0000
0000
0001
1000
0001
0100
0010
1000
0001
1000
0100
0010
0001
0100
,
0001
1000
0100
1000
0010
0100
0001
1000
0010
1000
0100
0010
0100
1000
0010
0100
,
0001
1000
0001
0010
0100
1000
0010
0100
0001
1000
0100
1000
0010
0100
0001
1000
,
0100
0010
0100
1000
0001
0100
0010
1000
0010
0100
0001
1000
0100
0010
0001
0100
,
0001
1000
0100
0010
0100
1000
0010
0100
0001
1000
0100
0010
0001
0100
0001
1000
,
0100
1000
0010
0100
0001
1000
0001
0010
0200
0000
2300
0000
3002
0000
0203
0000
,
0301
1000
0001
0100
0010
1000
0001
0100
0010
0100
0001
1000
0100
1000
0010
0100
,
0001
1000
0100
0010
0100
1000
0001
0100
0001
0010
0100
0010
0001
1000
0100
1000
,
0002
0000
0000
0000
1003
0100
1000
0001
0100
0010
1000
0010
0100
0001
1000
0100
,
0010
0001
1000
0001
0100
0010
1000
0001
1000
0100
0010
0100
1000
0010
0100
0001
,
1000
0100
1000
0001
0100
0010
1000
0010
0100
0001
1000
0100
0010
0001
0100
0001
,
1000
0100
0010
0100
1000
0001
0100
0010
0200
0000
0302
0000
0023
0000
0230
0000
,
0300
0000
0000
0000
0000
0000
0000
0000
1000
0100
1000
0001
0100
0010
0100
0001
,
0010
0100
1000
0001
1000
0100
0010
0001
2000
0000
3002
0000
0023
0000
0230
0000
,
1300
0010
1000
0001
0100
0010
0100
0001
1000
0100
1000
0010
0100
0001
1000
0100
,
0010
0100
1000
0001
0100
0010
1000
0100
0010
0001
1000
0010
1000
0100
0010
0001
,
0100
0000
0000
0000
0001
0100
0010
1000
0010
0100
0001
1000
0100
1000
0010
0100
,
0001
1000
0001
0010
0100
1000
0001
0100
0010
1000
0001
0100
0001
0010
0100
1000
,
0001
0100
0010
0100
0001
1000
0100
1000
0010
0100
0001
1000
0100
0010
0100
1000
,
0001
0100
0010
1000
0010
0100
0001
1000
0100
0010
0001
0100
0001
1000
0100
1000
,
0010
0100
0001
1000
0100
0010
0001
1000
0001
0100
0010
1000
0001
0100
0001
0010
,
0100
1000
0001
0100
0010
1000
0001
0100
0002
0000
0023
0000
0230
0000
2300
0000
,
3001
0100
0001
1000
0010
0100
0001
1000
0100
0010
0100
1000
0001
0100
0001
0010
,
0100
1000
0001
0100
0010
0100
0001
1000
0100
0010
0100
1000
0001
0100
0001
0010
,
0100
1000
0010
0100
0001
1000
0001
0010
0100
1000
0001
0100
,
0010
0100
0001
0010
0100
1000
0010
0000
0000
1000
0000
0000
,
0100
0000
0000
0000
0010
0000
0000
0000
0002
0003
0000
0000
0100
0000
0000
0000
,
0020
0000
0030
0000
0100
0000
0000
0000
0002
0000
0000
0003
0010
0000
0000
0000
,
0200
0000
0000
0000
1300
0000
0000
0000
0020
0000
0000
0000
0230
0300
0000
0000
,
0101
0000
0000
0000
0001
0100
0001
1000
0100
0010
0001
1000
0001
0100
0010
1000
,
0001
0100
0001
1000
0100
0010
0001
1000
0001
0100
0010
1000
0010
0100
0001
1000
,
0001
0010
0100
1000
0001
0000
0000
0000
1000
0001
1000
0100
0010
0000
0000
0000
,
0001
0100
0001
0010
0100
1000
0001
0000
,
1001
0000
0000
0000
1000
0001
1000
0010
0100
0001
0100
0010
1000
0001
1000
0100
,
0010
0001
0100
0001
1000
0100
0010
0100
1000
0001
0100
0010
0100
0001
1000
0100
,
0010
0001
0100
0001
1000
0100
0010
0100
1000
0001
0100
0010
1000
0010
0100
0001
,
1000
0100
1000
0001
0100
0000
0000
0000
0001
1000
0001
0010
0100
1000
0010
0100
,
0002
0000
0000
0000
1003
0100
1000
0001
0100
0010
1000
0010
0100
0001
1000
0100
,
0010
0100
1000
0001
0100
0010
1000
0010
0100
0001
1000
0100
0010
0001
0100
0001
,
1000
0010
0100
0001
0100
0000
0000
0000
0001
1000
0001
0010
0100
0000
0000
0000
,
1000
0010
1000
0100
0010
0001
0100
0001
,
1000
0000
0000
0000
0001
0100
0010
1000
0010
0100
0001
1000
0100
0010
0100
1000
,
0001
0100
0010
1000
0010
0100
0001
1000
0100
0010
0001
1000
0001
0000
0100
0000
,
0010
0000
0000
0000
1000
0010
1000
0100
0010
0001
0100
0001
2000
0000
0000
3000
,
0000
0000
0000
2020
0000
0000
0000
0000
0000
3030
0000
0000
0010
0000
0100
0000
0001
0000
0010
0000
0100
0000
1000
0000
,
0001
0000
0000
0000
1000
0001
1000
0010
0100
0001
0010
0100
1000
0010
0100
0001
,
0100
0010
1000
0001
1000
0100
0010
0001
0100
0001
1000
0100
0010
0100
1000
0001
,
0100
0010
1000
0010
0100
0001
1000
0001
0010
0100
1000
0001
0100
0010
0100
0001
,
1000
0100
0010
0001
0100
0000
0000
0000
0001
1000
0001
0010
0100
1000
0001
1000
,
0010
0000
0000
0000
1000
0010
1000
0001
0010
0100
1000
0001
0100
0010
1000
0001
,
0100
0001
0010
0100
1000
0001
0100
0010
1000
0001
1000
0100
0010
0100
1000
0001
,
0100
0010
1000
0010
0100
0001
1000
0100
0010
0001
0100
0001
1000
0010
1000
0010
,
0100
0001
0100
0001
0010
0100
0010
0100
1000
0010
1000
0010
0100
0001
0010
0100
,
1000
0000
0000
0000
0001
1000
0001
0100
0010
0100
0001
1000
0100
1000
0010
0100
,
0001
1000
0001
0010
0100
1000
0010
0100
0001
0100
0010
1000
0100
0010
0100
1000
,
0001
0100
0010
1000
0010
0100
0001
0010
0100
1000
0001
0010
0001
0100
0010
1000
,
0010
0100
0001
1000
0001
0000
0000
0000
1000
0001
1000
0100
0010
0000
0001
0000
,
0100
0000
0000
0000
0001
0100
0001
1000
0010
0100
0001
1000
0100
0010
0100
1000
,
0001
0100
0010
1000
0010
0100
0001
1000
0100
0010
0001
0100
0001
1000
0100
1000
,
0001
0000
0000
0000
1000
0010
1000
0001
0010
0100
1000
0001
1000
0000
0000
0000
,
0001
1000
0001
0010
0100
1000
0001
0100
0010
1000
0010
0100
0001
1000
0100
0010
,
0001
0100
0001
1000
0100
1000
0010
0100
0001
1000
0001
0010
0100
1000
0001
0100
,
0010
1000
0100
1000
0001
0100
0010
0100
0001
0010
0100
1000
0010
1000
0001
0100
,
0001
0100
0010
0100
0001
0010
0100
1000
,
0001
1000
0100
1000
0010
0100
0001
1000
0001
0010
0100
1000
0001
0100
0010
1000
,
0001
1000
0100
0010
0001
0100
0001
1000
0100
0010
0100
1000
0001
0100
0010
1000
,
0001
0100
0010
1000
0001
1000
0100
0010
0001
0100
0001
1000
0100
1000
0010
0100
,
0001
0100
0010
0100
0001
0010
0100
1000
,
0001
0100
0001
1000
0100
0010
0001
0100
0001
1000
0100
0010
0100
1000
0010
0100
,
0001
1000
0010
1000
0100
0010
0001
0100
0001
1000
0010
0100
0001
0010
0100
1000
,
0001
0100
0001
0010
0100
1000
0010
0100
0010
1000
0100
1000
0001
0100
0010
1000
,
0200
0000
0310
0001
0100
0010
0100
0001
,
1000
0100
0010
0001
0100
0001
1000
0010
0100
0010
1000
0001
0010
0100
0010
0001
,
0100
0010
1000
0010
0100
0001
1000
0100
0010
0001
0100
0001
1000
0100
1000
0010
,
0100
0000
0000
0000
0001
0100
0001
0010
0100
0000
0000
0000
1000
0010
1000
0100
,
0010
0000
0000
0000
0002
0000
0000
0000
1003
0010
1000
0001
0010
0000
0000
0000
,
0100
1000
0001
0100
0010
1000
0010
0100
0001
1000
0100
0010
0001
0100
0001
1000
,
0100
1000
0010
0100
0001
1000
0100
1000
0010
0100
0001
1000
0001
0010
0100
1000
,
0001
0100
0010
1000
0010
0100
0001
1000
0100
0010
0100
1000
0001
0100
0010
0100
,
0001
1000
0100
0010
0001
0100
0001
1000
0100
0010
0100
1000
0001
0100
0010
1000
,
0010
0100
0001
1000
0001
0010
0100
1000
0001
0100
0010
0100
0001
1000
0100
1000
,
0010
0100
0010
1000
0001
1000
0100
0010
0001
0100
0001
1000
0100
1000
0001
0100
,
0010
1000
0001
0010
0100
1000
0001
0100
0010
1000
0001
1000
0100
0010
0001
0100
,
0001
1000
0010
0100
0001
0100
0010
1000
0001
0100
0001
1000
0100
0010
0001
0100
,
0001
1000
0010
0100
0010
1000
0001
1000
0100
0010
0001
0100
0001
1000
0100
1000
,
0010
0100
0001
0100
0010
1000
0001
1000
0100
0010
0001
0100
0001
1000
0100
0010
,
0100
1000
0001
0100
0010
1000
0010
0100
0001
1000
0010
1000
0100
0010
0001
0100
,
0001
1000
0100
0010
0100
1000
0010
0100
0001
1000
0001
0010
0100
0010
0001
0100
,
0010
1000
0010
0100
0001
1000
0100
0010
0001
1000
0001
0100
0010
1000
0100
1000
,
0001
0100
0010
1000
0010
0100
0001
0010
0100
0010
0001
1000
0010
0100
0001
1000
,
0001
0010
0100
1000
0010
0100
0001
1000
0100
1000
0010
0100
0001
1000
0100
0010
,
0100
1000
0001
0100
0010
1000
0010
0100
0001
1000
0100
0010
0001
1000
0001
0100
,
0010
1000
0001
1000
0100
0010
0001
1000
0001
0100
0001
1000
0100
1000
0001
0100
,
0010
1000
0010
0100
0001
0100
0001
1000
0100
0010
0100
1000
0001
0100
0010
1000
,
0010
0100
0001
1000
0100
0010
0001
1000
0001
0100
0010
1000
0010
0100
0001
1000
,
0100
0010
0100
1000
0001
0100
0001
1000
0010
1000
0100
0010
0001
0100
0001
1000
,
0100
1000
0001
0100
0010
1000
0010
0100
0001
1000
0001
0010
0100
1000
0001
0100
,
0001
1000
0100
0010
0001
1000
0001
0100
0010
1000
0010
0100
0001
1000
0100
0010
,
0100
1000
0001
0100
0010
1000
0010
0100
0001
1000
0001
0010
0100
1000
0001
0100
,
0010
1000
0100
1000
0001
0100
0010
0100
0001
1000
0001
0010
0100
0010
0001
1000
,
0010
1000
0001
0100
0010
1000
0010
0100
0001
1000
0001
0010
0100
1000
0001
0100
,
0010
0100
0001
1000
0001
0010
0100
1000
0001
0100
0010
1000
0010
0100
0001
1000
,
0100
0010
0001
0100
0001
1000
0100
0010
0001
1000
0010
0100
0010
1000
0001
1000
,
0100
0010
0001
0100
0001
1000
0100
0010
0100
1000
0001
0100
0010
1000
0010
0100
,
0001
1000
0001
0010
0100
1000
0001
1000
0100
0010
0001
0100
0001
1000
0100
0010
,
0100
1000
0010
0100
0001
1000
0001
0010
0100
1000
0001
0100
0001
0000
0000
0000
,
1000
0100
1000
0010
0100
0001
1000
0100
0010
0001
0100
0001
1000
0100
1000
0010
,
0100
0001
0010
0100
1000
0001
1000
0100
0010
0001
0100
0010
1000
0010
0100
0001
,
0010
0100
1000
0010
0100
0001
1000
0100
0010
0100
1000
0001
0100
0010
1000
0001
,
0100
0001
1000
0100
1000
0010
0100
0001
1000
0000
0001
0000
0100
0010
1000
0001
,
0010
0100
1000
0001
1000
0010
0100
0001
1000
0001
0100
0010
0100
0001
1000
0100
,
0010
0100
1000
0010
0100
0001
1000
0010
0100
0010
1000
0001
1000
0100
0010
0001
,
0100
0000
0000
0000
0001
0100
0010
1000
0001
0100
0001
1000
0100
0010
0100
1000
,
0001
1000
0010
0100
0010
1000
0001
1000
0100
0010
0001
0100
0001
1000
0010
0100
,
0001
0000
0000
0000
0000
0000
0000
0000
1000
0010
1000
0100
0010
0001
0100
0001
,
1000
0100
0010
0100
1000
0001
0100
0010
1000
0010
0100
0001
1000
0100
0010
0001
,
0100
0001
1000
0100
1000
0010
0100
0001
1000
0001
0010
0100
1000
0001
0100
0010
,
0100
0001
1000
0100
0010
0100
1000
0010
0100
0001
0100
0010
1000
0001
1000
0100
,
0010
0001
0100
0001
1000
0100
1000
0010
0100
0010
1000
0001
1000
0100
0010
0001
,
0100
0001
1000
0100
0010
0100
1000
0001
0100
0010
1000
0010
0100
0001
1000
0100
,
0010
0000
0000
0000
0001
0100
0001
1000
0100
0010
0001
0100
0001
1000
0100
1000
,
0010
0100
0001
1000
0001
0010
0100
1000
0001
0100
0010
1000
0010
0100
0001
1000
,
0100
0010
0001
0100
0001
1000
0010
0100
0010
1000
0001
1000
0100
0010
0001
0100
,
0001
1000
0100
0010
0100
1000
0001
0100
0010
1000
0010
0100
0001
1000
0100
0010
,
0001
0100
0001
1000
0100
1000
0010
0100
0010
1000
0001
0010
0100
1000
0001
0100
,
0010
0100
0001
1000
0100
0010
0001
0100
0001
0000
0010
0000
0100
0000
1000
0000
,
0001
1000
0001
0100
0010
1000
0010
0100
0001
1000
0100
0010
0001
0100
0001
1000
,
0100
0010
0100
1000
0010
0100
0001
1000
0100
0010
0001
0100
0001
1000
0010
0100
,
0001
0000
0000
0000
1000
0001
1000
0100
0010
0001
1000
0001
0100
0010
1000
0001
,
0100
0001
1000
0100
0010
0001
1000
0010
0100
0010
1000
0001
0100
0001
0010
0100
,
1000
0001
0100
0010
1000
0010
0100
0001
1000
0100
1000
0010
0100
0001
0010
0100
,
1000
0001
0100
0010
0100
0001
1000
0100
1000
0010
0100
0001
1000
0001
0010
0100
,
1000
0001
0100
0001
0100
0010
1000
0001
1000
0100
0010
0001
0100
0001
1000
0100
,
0010
0100
1000
0010
0100
0010
1000
0001
0100
0000
0001
0000
0010
0000
0100
0000
,
1000
0001
1000
0010
0100
0001
1000
0001
0010
0100
1000
0001
0100
0001
1000
0100
,
0010
0100
1000
0001
0100
0010
1000
0010
0100
0001
1000
0100
0010
0000
0000
0000
,
0001
0100
0001
0010
0100
1000
0010
0100
0001
1000
0100
0010
,
0001
0000
0100
0000
0001
0000
1000
0000
0100
0000
1000
0000
0010
0000
0000
0000
0000
0000
1000
0000
0000
0100
0000
0000
,
1000
0010
1000
0001
0100
0001
0010
0100
,
1000
0010
1000
0001
0100
0010
1000
0100
,
1000
0010
0100
0001
0010
0100
0010
0001
,
1000
0010
0100
0010
1000
0001
0100
0001
,
0010
0100
1000
0010
0100
0001
1000
0100
,
1000
0010
0100
0010
0100
0001
0010
0100
,
0010
0001
1000
0100
0010
0100
1000
0010
,
1000
0000
0001
0000
1000
0001
1000
0100
0010
0000
0000
0000
0001
0000
0100
0000
,
0001
1000
0100
0010
0100
1000
0010
0100
,
0001
0010
0100
1000
0001
1000
0010
0100
,
0001
1000
0100
1000
0010
1000
0001
0010
,
0100
1000
0001
0100
0001
0010
0100
1000
,
0010
0100
0010
1000
0001
1000
0100
0010
,
0001
1000
0001
0100
0001
0010
0100
0010
,
0001
0100
0101
0000
1001
0000
0000
1000
,
1010
0000
0000
0000
0110
0000
0000
0000
0101
0000
0000
0000
0001
1000
0001
0100
,
0010
1000
0001
0100
0001
0010
0100
1000
0001
0100
0001
1000
0100
1000
0010
0100
,
0001
1000
0001
0010
0100
1000
0001
0100
0001
1000
0010
0100
0010
1000
0001
1000
,
0100
0010
0100
1000
0001
0100
0010
1000
0010
0100
0001
1000
0100
0010
0001
0100
,
0001
1000
0100
0010
0100
1000
0010
0100
0001
0000
0000
0000
1000
0100
1000
0001
,
0100
0010
1000
0010
0100
0001
1000
0100
0010
0001
0100
0001
1000
0100
0010
0100
,
1000
0001
0100
0010
1000
0010
0100
0001
1000
0100
0010
0001
0100
0001
1000
0010
,
0100
0010
1000
0001
0010
0100
0010
0001
0100
0010
1000
0010
0100
0000
0001
0000
,
0010
0000
0100
0000
1000
0001
1000
0100
0010
0000
0000
0000
0001
0100
0010
1000
,
0010
0100
0001
1000
0100
0010
0001
0100
0001
1000
0100
0010
0100
1000
0001
0100
,
0010
1000
0010
0100
0001
1000
0100
0010
0001
0100
0001
1000
0100
1000
0010
0100
,
0001
0100
0010
1000
0001
0010
0100
1000
0010
0100
0001
1000
0100
1000
0010
0100
,
0001
0010
0100
0010
0001
1000
0010
0100
0001
0000
0000
0000
1000
0100
1000
0010
,
0100
0001
0010
0100
1000
0010
0100
0001
1000
0010
0100
0001
1000
0001
0010
0100
,
1000
0010
1000
0001
0100
0000
0000
0000
0001
0100
0001
0010
0100
1000
0010
0100
,
0010
1000
0100
0010
0001
0000
0000
0000
1000
0000
0001
0100
0001
0010
0100
1000
,
0001
0100
0010
1000
0001
1000
0100
0010
0001
0000
0000
0000
1000
0000
0010
0000
,
1000
0100
0010
0100
1000
0010
0100
0001
,
0010
0100
1000
0001
0010
0001
1000
0010
,
0100
0000
0010
0000
1000
0000
0100
0000
2000
3000
0000
0000
0001
0100
0001
0010
,
0100
1000
0001
1000
0010
0100
0001
0010
0100
0000
0000
0000
1000
0000
0010
0000
,
0100
0010
1000
0100
0010
0100
1000
0010
,
0100
0010
1000
0100
0010
0100
1000
0100
,
0010
0000
0100
0000
1000
0000
0001
0000
0200
0300
0000
0000
0001
1000
0001
0010
,
0100
1000
0001
0100
0002
0000
0000
0003
0020
0000
0000
0000
0230
0000
0000
0000
,
2300
3020
0230
0302
,
0023
0230
2300
3001
,
0100
0000
0000
0000
0010
0000
0000
0000
1000
0000
0000
0000
0001
1000
0001
0100
,
0010
1000
0001
0010
0100
1000
0001
0100
0001
0000
0000
0000
1000
0000
0010
0000
,
0100
0001
0010
0100
0010
0001
0100
0001
,
0010
0100
1000
0010
0100
0010
1000
0010
,
0100
0000
0001
0000
0010
0000
0100
0000
1000
0000
0000
0000
0001
1000
0001
0010
,
0100
1000
0001
0100
0010
0000
0000
0000
1010
0000
0000
0000
1000
0100
1000
0001
,
0100
0010
1000
0010
0100
0001
1000
0100
0010
0001
0100
0001
1000
0100
1000
0010
,
0100
0001
1000
0001
0010
0100
1000
0001
0100
0010
1000
0010
0100
0001
1000
0100
,
0010
0100
1000
0010
0100
0001
1000
0001
0010
0100
1000
0010
0100
0001
1000
0100
,
0010
0100
1000
0010
0100
0001
0100
0010
1000
0100
0010
0001
0100
0001
0010
0100
,
1000
0001
0100
0010
1000
0000
0000
0000
0001
1000
0001
0010
0100
1000
0001
0100
,
0010
0100
0001
1000
0010
0000
0000
0000
0100
0000
0000
0000
0001
0100
0001
1000
,
0100
0010
0001
0100
0001
1000
0100
0010
0100
1000
0001
0100
0010
1000
0010
0100
,
0001
1000
0100
0010
0001
0100
0001
1000
0100
1000
0010
0100
0001
1000
0001
0010
,
0100
1000
0001
0100
0010
1000
0001
1000
0100
0010
0001
0100
0001
1000
0010
0100
,
0010
1000
0001
1000
0100
0010
0100
1000
0001
0100
0010
1000
0010
0100
0001
1000
,
0100
0010
0001
1000
0001
0000
0000
0000
1000
0100
1000
0010
0100
0001
0010
0100
,
1000
0010
1000
0100
0010
0001
0100
0010
1000
0000
0000
0000
0001
0000
0100
0000
,
0001
0010
0001
0100
0010
1000
0100
0010
,
0001
1000
0100
0010
0001
1000
0100
1000
,
0010
0100
0010
1000
0100
0010
0001
0100
,
0010
1000
0010
0100
0001
0010
0100
1000
,
0001
0000
0100
0000
0010
0000
0100
0000
0001
1000
0001
0010
0100
1000
0001
0100
,
0010
1000
0010
0100
0001
1000
0100
0010
0001
0000
0000
0000
1000
0000
0100
0000
,
1000
0010
0100
0010
1000
0001
0010
0100
,
1000
0010
0100
0001
1000
0100
0010
0100
,
1000
0000
0010
0000
0100
0000
0001
0000
0010
0000
0100
0000
1000
0100
0010
0001
,
1000
0001
0100
0010
0100
0001
0010
0100
1000
0000
0000
0000
1010
0000
0000
0000
,
0010
0000
0000
0101
0000
0000
0100
0000
0001
0000
0010
0000
,
0100
1000
0001
0100
0010
1000
0010
0100
0001
1000
0100
0010
,
0001
0100
0001
1000
0100
1000
0010
0100
0001
0100
0010
1000
,
0100
0010
0001
0100
0001
1000
0100
0010
0100
1000
0010
0100
,
0010
1000
0001
1000
0100
0010
0001
0100
0001
1000
0100
1000
,
0010
0100
0001
0100
0010
1000
0001
0010
0100
1000
0001
0100
,
0010
0100
0001
1000
0100
0010
0100
1000
0001
0100
0000
0000
,
0001
0000
0000
0100
0000
0000
0001
0000
0000
0010
0000
0000
0100
0000
0000
1000
0000
0000
0001
0000
0000
0100
0000
0000
0010
0000
0000
0000
1000
0000
0000
0000
0010
0000
0000
0000
0100
0000
0000
0000
0001
0000
0000
0000
1000
0000
0000
0000
,
0100
0010
0001
0100
0001
1000
0100
0010
0100
1000
0001
0100
,
0010
1000
0010
0100
0001
1000
0100
0010
0001
0100
0001
1000
,
0100
1000
0010
0100
0001
0010
0100
1000
0001
0100
0010
1000
,
0010
0100
0001
1000
0100
0010
0001
0100
0001
1000
0100
1000
,
0010
0100
0001
0010
0100
1000
0010
0100
0001
2000
0000
0000
,
0000
0000
0000
3002
0000
0000
0103
0010
1000
0100
1000
0001
,
0010
0100
1000
0001
0100
0010
0100
0001
1000
0100
1000
0010
,
0100
0001
0010
0100
1000
0010
0100
0001
1000
0100
1000
0010
,
0100
0001
1000
0100
0010
0001
0100
0001
1000
0100
0010
0100
,
1000
0001
0100
0010
1000
0010
0100
0001
1000
0100
0010
0001
,
0100
0001
1000
0100
1000
0010
0100
0001
1000
0001
0010
0100
,
1000
0001
0100
0001
1000
0100
1000
0010
0100
0001
1000
0100
,
0010
0100
1000
0001
0100
0010
1000
0010
0100
0001
1000
0100
,
0010
0001
0100
0001
1000
0100
1000
0010
0100
0001
0010
0100
,
1000
0001
0100
0010
1000
0010
0100
0001
1000
0100
0010
0001
,
0100
0001
1000
0100
0010
0100
1000
0010
0100
0001
1000
0001
,
0010
0000
0100
0000
1000
0000
0010
0000
0100
0000
0001
0000
1000
0000
0100
0000
0010
0000
0002
0000
0000
0003
0000
0000
,
0000
0000
0002
0003
1000
0100
1000
0001
,
0100
0010
0100
0001
0010
0100
1000
0010
,
0100
0010
1000
0001
0010
0100
1000
0010
,
1000
0100
0010
0100
1000
0010
0100
0010
,
1000
0100
1000
0001
0100
0001
0010
0001
,
0100
0010
0100
0001
0010
0100
1000
0010
,
0100
0010
1000
0001
0010
0100
0010
0001
,
0100
0001
1000
0100
0010
0100
1000
0001
,
0100
0000
0010
0000
1000
0000
0100
0000
1000
0001
1000
0010
0100
0001
0010
0100
,
1000
0001
1000
0010
0100
0001
0100
0010
1000
0001
1000
0100
0010
0001
0100
0001
,
1000
0100
0010
0100
1000
0001
0100
0010
1000
0010
0100
0001
1000
0100
0010
0001
,
0100
0001
1000
0100
1000
0010
0100
0001
0100
0010
1000
0001
1000
0100
0010
0001
,
0100
0001
1000
0100
1000
0010
0100
0001
1000
0010
0100
0010
1000
0001
0010
0100
,
0010
0001
0100
0010
1000
0010
0100
0001
1000
0100
0010
0001
0100
0001
1000
0100
,
0010
0100
1000
0001
0100
0010
1000
0010
0100
0001
1000
0100
0010
0001
0100
0001
,
1000
0010
0100
0001
1000
0001
0010
0100
1000
0000
0000
0000
1001
0000
0000
0000
,
0000
0000
0001
0000
0101
0100
0010
0100
,
0001
0010
0100
1000
0010
0100
0001
0010
,
0100
0010
0001
1000
0010
0100
0001
0100
,
0010
1000
0100
0010
0001
1000
0100
0010
,
0100
1000
0010
0100
0001
0010
0100
0010
,
0001
0010
0100
1000
0010
1000
0001
0010
,
0100
0010
0001
0100
0010
0100
0001
1000
,
0001
0010
0100
0010
0001
0100
0010
1000
,
0100
0000
0010
0000
0001
0000
1000
0000
0001
1000
0001
0010
0100
1000
0001
0100
,
0010
1000
0010
0100
0001
1000
0100
0010
0001
0100
0001
1000
0100
0010
0100
1000
,
0001
0100
0010
1000
0010
0100
0001
1000
0100
0010
0001
0100
0001
1000
0100
1000
,
0010
0100
0001
1000
0100
0010
0100
1000
0001
0100
0010
1000
0010
0100
0001
1000
,
0100
0010
0001
0100
0001
1000
0100
1000
0010
0100
0001
1000
0001
0010
0100
1000
,
0001
0100
0010
1000
0010
0100
0001
1000
0100
0010
0001
0100
0001
1000
0100
0010
,
0100
1000
0010
0100
0001
1000
0001
0010
0100
1000
0001
0100
0010
0100
0001
1000
,
0100
1000
0010
0100
0001
0010
0100
1000
0001
0000
0000
0000
1001
0000
0000
0000
,
0000
0000
0000
0000
1000
0000
0000
0000
1010
0000
0000
0000
0010
0100
0001
0010
,
0100
1000
0001
0100
0001
1000
0100
0010
0001
0100
0001
1000
0100
1000
0010
0100
,
0001
1000
0001
0010
0100
0010
0001
1000
0010
1000
0100
0010
0001
0000
0000
0000
,
1000
0001
1000
0100
0010
0000
0000
0000
0001
0000
0100
0000
0001
0000
0010
0000
,
0100
0000
1000
0000
0001
0000
0100
0000
0001
0000
0000
0000
1000
0100
1000
0010
,
0100
0001
1000
0001
0010
0100
1000
0001
0100
0010
1000
0010
0100
0001
1000
0100
,
1000
0010
0100
0001
0010
0100
1000
0001
1000
0100
0010
0001
0100
0001
1000
0010
,
1000
0100
0010
0001
0100
0010
1000
0001
0010
0100
1000
0001
0100
0001
1000
0100
,
0010
0100
1000
0010
0100
0001
1000
0001
0100
0000
0000
0000
0001
1000
0001
0100
,
0010
0100
0001
1000
0100
0010
0100
1000
0001
0100
0010
1000
0010
0100
0001
1000
,
0100
0010
0001
0100
0001
1000
0100
1000
0010
0100
0001
1000
0001
0000
0000
0000
,
1000
0001
1000
0100
0010
0000
0000
0000
0001
0000
0010
0000
0001
0000
0100
0000
,
0010
0000
1000
0000
0100
0000
0010
0000
0001
0000
0000
0000
1000
0001
1000
0100
,
0010
0001
0100
0001
1000
0100
0010
0100
1000
0001
0100
0010
1000
0010
0100
0001
,
1000
0100
0010
0001
1000
0000
0001
0000
0100
0000
0000
0000
0001
1000
0001
0010
,
0100
1000
0001
1000
0020
0000
0030
0000
0000
0000
2020
0000
3030
0000
0000
0000
,
1000
0001
1000
0100
0010
0001
0100
0010
1000
0000
0000
0000
0001
0100
0010
1000
,
0010
0100
0001
1000
0100
0010
0001
0100
0001
1000
0100
0010
0100
1000
0001
0100
,
0010
1000
0010
0100
0001
1000
0100
0010
0001
0100
0001
1000
0100
0010
0100
1000
,
0001
0100
0010
1000
0010
0100
0001
1000
0100
0010
0001
0100
0001
0000
0000
0000
,
1000
0001
1000
0100
0010
0001
1000
0001
0100
0000
0000
0000
0001
0100
0001
1000
,
0100
0010
0100
1000
0001
0100
0010
1000
0010
0100
0001
1000
0100
0010
0001
0100
,
0001
1000
0100
0010
0100
1000
0001
0100
0010
1000
0010
0100
0001
1000
0100
0010
,
0001
0000
1000
0000
0001
0000
1000
0010
1000
0100
0010
0001
1000
0010
1000
0001
,
0100
0010
0100
0001
1000
0001
0010
0100
1000
0000
0000
0000
0001
0100
0010
1000
,
0001
1000
0100
0010
0001
0100
0001
1000
0100
0010
0100
1000
0001
0100
0010
1000
,
0010
0100
0001
1000
0100
0010
0001
0100
0001
1000
0100
1000
0010
0100
0001
1000
,
0001
0010
0100
1000
0001
0100
0010
0100
0001
1000
0100
0010
0001
0000
0000
0000
,
1000
0100
0010
0001
1000
0001
0100
0010
1000
0000
0000
0000
0001
0100
0001
1000
,
0100
0010
0001
0100
0001
1000
0100
1000
0001
0100
0010
0100
0001
0010
0100
1000
,
0001
0100
0010
1000
0001
0100
0001
1000
0100
0000
0000
0000
0010
0001
1000
0001
,
0100
0010
1000
0001
0100
0000
0000
0000
0001
0100
0010
1000
0010
0100
0001
1000
,
0100
0010
0001
0100
0001
1000
0100
0010
0100
1000
0010
0100
0001
0100
0010
1000
,
0001
1000
0100
0010
0001
0100
0001
1000
0010
0100
0001
0100
0010
1000
0100
0010
,
0001
0100
0001
1000
0100
0010
0100
1000
0001
0000
0100
0000
0010
0000
1000
0000
,
0100
0000
0010
0000
0001
0000
1000
0000
0001
0100
0010
1000
0010
0100
0001
1000
,
0100
0010
0001
0100
0001
1000
0100
0010
0100
1000
0001
0100
0010
1000
0010
0100
,
0001
1000
0001
0010
0100
1000
0010
0100
0001
0100
0010
1000
0100
0010
0100
1000
,
0010
0100
0001
0100
0010
1000
0100
0010
0001
0000
0100
0000
0010
0000
1000
0000
,
0100
0000
0010
0000
0001
0000
0100
0000
0001
1000
0001
0010
0100
1000
0001
0100
,
0010
1000
0100
1000
0010
0100
0001
0010
0100
1000
0010
0100
0001
0010
0001
1000
,
0100
1000
0010
0100
0001
1000
0100
0010
0001
0100
0001
1000
0100
0010
0100
1000
,
0010
0100
0001
1000
0100
0010
0001
0100
0002
0000
0000
0000
1003
0000
0100
0000
,
1000
0000
0010
0000
0100
0000
0001
0000
1000
0100
1000
0001
0100
0010
1000
0001
,
1000
0100
0010
0001
0100
0001
1000
0100
0010
0001
0100
0001
1000
0010
0100
0001
,
0100
0010
1000
0001
1000
0100
0010
0001
0100
0001
1000
0100
0010
0100
1000
0001
,
0100
0000
0000
0000
0001
1000
0001
0010
0100
0000
0000
0000
0100
0000
0000
0000
,
1000
0010
1000
0100
0010
0000
0000
0000
0001
1000
0001
0100
0010
1000
0010
0100
,
0001
1000
0100
0010
0001
0100
0001
1000
0100
1000
0010
0100
0001
1000
0100
1000
,
0010
0100
0001
1000
0001
0010
0100
1000
0001
0100
0010
1000
0010
0100
0001
1000
,
0100
0010
0100
1000
0001
0100
0010
0100
0001
1000
0100
0010
0001
0100
0001
1000
,
0100
0010
0100
1000
0001
0100
0010
1000
0010
0100
0001
1000
0001
0010
0100
1000
,
0001
0100
0010
0100
0001
1000
0100
1000
0010
0100
0010
1000
0001
1000
0100
0010
,
0001
0100
0001
1000
0100
1000
0001
0100
0010
1000
0001
0010
0100
1000
0001
0100
,
0010
1000
0001
1000
0100
0010
0001
0100
0001
1000
0010
0100
0001
0100
0010
1000
,
0001
0100
0001
1000
0100
0010
0001
0100
0001
1000
0010
0100
0010
1000
0001
1000
,
0100
0010
0001
0100
0001
1000
0100
1000
0010
0100
0001
0100
0010
1000
0001
1000
,
0100
0010
0001
0100
0001
1000
0100
0010
0100
1000
0001
0100
0010
1000
0010
0100
,
0001
1000
0010
1000
0100
0010
0001
0100
0001
1000
0100
0010
0100
1000
0010
0100
,
0001
1000
0001
0010
0100
0010
0001
0100
0010
1000
0010
0100
0001
1000
0100
0010
,
0001
1000
0001
0100
0010
1000
0100
1000
0001
0100
0010
1000
0010
0100
0001
0010
,
0100
0010
0001
1000
0010
0100
0001
1000
0001
0010
0100
1000
0010
0100
0001
1000
,
0100
1000
0010
0100
0001
1000
0100
0010
0100
1000
0001
0100
0010
1000
0010
0100
,
0001
1000
0100
0010
0001
1000
0001
0100
0010
1000
0001
1000
0100
0010
0001
1000
,
0001
0100
0001
1000
0100
1000
0001
0100
0010
1000
0010
0100
0001
0100
0001
1000
,
0100
0010
0100
1000
0001
0100
0010
1000
0010
0100
0001
1000
0100
0010
0001
1000
,
0001
0100
0010
1000
0010
0100
0001
1000
0100
0010
0100
1000
0001
0100
0001
1000
,
0010
1000
0100
0010
0001
0100
0001
1000
0100
1000
0001
0100
0010
1000
0010
0100
,
0001
1000
0001
0010
0100
1000
0001
0100
0001
1000
0100
0010
0001
1000
0001
0100
,
0010
1000
0010
0100
0001
1000
0100
0010
0100
1000
0001
0100
0010
1000
0010
0100
,
0001
1000
0001
0010
0100
1000
0001
0100
0010
1000
0100
1000
0001
0100
0010
0100
,
0001
1000
0001
0010
0100
0010
0001
1000
0010
1000
0001
0100
0010
1000
0010
0100
,
0001
1000
0001
0010
0100
1000
0001
0100
0010
0100
0001
1000
0001
0010
0100
1000
,
0001
0100
0010
1000
0010
0100
0001
1000
0100
0010
0001
0100
0001
1000
0100
0010
,
0001
1000
0010
0100
0010
1000
0001
1000
0100
0010
0001
0100
0001
1000
0100
0010
,
0100
1000
0001
0100
0010
1000
0010
0100
0001
1000
0001
0010
0100
1000
0001
1000
,
0100
0010
0001
0100
0001
1000
0100
0010
0100
1000
0010
0100
0001
1000
0001
0010
,
0100
1000
0001
0100
0001
0000
0000
0000
1000
0100
1000
0010
0100
0001
0010
0100
,
1000
0010
0100
0001
0010
0001
0100
0010
1000
0100
0010
0001
0100
0001
1000
0100
,
0010
0100
1000
0010
0100
0001
1000
0100
0010
0001
0100
0001
1000
0100
1000
0010
,
0100
0001
0010
0100
0010
0001
0100
0010
1000
0010
0100
0001
1000
0100
0010
0001
,
1000
0000
0010
0000
0100
0000
0001
0000
0010
0100
1000
0001
0100
0010
1000
0001
,
0100
0001
0010
0100
1000
0001
0100
0010
1000
0100
1000
0001
1000
0100
0010
0001
,
0100
0001
1000
0100
0010
0100
1000
0001
0100
0000
0000
0000
0001
1000
0001
0010
,
0100
1000
0001
0100
0010
0100
0001
1000
0100
0010
0001
0100
0001
1000
0100
0010
,
0100
1000
0010
0100
0001
1000
0100
0010
0001
0000
0000
0000
0000
0000
0000
0000
,
1000
0100
1000
0001
0100
0010
1000
0010
0100
0001
1000
0100
0010
0001
0100
0001
,
1000
0100
0010
0100
1000
0001
0100
0010
1000
0010
0100
0001
1000
0100
0010
0001
,
0100
0001
1000
0100
1000
0010
0100
0001
0010
0100
1000
0001
0100
0010
1000
0001
,
2000
0000
3200
0000
0320
0000
0032
0000
1003
0100
1000
0001
0100
0010
0100
0001
,
1000
0100
0010
0001
0100
0001
1000
0010
1000
0100
0010
0001
0100
0001
1000
0100
,
0010
0100
1000
0001
0100
0010
1000
0100
0010
0000
0000
0000
0001
0100
0001
1000
,
0100
0010
0001
0100
0001
1000
0010
0100
0001
0010
0001
1000
0100
0010
0100
1000
,
0001
0100
0010
1000
0010
0100
0001
1000
0100
0010
0001
0100
0001
1000
0010
0100
,
0010
1000
0001
0100
0001
1000
0100
0010
0001
1000
0010
0100
0001
1000
0100
0010
,
0100
1000
0001
0100
0010
1000
0010
0100
0001
1000
0100
0010
0001
0100
0001
1000
,
0100
0010
0100
1000
0010
0100
0001
1000
0100
0010
0001
0100
0001
1000
0010
0100
,
0001
0000
1000
0000
0001
0000
0010
0000
0100
1000
0001
1000
0100
0010
0001
0100
,
0001
1000
0100
0010
0100
1000
0001
0100
0010
1000
0010
0100
0001
1000
0100
0010
,
0001
0100
0001
1000
0100
1000
0010
0100
0001
0000
0000
0000
1000
0100
1000
0001
,
0100
0010
1000
0010
0100
0001
1000
0100
0010
0001
0100
0001
1000
0100
1000
0010
,
0100
0001
1000
0001
0010
0100
1000
0010
0100
0001
0100
0010
1000
0001
1000
0100
,
0010
0001
0100
0001
1000
0100
1000
0010
0100
0001
1000
0001
0010
0100
0010
0001
,
0100
0010
1000
0010
0100
0001
1000
0100
0010
0001
0100
0001
1000
0010
0100
0001
,
0010
0100
1000
0001
0100
0010
0100
0001
1000
0100
1000
0100
0010
0001
0100
0001
,
1000
0000
0010
0000
0100
0000
0001
0000
1000
0100
1000
0010
0100
0001
1000
0100
,
0010
0001
0100
0001
1000
0100
0010
0100
1000
0001
0100
0010
1000
0010
0100
0001
,
1000
0000
0000
0100
0000
0000
0010
0000
0000
0001
0000
0000
1000
0000
0000
0000
0000
0000
0000
0000
0000
0000
0000
0000
0001
0000
0000
0000
0100
0000
0000
0000
0001
0000
0000
0000
0010
0000
0000
0000
0100
0000
0000
0000
1000
0000
0000
0000
,
0010
0100
0001
1000
0100
0010
0001
0100
0001
1000
0010
0100
,
0002
0003
0000
0000
;
