#TITLE:M.A.G.I.C Speed Ball;
#SUBTITLE:~L3g1T G4Y!~;
#ARTIST:teranoid & MC Natsack (ft. good-cool);
#TITLETRANSLIT:;
#SUBTITLETRANSLIT:;
#ARTISTTRANSLIT:;
#CREDIT:;
#BANNER:../speedcore rejects ban.png;
#BACKGROUND:../speedcore rejects bg.png;
#LYRICSPATH:;
#CDTITLE:;
#MUSIC:M.A.G.I.C. Speed Ball.ogg;
#OFFSET:0.009;
#SAMPLESTART:12.370;
#SAMPLELENGTH:12.800;
#SELECTABLE:YES;
#DISPLAYBPM:300.000;
#BPMS:0.000=150.000,157.000=150.140,158.000=154.300,159.000=154.840,160.000=158.700,161.000=161.000,162.000=163.080,163.000=166.000,164.000=169.400,165.000=171.500,166.000=173.980,167.000=176.860,168.000=177.000,169.000=183.000,169.500=185.750,172.000=190.650,173.000=192.600,174.000=195.200,175.000=198.000,176.000=200.600,177.000=203.300,178.000=205.800,179.000=206.800,180.000=213.100,181.000=214.380,182.000=214.500,183.000=220.000,184.000=223.400,186.000=227.400,188.000=234.300,189.000=236.000,190.000=245.400,191.000=251.800,192.000=258.000,193.000=264.100,194.000=269.800,195.000=275.000,196.000=285.000,197.000=289.000,198.000=294.600,199.000=301.600,200.000=304.000,201.000=317.800,202.000=328.000,203.000=333.000,204.000=344.000,205.000=364.000,206.000=381.600,207.000=400.000,208.000=419.300,209.000=435.000,210.000=458.000,211.000=475.500,212.000=490.000,213.000=514.000,214.000=528.000,215.000=533.000,216.000=589.000,217.000=593.000,218.000=632.000,219.000=665.000,220.000=683.000,221.000=716.000,222.000=736.000,223.000=765.000,224.000=788.000,225.000=815.000,226.000=849.000,227.000=856.000,228.000=901.000,229.000=914.000,230.000=932.000,231.000=976.000,232.000=992.000,233.000=1034.000,234.000=1066.000,235.000=1092.000,236.000=1122.000,237.000=1150.000,238.000=1164.000,239.000=1200.000,240.000=1220.000,241.000=1258.000,242.000=1272.000,243.000=1288.000,244.000=1330.000,245.000=1364.000,246.000=1406.000,248.000=1444.000,249.000=1496.000,251.000=1528.000,252.000=1558.000,253.000=1570.000,254.000=1606.000,255.000=1628.000,256.000=1646.000,257.000=1690.000,258.000=1708.000,259.000=1728.000,260.000=1747.000,342.000=150.000;
#STOPS:;
#BGCHANGES:;
// cache tags:
#FIRSTBEAT:12.000;
#LASTBEAT:447.000;
#SONGFILENAME:Songs/Speedcore Rejects/M.A.G.I.C. Speed Ball ~L3g1T G4Y!~ - [Aoreo]/M.A.G.I.C speed ball.sm;
#HASMUSIC:1;
#HASBANNER:1;
#MUSICLENGTH:126.553;
// end cache tags

//---------------dance-single - J. Nero----------------
#NOTES:
     dance-single:
     J. Nero:
     Challenge:
     18:
     1.000,1.000,0.213,0.601,1.000,1086.000,27.000,76.000,0.000,2.000:
0000
0000
0000
0000
,
0000
0000
0000
0000
,
0000
0000
0000
0000
,
2000
3000
0000
0000
0200
0300
0000
0000
2000
3000
0000
0000
0002
0003
0000
0000
,
1001
0000
0000
0000
1000
0000
0000
0000
0001
0000
0000
0000
0100
0000
0000
0000
0010
0000
0000
0000
0100
0000
0000
0000
0001
0000
0000
0000
0010
0000
0000
0000
0100
0000
0000
0000
1000
0000
0000
0000
0001
0000
0000
0000
0200
0000
0000
0000
0000
0000
0000
0000
0300
0000
0000
0000
0002
0000
0000
0000
0000
0000
0000
0003
,
1001
1000
0010
1000
0100
0010
0100
1000
0001
1000
0001
0200
0000
0300
0020
0000
,
0131
0000
0000
0000
0100
0000
0000
0000
0001
0000
0000
0000
1000
0000
0000
0000
0010
0000
0000
0000
0100
0000
0000
0000
0010
0000
0000
0000
1000
0000
0000
0000
0001
0000
0000
0000
0010
0000
0000
0000
0100
0000
0000
0000
2000
0000
0000
0000
0000
0000
0000
0000
3000
0000
0000
0000
0002
0000
0000
0000
0000
0000
0000
0003
,
1001
0000
0000
1000
0000
0000
0100
0000
0000
1000
0000
0000
0010
0000
0000
0100
0000
0000
0001
0000
1000
0000
0100
0000
0010
0000
0100
0000
1000
0000
0001
0000
0100
0000
0010
0000
0100
0000
0001
0000
1000
0000
0100
0000
0010
0000
0001
0000
,
1000
0000
0000
0000
0100
0000
0000
0000
1000
0000
0000
0000
0001
0000
0000
0000
0010
0000
0000
0000
0100
0000
0000
0000
0010
0000
0000
0000
0001
0000
0000
0000
1000
0000
0000
0000
0010
0000
0000
0000
0100
0000
0000
0000
0002
0000
0000
0000
0000
0000
0000
0000
0003
0000
0000
0000
2000
0000
0000
0000
0000
0000
0000
3000
,
1001
0001
0100
0010
1000
0001
0010
0100
1000
0001
1000
0020
0000
0030
0200
0000
,
1310
0000
0000
0000
0010
0000
0000
0000
1000
0000
0000
0000
0001
0000
0000
0000
0010
0000
0000
0000
0100
0000
0000
0000
1000
0000
0000
0000
0001
0000
0000
0000
0100
0000
0000
0000
0010
0000
0000
0000
1000
0000
0000
0000
0002
0000
0000
0000
0000
0000
0000
0000
0003
0000
0000
0000
2000
0000
0000
0000
0000
0000
0000
3000
,
1001
0001
1000
0100
0010
0100
1000
0001
0100
0010
0100
0001
0010
0100
1000
0001
,
1000
0000
0000
0000
0000
0000
0000
0000
0000
0000
0000
0000
0000
0000
0000
0000
0002
0000
0000
0000
0003
0000
0000
0000
1000
0001
1000
0001
1000
0001
1000
0001
,
1000
0001
0100
0010
0100
0001
1000
0001
0010
0100
1000
0001
0100
0010
0100
0001
1000
0100
1000
0001
0100
0010
0100
0001
,
1000
0000
0001
0000
0010
0000
0100
0000
1000
0000
0001
0000
1000
0000
0010
0000
0100
0000
0010
0000
1000
0000
0001
0000
1000
0000
0000
0000
0000
0000
0100
0000
0000
0000
0000
0000
1000
0000
0000
0001
0000
0000
0000
0000
0000
0100
0000
0000
,
0001
1000
0100
1000
0001
0010
0100
1000
0001
0100
0010
0100
0001
1000
0100
0010
0001
1000
0001
0100
0001
1000
0010
0100
,
0001
0000
0100
0000
0010
0000
1000
0000
0001
0000
0100
0000
0001
0000
1000
0000
0100
0000
0010
0000
0100
0000
1000
0000
0001
0000
0000
0100
0000
0000
0000
0000
0000
0001
0000
0000
0000
0000
0000
0001
0000
0000
0000
0000
0000
1000
0000
0000
,
0100
1000
0001
0100
0001
1000
0010
0100
0010
1000
0001
0100
0001
1000
0100
0010
0001
1000
0001
0100
0001
1000
0010
0100
,
0010
0000
1000
0000
0001
0000
0100
0000
0001
0000
1000
0000
0100
0000
0010
0000
0001
0000
1000
0000
0001
0000
0100
0000
0001
0000
0000
0000
0000
0000
1000
0000
0000
0000
0000
0000
0100
0000
0000
1000
0000
0000
0000
0000
0000
0001
0000
0000
,
1000
0001
0100
0010
1000
0010
0100
0001
1000
0001
0010
0100
1000
0001
0010
0001
1000
0001
0100
0010
0100
0001
1000
0010
,
2000
0000
3000
0001
0010
0000
0100
1000
0100
0000
1000
0001
0000
0100
0010
0000
,
1001
1000
0001
0100
0010
0100
0001
0010
0100
1000
0001
0200
0000
0300
0002
0000
,
1003
0000
0100
0000
1000
0000
0001
0000
0100
0000
0000
0100
0000
0000
0001
0000
1000
0000
0100
0000
1000
0001
1000
0001
0100
0000
0001
0000
1000
0000
0001
0010
,
0100
1000
0001
0100
0010
0100
0001
0010
0100
1000
0001
0200
0000
0300
0002
0000
,
1003
0100
0000
1000
0000
1000
0000
0010
0100
0000
0001
0010
0000
0100
0000
0100
,
1000
0001
0100
0010
0100
0001
1000
0100
0010
0001
0100
0020
0000
0030
2000
0000
,
3001
0000
0100
0000
0010
0000
0000
0000
0100
0000
0001
0000
0010
0000
0000
0000
0100
0000
1000
0000
0001
0000
0000
0000
1000
0100
1000
0100
1000
0100
1000
0000
,
0001
0000
0000
0000
0100
0000
0000
0000
0010
0000
0000
0000
0100
0000
0000
0000
0001
0000
0000
0000
0010
0000
0000
0000
0100
0000
0000
0000
0010
0000
0000
0000
0001
0000
0000
0000
1000
0000
0000
0000
0010
0000
0000
0000
0200
0000
0000
0000
0000
0000
0000
0000
0300
0000
0000
0000
0002
0000
0000
0000
0000
0000
0000
0003
,
1001
0000
1000
0010
0100
0000
0001
0010
0100
0000
1000
0010
0200
0000
0000
0300
,
0001
1000
0100
1000
0001
0100
0010
0100
0001
1000
0100
0010
0001
1000
0001
0100
,
0010
0100
0001
1000
0100
0010
0001
1000
0100
1000
0001
0100
0010
1000
0000
0010
,
0100
0001
0100
0010
1000
0001
0010
0100
1000
0001
0100
0010
0100
0001
1000
0100
,
1000
0001
0010
0100
1000
0001
0100
0010
0100
0001
0000
0001
0000
1000
0000
0100
,
1000
0001
1000
0010
0100
0001
1000
0100
0010
0001
1000
0100
1000
0001
0100
0010
,
0100
0001
1000
0001
0010
0100
1000
0001
0100
0010
0100
0001
1000
0100
0000
1000
,
0001
0000
0100
0000
0001
0000
1000
0000
0100
0000
0010
0000
0001
0000
1000
0000
0010
0000
0100
0000
0001
0000
0100
0000
0010
0000
1000
0000
0001
0000
0010
0000
0100
0000
1000
0000
0001
0000
0100
0000
0010
0000
1000
0000
0000
0001
0000
0000
,
0100
0000
0000
0001
0010
0000
0001
1000
0100
0000
1000
0010
0000
0100
0001
0000
,
0202
0000
0000
0000
0000
0000
0000
0303
,
0002
0003
0000
0000
2000
3000
0000
0000
0002
0003
0000
0000
0200
0300
0000
0000
,
0110
0000
0010
1000
0000
0100
1000
0000
0001
0000
0000
0010
0100
0000
0000
1000
,
0100
0000
1000
0001
0000
0100
0001
0000
0100
0000
0000
0001
0010
0000
0000
0100
,
1000
0000
0001
0100
0000
0010
0100
0000
0001
0000
0000
1000
0100
0000
0000
1000
,
0001
0000
0100
0000
0020
0000
0130
0001
0100
0000
0000
0000
0001
0000
1000
0000
,
0001
0100
0010
0100
0001
0010
0100
1000
,
0001
0000
0100
0000
0010
0000
0100
0000
0001
0000
1000
0000
0100
0000
1000
0001
,
1000
0001
0100
0010
0100
0001
0010
0100
,
1000
0001
0000
0000
0100
0010
0000
0000
,
1000
0001
1000
0001
,
1000
0001
1000
0001
,
1000
0001
1000
0001
,
1000
0001
1000
0001
,
1000
0001
1000
0001
,
1000
0001
1000
0001
,
1000
0001
1000
0001
,
1000
0001
1000
0001
,
1000
0001
1000
0001
,
1000
0001
1000
0001
,
1000
0001
1000
0001
,
1000
0001
1000
0001
,
1000
0001
1000
0001
,
1000
0001
1000
0001
,
1000
0001
1000
0001
,
1000
0001
1000
0001
,
1000
0001
1000
0001
,
1000
0001
1000
0001
,
1000
0001
1000
0001
,
1000
0001
1000
0001
,
1000
0001
1000
0001
,
1000
0001
1000
0001
,
1000
0001
1000
0001
,
1000
0001
1000
0001
,
1000
0001
1000
0001
,
1000
0001
1000
0001
,
1000
0001
1000
0001
,
1000
0001
1000
0001
,
1000
0001
1000
0001
,
1000
0001
1000
0001
,
1000
0001
1000
0001
,
1000
0001
1000
0001
,
1000
0001
1000
0001
,
1000
0001
1000
0001
,
1000
0001
1000
0001
,
1000
0001
1000
0001
,
1000
0001
1000
0001
,
1000
0001
1000
0001
,
1000
0000
0000
0000
0001
0000
0000
0000
2000
0000
3000
0001
0100
0100
1000
0010
,
0010
0001
0100
0100
1000
0000
0001
0000
2002
3003
0000
1000
0100
0100
0001
0010
,
0010
1000
0100
0100
0010
0100
0100
1000
2002
3003
0000
0001
0100
0100
1000
0010
,
0010
0001
0100
0100
1000
0000
0001
0000
2002
0000
0000
0000
0000
0000
3003
0000
,
1000
0000
0001
0000
0010
0100
1000
0000
1001
0000
0000
0001
0100
0100
1000
0010
,
0010
0001
0100
0100
1000
0000
0001
0000
1001
0000
0000
1000
0100
0100
0001
0010
,
0010
0000
1000
0000
0100
0000
1000
0000
0001
0100
0001
0100
0001
0100
0001
0100
0002
0000
0000
0000
0000
0000
0000
0000
0000
0000
0000
0000
0000
0000
0000
0000
,
0000
0000
0000
0000
0000
0000
0003
0000
2000
3000
0000
0000
0200
0300
0000
0000
,
1000
0000
0100
0000
1000
0000
0001
0000
0100
0000
0010
0000
1000
0001
1000
0001
1000
0000
0000
0000
0001
0000
0000
0000
0100
0000
0000
0000
0010
0000
0000
0000
,
0100
0001
0010
0200
1300
0010
0100
0010
,
1000
0000
0001
0000
0010
0100
0000
1000
0100
0000
1000
0000
0001
0000
0100
0000
,
0010
0000
0100
0000
0001
0000
0020
0000
0130
0000
0000
1000
0100
0000
1000
0001
,
0100
0000
0010
0100
0000
0001
1000
0000
2002
3003
0000
2020
3030
0000
0202
0303
,
0202
0303
0000
2002
3003
0000
2200
3300
2200
3300
0000
0220
0330
0000
2002
3003
,
2002
0000
0000
3003
0000
0000
0000
0000
0000
0001
0000
0000
0100
0000
0000
0010
0000
0000
0000
0000
0000
0100
0000
0000
0001
0000
1000
0000
0100
0000
1000
0000
0001
0000
0010
0000
0100
0000
1000
0000
0010
0000
0100
0000
0001
0000
1000
0000
,
0100
0000
0010
0000
0001
0000
1000
0000
0100
0000
1000
0000
0001
0000
0100
0000
0010
0000
0100
0000
0001
0000
1000
0000
0002
0000
0000
0003
0000
0000
0000
0000
0000
0200
0000
0000
0300
0000
0000
0000
0000
0000
0020
0000
0000
0030
0000
0000
,
1000
0000
0000
0100
0000
0000
1000
0000
0000
0001
0000
0000
0010
0000
0000
0100
0000
0000
1000
0000
0000
0001
0000
0000
0100
0000
0000
0010
0000
0000
0100
0000
0000
0001
0000
0000
1000
0000
0000
0001
0000
0000
0100
0000
0001
0000
0010
0000
,
0100
0000
0000
0000
0000
0000
0000
0000
1000
0000
0000
0000
0000
0000
0000
0000
0010
0000
0000
0000
0000
0000
0000
0000
0100
0000
0000
0000
0000
0000
0000
0000
0010
0000
0000
0000
0000
0000
0000
0000
1000
0000
0000
0000
0000
0000
0000
0000
0001
0000
0000
0000
0000
0000
0000
0000
0100
0000
0000
0000
0000
0000
0000
0000
0001
0000
0000
0000
0000
0000
0000
0000
1000
0000
0000
0000
0000
0000
0001
0000
0000
0000
0000
0000
1000
0000
0000
0000
0000
0000
0001
0000
0000
0000
0000
0000
1000
0000
0000
0000
0000
0000
0000
0000
0000
0000
0000
0000
0100
0000
0000
0000
0000
0000
0000
0000
0000
0000
0000
0000
1000
0000
0000
0000
0000
0000
0000
0000
0000
0000
0000
0000
0001
0000
0000
0000
0000
0000
0000
0000
0000
0000
0000
0000
0010
0000
0000
0000
0000
0000
0000
0000
0000
0000
0000
0000
0100
0000
0000
0000
0000
0000
0000
0000
0000
0000
0000
0000
1000
0000
0000
0000
0000
0000
0000
0000
0000
0000
0000
0000
0001
0000
0000
0000
0000
0000
0010
0000
0000
0000
0000
0000
,
0001
0000
0000
0000
0000
0000
0000
0000
1000
0000
0000
0000
0000
0000
0000
0000
0001
0000
0000
0000
0000
0000
0000
0000
0100
0000
0000
0000
0000
0000
0000
0000
0000
0000
0000
0000
0010
0000
0000
0000
0000
0000
0000
0000
0000
0000
0000
0000
1000
0000
0000
0000
0000
0000
0000
0000
0001
0000
0000
0000
0000
0000
0000
0000
0100
0000
0000
0000
0000
0000
0000
0000
0010
0000
0000
0000
0000
0000
0000
0000
0100
0000
0000
0000
0000
0000
0000
0000
0001
0000
0000
0000
0000
0000
0000
0000
1000
0000
0000
0000
0000
0000
0000
0000
0000
0000
0000
0000
0001
0000
0000
0000
0000
0000
0000
0000
0000
0000
0000
0000
0010
0000
0000
0000
0000
0000
0000
0000
0000
0000
0000
0000
0100
0000
0000
0000
0000
0000
1000
0000
0000
0000
0000
0000
0100
0000
0000
0000
0000
0000
0000
0000
0000
0000
0000
0000
1000
0000
0000
0000
0000
0000
0001
0000
0000
0000
0000
0000
1000
0000
0000
0000
0000
0000
0000
0000
0000
0000
0000
0000
0001
0000
0000
0000
0000
0000
0100
0000
0000
0000
0000
0000
,
0001
0000
0000
0100
0000
0000
0010
0000
0000
1000
0000
0000
0100
0000
0000
1000
0000
0000
0001
0000
0000
0010
0000
0000
0100
0000
1000
0000
0001
0000
1000
0000
0010
0000
0100
0000
0001
0000
0010
0000
0100
0000
1000
0000
0010
0000
0100
0000
,
0001
0000
1000
0000
0001
0100
0001
0000
1000
0000
0010
0000
0100
0001
0100
0000
0010
0000
1000
0000
0001
0000
0100
0000
0001
0000
0010
0000
0100
0000
1000
0000
,
0001
0000
0100
0000
0010
0000
0100
0000
0001
0000
1000
0000
0010
1000
0010
0000
0100
0000
0001
0000
1000
0000
0001
0000
0010
0000
0100
0000
0010
0000
0100
0000
,
1000
0000
0000
0001
0000
0000
0100
0000
0000
0001
0000
0000
1000
0000
0100
0000
1000
0000
0001
0000
0010
0000
0100
0000
1000
0000
0001
0000
0100
0000
0010
0000
0100
0000
0001
0000
0010
0000
0100
0000
1000
0000
0010
0000
0100
0000
0001
0000
,
1000
0100
1000
0010
0100
0001
0010
0100
1000
0010
0100
0001
1000
0010
1000
0100
1000
0010
0100
0001
0010
0100
1000
0001
,
1000
0001
1000
0001
1000
0001
1000
0001
1000
0001
1000
0001
1000
0001
1000
0001
2000
0000
0000
0000
0000
0000
0000
0000
0000
0000
0000
0000
0000
0000
0000
0000
,
0000
0000
0000
0000
0000
0000
3000
0000
0002
0003
0000
0000
2000
3000
0000
0000
,
0200
0300
0000
0000
2000
3000
0000
0000
2002
0000
0000
0000
3003
0000
0000
0000
;
