#TITLE:Manhattan Sports Club;
#SUBTITLE:;
#ARTIST:Simon;
#TITLETRANSLIT:;
#SUBTITLETRANSLIT:;
#ARTISTTRANSLIT:;
#CREDIT:;
#BANNER:manhattan-bn.png;
#BACKGROUND:manhattan-bg.png;
#LYRICSPATH:;
#CDTITLE:mootz cdtitle 2.png;
#MUSIC:Manhattan Sports Club.ogg;
#OFFSET:-0.037;
#SAMPLESTART:43.165;
#SAMPLELENGTH:12.000;
#SELECTABLE:YES;
#BPMS:0.000=178.000;
#STOPS:;
#BGCHANGES:;
// cache tags:
#FIRSTBEAT:8.000;
#LASTBEAT:288.000;
#SONGFILENAME:Songs/SSSC Pack 2/Manhattan Sports Club - [Mootz]/Manhattan Sports Club.sm;
#HASMUSIC:1;
#HASBANNER:1;
#MUSICLENGTH:98.272;
// end cache tags

//---------------dance-single - Mootz----------------
#NOTES:
     dance-single:
     Mootz:
     Challenge:
     12:
     1.000,1.000,0.427,0.244,0.931,652.000,42.000,24.000,55.000,0.000:













0000
0000
0000
0000
,
0000
0000
0000
0000
,
M1M1
0000
0000
0000
0001
0100
0010
1000
0010
0000
0000
0000
1010
0000
0000
0000
,
11MM
0000
0000
0000
1000
0100
0010
0001
0010
0000
0000
0000
0011
0000
0000
0000
,
M1M1
0000
0000
0000
0001
0100
0010
1000
0M1M
0000
0000
0000
1000
0100
0010
0001
,
MM10
0000
0100
0000
MM10
0000
0100
0000
10MM
0000
0100
0010
MM01
0000
1000
0000
,
1M1M
0000
0000
0000
1000
0010
0100
0001
0100
0000
0000
0000
0101
0000
0000
0000
,
MM11
0000
0000
0000
0001
0010
0100
1000
0100
0000
0000
0000
1100
0000
0000
0000
,
1M1M
0000
0000
0000
1000
0010
0100
0001
M1M0
0000
0000
0000
0001
0010
0100
1000
,
01MM
0000
0010
0000
M0M1
0000
0010
0000
M1M0
0000
1000
0010
M10M
0000
0001
0000
,
1000
0001
0100
0001
1000
0001
0100
0001
1000
0001
0100
0001
1000
0001
0100
0001
,
1000
0001
0100
0001
1000
0001
0100
0001
1000
0001
0100
0001
1000
0100
0010
0001
,
1000
0010
0100
0001
1000
0100
0010
0001
1000
0010
0100
0001
1000
0100
0010
0001
,
1000
0001
0100
0001
1000
0001
0100
0001
1000
0001
0100
0001
1000
0001
0100
0001
,
1000
0001
1000
0001
1000
0001
1000
0001
1000
0010
0100
0001
1000
0100
0010
0001
,
0010
0000
0000
0100
0000
0000
1000
0000
0000
0000
0001
0100
0010
0000
0000
0000
0000
0000
0100
0000
0000
0000
0000
0000
,
1MM1
0000
0001
0100
0001
0000
0100
0000
0010
0000
0000
0000
1010
0000
0000
0000
,
0000
0000
1000
0100
1000
0000
0100
0000
0010
0000
0000
0000
0011
0000
0000
0000
,
0000
0000
0001
1000
0001
0000
1000
0000
0010
0000
1000
0000
0010
0000
1000
0000
,
0001
0000
0000
0010
0000
0000
0001
0000
0000
0010
0000
0000
0100
0000
0000
1000
0100
1000
0100
0000
0000
0010
0000
0000
,
0000
0000
0001
0010
0001
0000
0010
0000
0100
0000
0000
0000
1100
0000
0000
0000
,
0000
0000
1000
0010
1000
0000
0010
0000
0100
0000
0000
0000
0101
0000
0000
0000
,
0000
0000
0001
1000
0001
0000
1000
0000
0100
0000
1000
0000
0100
0000
1000
0000
,
0001
0000
0000
0100
0000
0000
1000
0000
0000
0100
0000
0000
0001
0000
0000
1000
0001
1000
0001
0000
0000
0010
0000
0000
,
1100
0000
1000
0001
1000
0000
0001
0000
0100
0010
0100
0000
0101
0000
0000
0000
,
0000
0000
0001
1000
0001
0000
1000
0000
0100
0010
0100
0000
1100
0000
0000
0000
,
0000
0000
1000
0001
1000
0000
0001
0000
0010
0000
0100
0000
0010
0000
0100
0000
,
1000
0000
0000
0010
0000
0000
1000
0000
0000
0010
0000
0000
0100
0000
0000
0001
0100
0001
0100
0000
0000
0010
0000
0000
,
0000
0000
1000
0100
1000
0000
0100
0000
0010
0001
0010
0000
0011
0000
0000
0000
,
0000
0000
0001
0100
0001
0000
0100
0000
0010
1000
0010
0000
1010
0000
0000
0000
,
0000
0000
1000
0100
1000
0000
0100
0000
0010
0000
0001
0000
0010
0000
0001
0000
,
1000
0000
0000
0010
0000
0000
0001
0000
0000
0010
0000
0000
1000
0000
0000
0001
0010
0001
0010
0000
0000
0100
0000
0000
,
2000
0000
0000
0000
0M00
0000
0000
0000
0000
0000
0000
0000
3100
0000
0000
0000
2000
0000
0000
0000
0M00
0000
0000
3000
1000
0000
0000
0000
0010
0000
0000
0000
,
0100
0000
0000
0000
0100
0000
0000
0000
0100
0000
0000
0000
0001
0000
0000
0000
0200
0000
0000
0000
0000
0000
0000
0300
0100
0000
0000
0000
0010
0000
0000
0000
,
2000
0000
0000
0000
00M0
0000
0000
0000
0000
0000
0000
0000
3010
0000
0000
0000
2000
0000
0000
0000
00M0
0000
0000
3000
1000
0000
0000
0000
0100
0000
0000
0000
,
0010
0000
0000
0000
0010
0000
0100
0000
2000
0000
0000
0000
3001
0000
0000
0000
2000
0000
0000
0000
0000
0000
0000
3000
1000
0000
0000
0000
0010
0000
0000
0000
,
0200
0000
0000
0000
00M0
0000
0000
0000
0000
0000
0000
0000
0310
0000
0000
0000
0200
0000
0000
0000
00M0
0000
0000
0300
0100
0000
0000
0000
0010
0000
0000
0000
,
1000
0000
0000
0000
1000
0000
0001
0000
0010
0000
0000
0000
0100
0000
0000
0000
0020
0000
0000
0000
0000
0000
0000
0030
0010
0000
0000
0000
0001
0000
0000
0000
,
0200
0000
0000
0000
000M
0000
0000
0000
0000
0000
0000
0000
0310
0000
0000
0000
0200
0000
0000
0000
00M0
0000
0000
0300
0100
0000
0000
0000
0001
0000
0000
0000
,
1001
1001
1000
0100
0110
0110
0010
0001
,
2000
0000
0000
0000
000M
0000
0000
0000
0000
0000
0000
0000
3001
0000
0000
0000
2000
0000
0000
0000
000M
0000
0000
3000
1000
0000
0000
0000
0100
0000
0000
0000
,
0010
0000
0000
0000
0010
0000
0000
0000
0010
0000
0000
0000
0001
0000
0000
0000
0020
0000
0000
0000
0000
0000
0000
0030
0010
0000
0000
0000
0100
0000
0000
0000
,
2000
0000
0000
0000
0M00
0000
0000
0000
0000
0000
0000
0000
3100
0000
0000
0000
2000
0000
0000
0000
0M00
0000
0000
3000
1000
0000
0000
0000
0010
0000
0000
0000
,
0100
0000
0000
0000
0100
0000
0010
0000
2000
0000
0000
0000
3001
0000
0000
0000
2000
0000
0000
0000
0000
0000
0000
3000
1000
0000
0000
0000
0100
0000
0000
0000
,
0020
0000
0000
0000
0M00
0000
0000
0000
0000
0000
0000
0000
0130
0000
0000
0000
0020
0000
0000
0000
0M00
0000
0000
0030
0010
0000
0000
0000
0100
0000
0000
0000
,
1000
0000
0000
0000
1000
0000
0001
0000
0100
0000
0000
0000
0010
0000
0000
0000
0200
0000
0000
0000
0000
0000
0000
0300
0100
0000
0000
0000
0001
0000
0000
0000
,
0020
0000
0000
0000
000M
0000
0000
0000
0000
0000
0000
0000
0130
0000
0000
0000
0020
0000
0000
0000
0M00
0000
0000
0030
0010
0000
0000
0000
0001
0000
0000
0000
,
1001
0000
0000
1001
0000
0000
1000
0000
0000
0010
0000
0000
0100
0010
0100
0010
0000
0000
0101
0000
0000
0101
0000
0000
,
0001
0000
0001
0000
0001
0000
0001
0000
1000
0100
0010
0001
1000
0010
0100
0001
,
0100
0000
0000
0010
0000
0000
1000
0000
0000
0000
0100
0010
0001
0000
0000
0000
0000
0000
0010
0000
0000
0000
0000
0000
,
1MM1
0000
1000
0010
1000
0000
0010
0000
0100
0000
0000
0000
0101
0000
0000
0000
,
0000
0000
0001
0010
0001
0000
0010
0000
0100
0000
0000
0000
1100
0000
0000
0000
,
0000
0000
1000
0001
1000
0000
0001
0000
0100
0000
0001
0000
0100
0000
0001
0000
,
1000
0000
0000
0100
0000
0000
1000
0000
0000
0100
0000
0000
0010
0000
0000
0001
0010
0001
0010
0000
0000
0100
0000
0000
,
0000
0000
1000
0100
1000
0000
0100
0000
0010
0001
0010
0000
0011
0000
0000
0000
,
0000
0000
0001
0100
0001
0000
0100
0000
0010
1000
0010
0000
1010
0000
0000
0000
,
0000
0000
1000
0001
1000
0000
0001
0000
0010
0000
0001
0000
0010
0000
0001
0000
,
1000
0000
0000
0010
0000
0000
0001
0000
0000
0010
0000
0000
1000
0000
0000
0001
1000
0001
1000
0000
0000
0100
0000
0000
,
0011
0000
0001
1000
0001
0000
1000
0000
0010
0100
0010
0000
1010
0000
1000
0000
,
0010
0100
0010
0000
1010
0000
1000
0000
0010
0100
0010
0000
1000
0001
1000
0100
,
0010
0000
0001
1000
0001
0000
0010
0000
0100
0010
0100
0000
0011
0000
0010
0000
,
0100
0010
0100
0000
0011
0000
0010
0000
0100
0010
0100
0000
0100
1000
0001
0100
,
0000
0000
0001
1000
0001
1000
0001
1000
0010
0100
0010
0000
1010
0000
1000
0000
,
0010
0100
0010
0000
1010
0000
1000
0000
0010
0100
0010
0000
1000
0001
1000
0000
,
0001
0000
0001
0010
0001
1000
0001
1000
0100
0010
0100
0000
0011
0000
0010
0000
,
0100
0010
0100
1000
0100
0010
0100
1000
0100
0010
0001
0010
0100
1000
0010
0100
,
0001
1000
0010
1000
0001
1000
0010
1000
0001
1000
0010
1000
0001
1000
0010
1000
,
0001
1000
0010
1000
0001
1000
0010
1000
0001
0100
0010
1000
0001
0010
0100
1000
,
0001
0100
0010
1000
0001
0010
0100
1000
0001
0100
0010
1000
0001
0010
0100
1000
,
0001
1000
0010
1000
0001
1000
0010
1000
0001
1000
0010
1000
0001
1000
0010
1000
,
0001
1000
0001
1000
0001
1000
0001
1000
0001
0100
0010
1000
0001
0010
0100
1000
,
0100
0000
0000
0010
0000
0000
0001
0000
0000
0000
1000
0010
0100
0000
0000
0000
0000
0000
0101
0000
0000
0000
000M
00M0
,
0M00
0000
0000
0000
;
