#TITLE:Insect Digestion Melancholy;
#SUBTITLE:;
#ARTIST:Hrvåtski;
#TITLETRANSLIT:;
#SUBTITLETRANSLIT:;
#ARTISTTRANSLIT:;
#CREDIT:;
#BANNER:idm.png;
#BACKGROUND:idmbg.png;
#LYRICSPATH:;
#CDTITLE:!therairaicdtitle.png;
#MUSIC:Hrvtski - Insect Digestion Melancholy.mp3;
#OFFSET:-0.040;
#SAMPLESTART:45.120;
#SAMPLELENGTH:22.600;
#SELECTABLE:YES;
#DISPLAYBPM:*;
#BPMS:0.000=169.900,128.000=339.800,174.000=169.900,175.000=339.800,195.000=169.900,197.000=339.800,221.000=169.900,229.000=339.800,233.000=679.600,241.000=339.800,247.000=571.196,247.125=484.377,247.250=381.938,247.375=276.679,247.500=188.260,247.625=101.059,247.750=91.499,248.000=169.900,250.000=679.600,254.000=339.800,262.000=169.900,263.000=84.950,265.000=169.900,269.000=84.950,271.000=169.900,275.000=84.950,277.000=679.599,281.000=169.901,281.500=679.600,285.500=169.901,287.000=339.800,295.000=169.900,299.000=84.950,299.750=169.900,301.750=84.950,302.000=169.900,306.000=339.800,314.000=169.900,318.000=339.800,326.000=169.900,330.000=84.950,362.000=169.900,458.000=84.950,474.000=169.900,517.000=339.799,519.000=169.886,531.000=21.237,532.000=339.800,676.000=339.811,692.000=339.790,716.000=339.801,723.500=339.801,788.000=169.902;
#STOPS:;
#BGCHANGES:;
// cache tags:
#FIRSTBEAT:0.000;
#LASTBEAT:820.000;
#SONGFILENAME:Songs/Keys of Flames/Insect Digestion Melancholy (The Rai Rai)/Insect Digestion Melancholy.sm;
#HASMUSIC:1;
#HASBANNER:1;
#MUSICLENGTH:248.795;
// end cache tags

//---------------dance-single - ----------------
#NOTES:
     dance-single:
     :
     Hard:
     13:
     1.000,1.000,1.000,1.000,0.784,1482.000,292.000,358.000,0.000,12.000:  // measure 1
1001
1000
0001
1000
,  // measure 2
0001
0000
0000
0000
0000
0000
1000
0000
0000
0000
0000
0000
1010
0000
0000
0000
0000
0000
1000
0100
1000
0100
1000
0100
,  // measure 3
1100
0000
1000
0001
0100
0000
1000
0000
,  // measure 4
0100
0000
0000
0000
0000
0000
1000
0000
0000
0000
0000
0000
0100
0000
0000
0000
0000
0000
1000
0010
1000
0010
1000
0010
,  // measure 5
1010
1000
0010
1000
,  // measure 6
0010
0000
0000
0000
0000
0000
1000
0000
0000
0000
0000
0000
0101
0000
0000
0000
0000
0000
0000
0000
0000
0001
1000
0001
,  // measure 7
1001
1000
0001
1000
,  // measure 8
0001
0000
0000
0000
0000
0000
1000
0000
0000
0000
0000
0000
0101
0000
0000
0000
0000
0000
1000
0010
1000
0010
1000
0010
,  // measure 9
1010
0000
1000
0001
0100
0000
1010
0000
,  // measure 10
1100
0000
0000
0000
0000
0000
1000
0000
0000
0000
0000
0000
0011
0000
0000
0000
0000
0000
0001
0100
0001
0100
0001
0100
,  // measure 11
0101
0001
1000
0001
,  // measure 12
1100
0000
0000
0000
0000
0000
1000
0000
0000
0000
0000
0000
0011
0000
0000
0000
0000
0000
1000
0010
1000
0010
1000
0010
,  // measure 13
1010
0000
1000
0001
0100
0000
1100
0000
,  // measure 14
0101
0000
0000
0000
0000
0000
1000
0000
0000
0000
0000
0000
1100
0000
0000
0000
0000
0000
0000
0000
0000
0001
0010
0001
,  // measure 15
0011
0010
0001
0010
,  // measure 16
0101
0000
0000
0000
0000
0000
0010
0000
0000
0000
0000
0000
1100
0000
0000
0000
0000
0000
1000
0001
1000
0001
1000
0001
,  // measure 17
0100
0000
0000
0001
0000
0000
1000
0010
1000
0010
1000
0010
0100
0000
0000
0001
0000
0000
1000
0000
0000
0100
0000
0000
,  // measure 18
0011
0001
0100
0100
1000
1000
0001
0001
,  // measure 19
1010
0000
0000
0000
0011
0000
0000
0000
1100
0001
0000
0000
,  // measure 20
0101
0000
0000
0100
0000
0000
0100
0000
0100
0000
0100
0000
0010
0000
0000
1000
0000
0000
0001
0000
0000
0001
0000
0000
,  // measure 21
1100
0000
0100
0010
1000
1000
0001
0100
,  // measure 22
1010
0000
0001
0001
1000
0100
0010
1000
,  // measure 23
0101
1000
1000
0010
1000
1000
1000
1000
,  // measure 24
2010
0000
0000
0000
0000
0000
3020
0000
0030
1000
0000
0000
0001
0000
0000
0001
0000
0000
0011
0000
0001
0000
0001
0000
,  // measure 25
1010
0001
1000
0010
0100
0001
1000
0000
,  // measure 26
0101
1000
1000
0001
1000
0001
1000
0010
,  // measure 27
1100
0000
0000
0000
0000
0000
0000
0000
0000
0000
0000
0000
0000
0000
0000
0000
0000
0000
0000
0000
0000
0000
0000
0000
0010
0000
0000
0000
0000
0000
0000
0000
0000
0000
0000
0000
0000
0000
0000
0000
0000
0000
0000
0000
0000
0000
0000
0000
0001
0000
0000
0000
0000
0000
0000
0000
0000
0000
0000
0000
0000
0000
0000
0000
0000
0000
0000
0000
0000
0000
0000
0000
1000
0000
0000
0000
0000
0000
0000
0000
0100
0000
0000
0000
0000
0000
0000
0000
0010
0000
0000
0000
0000
0000
0000
0000
0002
0000
0000
0000
0000
0000
0000
0000
0000
0000
0000
0000
0000
0000
0000
0000
0000
0000
0000
0000
0000
0000
0000
0000
0000
0000
0000
0000
0000
0000
0000
0000
0000
0000
0000
0000
0000
0000
0000
0000
0000
0000
0000
0000
0000
0003
0000
0000
1020
0000
0000
0000
0000
0000
0000
0000
0000
0000
0000
0000
0000
0000
0000
0000
0000
0000
0000
0000
0000
0000
0000
0000
0030
0000
0000
0000
0000
0000
0000
0000
0000
0000
0000
0000
0000
0000
0000
0000
0000
0000
0000
0000
0000
0000
0000
0000
,  // measure 28
0101
0000
0000
1000
0010
0000
0000
0000
0100
0001
0000
0000
1000
0010
0000
0000
0000
0100
0001
0000
0000
0001
0000
0000
,  // measure 29
1010
0000
0000
0001
0000
0000
1000
0100
1000
0100
1000
0100
0010
0000
0010
0000
0010
0000
0001
0000
0000
0001
0000
0000
,  // measure 30
0101
0000
0000
1000
0000
0000
0100
0000
0000
0010
0000
0000
0001
0000
0000
0010
0000
0100
0000
1000
0000
0100
0000
0010
0000
0002
0000
0000
0000
0000
0000
0000
0000
0000
0000
0000
0000
0000
0000
0000
0000
0000
0003
0000
0000
0000
0000
0000
,  // measure 31
1001
1000
1000
1000
1000
1000
0001
0001
,  // measure 32
1100
0000
0000
0000
0000
0000
0100
0000
0000
0000
0000
0000
1000
0000
0000
0000
0000
0000
0010
1000
0000
0000
0000
0000
0010
0000
0000
0000
0000
0000
1000
0000
0000
0000
0000
0000
0010
0000
0000
0000
0000
0000
0010
0000
0000
0000
0000
0000
,  // measure 33
0102
0000
0000
0013
0000
0000
0100
0000
0000
1000
0000
0000
0100
0000
0010
0000
0001
0000
0010
0000
0001
0000
0010
0000
,  // measure 34
1100
0000
0000
0100
0000
0000
0100
0000
0000
0100
0000
0000
0010
0000
0000
0000
0000
0000
0000
0000
0010
0000
0010
0000
,  // measure 35
0001
0001
0001
0001
0101
0000
0010
1000
,  // measure 36
1010
0001
0100
0100
0010
1000
0001
0010
,  // measure 37
2200
0000
0000
3300
0000
0000
2200
0000
0000
3300
0000
0000
0001
0000
1000
0000
0001
0000
1000
0000
0000
0000
0000
0000
,  // measure 38
1000
0000
0100
0100
0010
0000
0001
1000
,  // measure 39
0101
0000
1000
0001
0000
0010
0101
0000
0000
1000
0000
0000
,  // measure 40
0011
1000
0101
0011
,  // measure 41
1010
0000
0100
0000
0001
0000
0010
0000
0000
0000
0000
0000
0001
0000
0000
0001
0000
0000
0001
0000
0000
0001
0000
0000
,  // measure 42
0010
0000
0000
0001
0000
0100
0010
0000
0000
0001
0000
0100
,  // measure 43
1010
0000
0000
0001
0000
0100
1010
0000
0000
0001
0000
0010
,  // measure 44
1100
0000
0000
0000
0010
0000
0001
0000
0000
0000
0100
0000
0010
1000
0100
0000
0000
0000
1001
0000
0000
0010
0000
0000
,  // measure 45
0001
1000
0100
0010
0001
0010
0001
0010
,  // measure 46
0100
0000
0000
0100
0000
0000
0010
0000
0000
0000
0010
0000
0000
0000
0010
0000
0000
0000
2200
0000
0000
3300
0000
0000
,  // measure 47
0010
0001
0100
0100
0001
1000
0101
0010
,  // measure 48
1000
1000
0001
0100
0001
0000
2020
3030
,  // measure 49
2000
0000
0000
3000
0000
0000
0011
0000
0000
0000
0000
0000
0101
0000
0000
0000
0000
0000
1000
0100
1000
0100
1000
0100
,  // measure 50
1000
0000
0000
0011
0000
0000
1100
0000
0000
0000
0000
0000
0101
0000
0000
0000
1000
0000
0010
0000
0000
0000
1000
0000
,  // measure 51
0101
0000
0000
0011
0000
0000
0010
0000
0000
0001
0000
0010
,  // measure 52
0001
0000
0000
0000
1000
0000
0101
0000
0000
1000
0000
0000
0100
0000
0000
0010
0000
0000
0001
0000
0000
0001
0000
0000
,  // measure 53
0001
0100
2020
3030
2020
3030
1000
0000
,  // measure 54
0100
0000
2020
3030
1000
0000
2020
3030
,  // measure 55
1000
0102
0000
0000
,  // measure 56
1000
0000
0000
1000
0003
0000
1010
0000
0000
0000
0000
0000
0010
0000
0000
0000
0000
0010
0000
0000
0000
0000
0010
0000
,  // measure 57
0000
0000
0000
0010
0000
0000
0000
0010
0000
0000
0000
0010
0000
0000
0010
0000
0000
0010
0000
0000
0010
0000
0010
0000
,  // measure 58
0010
0000
0000
0000
0000
0000
0000
0000
0000
0010
0000
0000
0000
0000
0000
0000
0000
0000
0000
0000
0010
0000
0000
0000
0100
0000
0000
0000
0000
0000
0000
0000
0000
0000
0000
0000
0100
0000
0000
0000
0000
0000
0000
0000
0000
0000
0000
0000
0101
0000
0000
0000
0000
0000
0000
0000
0000
0000
0000
0000
0000
0000
0000
0000
0000
0000
0000
0000
0000
0000
0000
0000
0000
0000
0000
0000
0000
0000
0000
0000
0000
0000
0000
0000
0000
0000
0000
0000
0000
0000
0000
0000
0000
0000
0000
0000
0100
0000
0000
0000
0000
0000
0000
0000
0000
0000
0000
0000
0000
0000
0000
0000
0000
0000
0000
0000
0000
0000
0000
0000
2020
0000
0000
0000
0000
0000
0000
0000
0000
0000
0000
0000
0000
0000
0000
0000
0000
0000
0000
0000
0000
0000
0000
0000
3030
0000
0000
0000
0000
0000
0000
0000
0000
0000
0000
0000
0000
0000
0000
0000
0000
0000
0000
0000
0000
0000
0000
0000
0010
0000
0000
0000
0000
0000
0000
0000
0000
0000
0000
0000
0000
0000
0000
0000
0000
0000
0000
0000
0000
0000
0000
0000
,  // measure 59
0101
0000
0000
0000
2000
0000
0000
0000
0000
0000
0000
3000
0200
0000
0000
0000
,  // measure 60
0000
0000
0000
0300
0020
0000
0000
0000
0000
0000
0000
0030
0002
0000
0000
0000
,  // measure 61
0000
0000
0000
0000
0000
0000
0000
0000
0000
0003
0000
0000
1000
0000
0000
0000
0000
0000
0000
0000
0100
0000
0000
0000
0010
0000
0000
0000
0000
0000
0000
0000
1000
0000
0000
0000
0101
0000
0000
0000
0000
0000
0000
0000
0000
0000
0000
0000
,  // measure 62
1000
0000
0000
0000
0000
0000
0000
0000
0100
0000
0000
0000
0011
0000
0000
0000
0000
0000
0000
0000
1000
0000
0000
0000
0101
0000
0000
0000
0000
0000
0000
0000
0000
0000
0000
0000
2002
0000
0000
0000
0000
0000
0000
0000
0000
3003
0000
0000
,  // measure 63
1100
0000
0000
1010
0000
0000
1100
0000
0000
1010
0000
0000
1000
0000
0000
0000
0010
0000
0000
0000
1000
0000
0000
0000
,  // measure 64
0010
0000
0000
0000
1000
0000
0000
0000
0010
0000
0000
0000
1000
0000
0000
0001
0000
0000
1000
0000
0000
0100
0000
0000
,  // measure 65
0011
0000
0000
1000
0000
0000
0001
0000
0100
0001
0000
0000
,  // measure 66
1000
0000
0000
0000
0000
0000
0000
0000
0000
0000
0000
0000
0000
0000
0000
0000
0000
0000
0000
0000
0000
0000
0000
0000
0000
0000
0000
0000
0000
0000
0000
0000
0000
0000
0000
0000
0000
0000
0000
0000
0000
0000
0000
0000
0000
0000
0000
0000
0001
0000
0000
0000
0000
0000
0000
0000
0000
0000
0000
0000
0000
0000
0000
0000
0000
0000
0000
0000
0000
0000
0000
0000
0000
0000
0000
0000
0000
0000
0000
0000
0100
0000
0000
0000
0000
0000
0000
0000
0000
0000
0000
0000
0000
0000
0000
0000
0010
0000
0000
0000
0000
0000
0000
0000
0000
0000
0000
0000
0000
0000
0000
0000
0000
0000
0010
0000
0000
0000
0000
0000
0000
0000
0000
0000
0000
0000
0000
0000
0000
0000
0000
0000
0010
0000
0000
0000
0000
0000
0000
0000
0000
0000
0000
0000
1010
0000
0000
0000
0000
0000
0000
0000
0002
0000
0000
0000
0000
0000
0000
0000
0000
0000
0000
0000
0003
0000
0000
0000
0000
0000
0000
0000
0000
0000
0000
0000
1002
0000
0000
0000
0000
0000
0000
0000
0000
0000
0000
0000
0003
0000
0000
0000
,  // measure 67
0000
0000
1000
0000
0100
0000
0000
0000
0000
0010
0000
0000
0102
0000
0000
0003
0000
0000
0010
0000
0000
0000
0100
0000
0002
0000
0000
0003
1000
0000
0002
0000
0000
0003
0100
0000
0010
0000
0000
0000
0000
0000
1002
0000
0000
0003
0000
0000
,  // measure 68
0100
0000
0000
0000
0000
0000
0000
0000
0000
0000
0000
0000
0000
0000
0000
0000
0000
0000
0000
0000
0000
0000
0000
0000
1002
0000
0000
0000
0000
0000
0000
0000
0000
0000
0000
0000
0003
0000
0000
0000
0000
0000
0000
0000
0000
0000
0000
0000
2100
0000
0000
0000
0000
0000
0000
0000
0000
0000
0000
0000
0000
0000
0000
0000
0000
0000
0000
0000
0000
0000
0000
0000
0000
0000
0000
0000
0000
0000
0000
0000
0000
0000
0000
0000
0010
0000
0000
0000
0000
0000
0000
0000
0000
0000
0000
0000
0000
0000
0000
0000
0000
0000
0000
0000
0000
0000
0000
0000
0000
0000
0000
0000
0000
0000
0000
0000
0000
0000
0000
0000
0001
0000
0000
0000
0000
0000
0000
0000
0000
0000
0000
0000
0000
0000
0000
0000
0000
0000
3000
0000
0000
0000
0000
0000
1020
0000
0000
0000
0000
0000
0000
0000
0000
0000
0000
0000
0030
0000
0000
0000
0020
0000
0000
0000
0000
0000
0000
0000
0000
0000
0000
0000
0030
0000
0000
0000
0020
0000
0000
0000
0000
0000
0000
0000
0000
0000
0000
0000
0030
0000
0000
0000
,  // measure 69
0020
0000
0000
0000
1000
0000
0000
0000
0000
0000
0000
0030
0102
0000
0000
0010
,  // measure 70
0000
0000
0000
0003
1200
0000
0000
0300
2002
0000
0000
0000
0000
0000
0000
0000
0000
0000
0000
0000
0000
0000
3003
0000
2020
0000
0000
0000
0000
0000
0000
0000
,  // measure 71
3030
0000
0000
0000
0000
0000
2002
0000
0000
0000
0000
0000
0000
3003
2020
0000
,  // measure 72
0000
0000
0000
3030
0000
0000
0000
0000
0000
0100
0000
0000
0001
0010
0001
0010
0001
0010
1100
0000
0000
0001
0000
0000
,  // measure 73
1010
0000
0011
0000
1000
0001
1100
0000
,  // measure 74
1010
0000
1000
0010
0101
0000
1002
0000
,  // measure 75
0000
0000
0000
0000
0000
0000
0000
0000
0000
0000
0000
0003
0002
0000
0000
0000
1000
0000
0000
0000
0000
0003
0002
0000
0000
0000
0000
0000
0000
0000
0000
0003
0002
0000
0000
0000
0000
0000
0000
0003
0002
0000
0000
0000
0000
0000
0000
0003
1200
0000
0000
0000
0000
0000
0000
0000
0300
0000
0000
0000
0012
0000
0000
0000
,  // measure 76
0000
0000
0000
0000
0000
0000
0000
0000
0000
0003
0000
0000
0000
0000
0000
1010
0000
0000
0000
0000
0000
0000
0000
0000
0012
0000
0000
0000
0013
0000
0000
0000
0100
0000
0000
0000
2000
0000
0000
0000
3100
0000
0000
0000
0010
0000
0000
0000
,  // measure 77
0002
0013
0100
2000
3100
0010
1100
0000
0001
0000
0010
0000
,  // measure 78
0100
0000
1000
0000
0100
0000
1100
0000
0001
0000
0010
0000
,  // measure 79
0100
0000
1000
0000
0010
0000
0101
0000
0001
0200
0300
0001
,  // measure 80
2010
3100
0001
0200
0310
1000
1001
0000
0000
0010
0000
0000
,  // measure 81
0100
0000
0000
1000
0010
1000
0010
0000
0000
0010
0000
0000
,  // measure 82
0010
0000
0010
0000
1100
0010
0101
0010
,  // measure 83
0101
0000
0010
0000
1100
1000
0010
0000
0101
0000
0001
0000
1000
0000
0000
0000
,  // measure 84
0001
0000
0000
0000
0000
0000
0000
0000
0000
0000
0000
0000
0000
0000
0000
0000
0000
0000
0000
0000
0000
0000
0000
0000
0000
0000
0000
0000
0000
0000
0000
0000
0000
0000
0000
0000
0001
0000
0000
0000
0000
0000
0000
0000
0000
0000
0000
0000
1000
0000
0000
0000
0000
0000
0000
0000
0000
0000
0000
0000
0000
0000
0000
0000
0000
0000
0000
0000
0000
0000
0000
0000
0001
0000
0000
0000
0010
0000
0000
0000
0001
0000
0000
0000
0010
0000
0000
0000
0001
0000
0000
0000
0010
0000
0000
0000
0001
0000
0000
0000
0000
0000
0100
0000
0000
0000
0000
0000
0001
0000
0000
0000
0000
0000
0000
0000
0000
0000
0000
0000
0001
0000
0000
0000
0000
0000
0000
0000
0000
0000
0000
0000
0000
0000
0000
0000
0000
0000
0000
0000
0000
0000
0000
0000
0010
0000
0000
0000
0000
0000
1000
0000
0000
0000
0000
0000
0001
0000
0000
0000
0000
0000
1000
0000
0000
0000
0000
0000
0010
0000
0000
0000
1000
0000
0000
0000
0001
0000
0000
0000
1000
0000
0000
0000
0001
0000
0000
0000
1000
0000
0000
0000
,  // measure 85
0010
0000
0000
0000
0000
0000
1000
0000
0000
0000
0000
0000
0001
0000
0000
0000
0000
0000
0100
0000
0000
0000
0000
0000
0001
0000
0000
0000
0000
0000
0000
0000
0000
0000
0000
0000
0010
0000
0000
0000
0000
0000
1000
0000
0000
0000
0000
0000
0001
0000
0000
0000
0000
0000
0100
0000
0000
0000
0000
0000
0001
0000
0000
0000
0000
0000
0000
0000
0000
0000
0000
0000
0010
0000
0000
0000
0000
0000
0010
0000
0000
0000
0000
0000
1000
0000
0000
0000
0100
0000
0000
0000
1000
0000
0000
0000
0001
0000
0000
0000
0000
0000
0000
0000
0000
0000
0000
0000
0000
0000
0000
0000
0000
0000
0000
0000
0000
0000
0000
0000
0001
0000
0000
0000
0000
0000
0000
0000
0000
0000
0000
0000
0000
0000
0000
0000
0000
0000
0000
0000
0000
0000
0000
0000
1000
0000
0000
0000
0000
0000
0000
0000
0000
0000
0000
0000
0001
0000
0000
0000
0000
0000
0000
0000
0000
0000
0000
0000
0200
0000
0000
0000
0000
0000
0000
0000
0000
0000
0000
0000
0300
0000
0000
0000
0000
0000
0000
0000
0000
0000
0000
0000
,  // measure 86
0001
0000
0000
0000
0100
0000
0000
0000
0001
0000
0000
0000
1000
0000
0000
0000
0000
0000
0000
0000
0000
0000
0000
0000
0000
0000
0000
0000
0000
0000
0000
0000
0000
0000
0000
0000
0001
0000
0000
0000
0000
0000
0200
0300
0000
0000
0000
0000
0010
0000
0000
0000
0000
0000
0000
0000
0000
0000
0000
0000
0000
0000
0000
0000
0010
0000
0000
0000
0000
0000
0000
0000
0000
0000
0000
0000
0000
0000
0000
0000
0010
0000
0000
0000
0000
0000
0000
0000
0000
0000
0000
0000
0000
0000
0000
0000
0010
0000
0000
0000
0000
0000
0000
0000
0000
0000
0000
0000
0100
0000
0000
0000
0000
0000
0000
0000
0000
0000
0000
0000
0000
0000
0000
0000
0000
0000
0000
0000
0000
0000
0000
0000
1020
0000
0000
0000
0000
0000
0030
0000
0000
0000
0000
0000
1000
0000
0000
0000
0000
0000
1000
0000
0000
0000
0000
0000
0001
0000
0000
0000
0000
0000
0001
0000
0000
0000
0000
0000
1000
0000
0000
0000
0000
0000
0000
0000
0000
0000
0000
0000
0000
0000
0000
0000
0000
0000
0000
0000
0000
0000
0000
0000
,  // measure 87
1000
0000
0000
0000
0000
0000
0000
0000
0001
0000
0000
0000
0000
0000
0000
0000
1000
0000
0000
0000
0000
0000
0000
0000
0001
0000
0000
0000
0000
0000
0000
0000
0000
0000
0000
0000
0000
0000
0000
0000
0000
0000
0000
0000
0000
0000
0000
0000
0001
0000
0000
0000
0100
0000
0000
0000
0001
0000
0000
0000
0100
0000
0000
0000
0001
0000
0000
0000
0100
0000
0000
0000
0020
0000
0000
0000
0000
0000
0000
0000
0000
0000
0000
0000
0000
0000
0000
0000
0000
0000
0030
0000
0000
0000
0000
0000
0101
0000
0000
0000
0000
0000
0000
0000
0000
0000
0000
0000
0101
0000
0000
0000
0000
0000
0000
0000
0000
0000
0000
0000
1010
0000
0000
0000
0000
0000
0000
0000
0000
0000
0000
0000
0000
0000
0000
0000
0000
0000
0000
0000
0000
0000
0000
0000
0001
0000
0000
0000
0000
0000
0001
0000
0000
0000
0000
0000
0100
0000
0000
0000
0000
0000
0001
0000
0000
0000
0000
0000
1000
0000
0000
0000
0000
0000
1000
0000
0000
0000
0000
0000
0001
0000
0000
0000
0000
0000
0001
0000
0000
0000
0000
0000
,  // measure 88
1010
0000
0000
0000
0000
0000
0000
0000
0000
0000
0000
0000
1000
0000
0000
0000
0010
0000
0000
0000
1000
0000
0000
0000
0010
0000
0000
0000
0000
0000
0000
0000
0000
0000
0000
0000
0010
0000
0000
0000
0000
0000
0000
0000
0000
0000
0000
0000
0100
0000
0000
0000
0000
0000
0000
0000
0000
0000
0000
0000
1020
0000
0000
0000
0000
0000
0030
0000
0000
0000
0000
0000
0001
0000
0000
0000
0000
0000
0000
0000
0001
0000
0000
0000
0000
0000
0000
0000
0101
0000
0000
0000
0000
0000
0000
0000
0101
0000
0000
0000
0000
0000
0000
0000
0000
0000
0000
0000
1010
0000
0000
0000
0000
0000
0000
0000
0000
0000
0000
0000
0101
0000
0000
0000
0000
0000
0000
0000
0000
0000
0000
0000
1002
0000
0000
0000
0000
0000
0003
0000
0000
0000
0000
0000
1000
0000
0000
0000
0000
0000
0100
0000
0000
0000
0000
0000
1000
0000
0000
0000
0000
0000
0000
0000
0000
0000
0000
0000
1100
0000
0000
0000
0000
0000
0000
0000
0000
0000
0000
0000
0000
0000
0000
0000
0000
0000
0000
0000
0000
0000
0000
0000
,  // measure 89
0001
0000
0000
0000
0000
0000
0001
0000
0000
0000
0000
0000
1000
0000
0000
0000
0000
0000
1000
0000
0000
0000
0000
0000
0100
0000
0000
0000
0000
0000
0020
0000
0000
0000
0000
0000
0000
0000
0000
0000
0000
0000
0030
0000
0000
0000
0000
0000
1000
0000
0000
0000
0010
0000
0000
0000
1000
0000
0000
0000
0100
0000
0000
0000
0000
0000
0000
0000
0000
0000
0000
0000
1010
0000
0000
0000
0000
0000
0000
0000
0000
0000
0000
0000
1010
0000
0000
0000
0000
0000
0000
0000
0000
0000
0000
0000
1100
0000
0000
0000
0000
0000
0000
0000
0000
0000
0000
0000
0000
0000
0000
0000
0000
0000
0000
0000
0000
0000
0000
0000
0101
0000
0000
0000
0000
0000
0000
0000
0000
0000
0000
0000
0000
0000
0000
0000
0000
0000
0000
0000
0000
0000
0000
0000
1020
0000
0000
0000
0000
0000
0000
0000
0000
0000
0000
0000
0000
0000
0000
0000
0000
0000
0000
0000
0000
0000
0000
0000
0000
0000
0000
0000
0000
0000
0000
0000
0000
0000
0000
0000
0000
0000
0000
0000
0000
0000
0000
0000
0000
0000
0000
0000
,  // measure 90
0000
0000
0000
0000
0000
0000
0000
0000
0000
0000
0000
0000
0000
0000
0000
0000
0000
0000
0000
0000
0000
0000
0000
0000
0000
0000
0000
0000
0000
0000
0030
0000
2000
0000
0000
0000
0000
0000
0000
0000
0000
0000
0000
0000
0000
0000
3000
0000
0002
0000
0000
0000
0000
0000
0000
0000
0000
0000
0000
0000
0000
0000
0000
0000
0000
0000
0000
0000
0000
0000
0000
0000
0000
0000
0000
0000
0000
0000
0000
0000
0000
0000
0000
0000
0000
0000
0000
0000
0000
0000
0000
0000
0000
0000
0003
0000
1100
0000
0000
0000
0000
0000
0000
0000
0000
0000
0000
0000
0000
0000
0000
0000
0000
0000
0000
0000
0000
0000
0000
0000
1010
0000
0000
0000
0000
0000
0000
0000
0000
0000
0000
0000
0000
0000
0000
0000
0000
0000
0000
0000
0000
0000
0000
0000
0101
0000
0000
0000
0000
0000
0000
0000
0000
0000
0000
0000
0000
0000
0000
0000
0000
0000
0000
0000
0000
0000
0000
0000
0101
0000
0000
0000
0000
0000
0000
0000
0000
0000
0000
0000
0011
0000
0000
0000
0000
0000
0000
0000
0000
0000
0000
0000
,  // measure 91
0010
0000
0010
0000
0010
0000
0010
0000
0010
0000
0010
0000
2000
0000
0000
3200
0000
0000
0320
0000
0000
2030
0000
0000
,  // measure 92
3020
0230
0302
0023
2030
3200
0320
0032
,  // measure 93
0203
0320
2030
3200
0320
0230
2300
3002
,  // measure 94
0203
0320
2030
3200
0320
2030
3002
0023
,  // measure 95
0230
0302
2003
3200
2300
3002
0023
0230
,  // measure 96
2300
3200
0320
2030
3002
0203
0320
2030
,  // measure 97
3200
0320
2030
3002
0203
0000
2300
0010
,  // measure 98
3002
0000
0000
0000
0000
0000
0000
0003
0002
0000
0000
0000
0000
0000
0000
0003
0020
0000
0000
0000
0000
0000
0000
0030
0020
0000
0000
0000
0000
0000
0000
0000
2030
0000
0000
0000
0000
0000
0000
0000
0001
0000
0000
0000
0000
0000
0000
0000
3010
0000
0000
0000
0000
0000
0000
0000
0100
0000
0000
0000
0000
0000
0000
0000
,  // measure 99
0020
0000
0000
0030
0020
0000
0000
0030
0020
0000
0000
0030
0002
0000
0000
0000
0000
0000
0100
0000
0000
0000
0000
0000
2003
0000
0000
0000
0000
0000
3200
0000
0000
0000
0000
0000
0320
0000
0000
0000
0000
0000
2030
0000
0000
0000
0000
0000
,  // measure 100
3002
0023
2030
3002
0023
0230
0320
0032
,  // measure 101
0203
0320
2030
3200
2300
3020
0032
0000
,  // measure 102
0203
0000
2300
3002
0023
0230
0302
2003
,  // measure 103
3020
0000
0230
0000
0302
0000
0000
0000
2003
0000
3200
0000
0320
0000
1000
0032
,  // measure 104
0100
0000
2003
0000
3002
0000
0023
0000
0230
0000
1300
0002
0010
0000
0203
0000
,  // measure 105
1300
0000
0000
0000
0020
0000
0000
0000
0100
0000
0000
0000
0000
0000
0000
0000
0032
0000
0000
0000
0000
0000
0000
0000
0023
0000
0000
0000
0000
0000
0000
0000
0230
0000
0000
0000
0000
0000
0000
0000
2300
0000
0000
0000
0000
0000
0000
0000
3020
0000
0000
0000
0000
0000
0000
0030
0020
0000
0000
0000
0000
0000
0000
0000
,  // measure 106
0032
0023
0230
2300
3002
0203
0320
2030
,  // measure 107
3002
0000
0000
0103
0000
0010
1000
0010
1000
0010
1000
0010
1010
0000
0000
0000
0000
0000
1010
0000
0000
0001
0000
0000
,  // measure 108
1000
1000
1000
0100
0100
0010
1000
1000
,  // measure 109
0011
1000
1000
0010
1100
0001
0011
0100
,  // measure 110
1000
1000
1000
0001
0110
0110
0110
1000
,  // measure 111
0010
0000
0000
0000
0000
0000
0000
0000
0000
0000
0000
0000
0000
0000
0000
0000
0000
0000
0000
0000
0000
0000
0000
0000
0101
0000
0000
0000
0000
0000
0000
0000
0000
0000
0000
0000
0000
0000
0000
0000
0000
0000
0000
0000
0000
0000
0000
0000
0001
0000
0000
0000
0000
0000
0000
0000
0000
0000
0000
0000
0000
0000
0000
0000
0000
0000
0000
0000
0000
0000
0000
0000
2000
0000
0000
0000
0000
0000
0000
0000
0000
0000
0000
0000
0000
0000
0000
0000
0000
0000
0000
0000
0000
3000
0000
0000
1010
0000
0000
0000
0000
0000
0000
0000
0000
0000
0000
0000
0000
0000
0000
0000
0000
0000
0000
0000
0000
0000
0000
0000
1000
0000
0000
0000
0000
0000
0000
0000
0000
0000
0000
0000
0000
0000
0000
0000
0000
0000
0000
0000
0000
0000
0000
0000
0011
0000
0000
0000
0000
0000
0000
0000
0000
0000
0000
0000
0000
0000
0000
0000
0000
0000
0000
0000
0000
0000
0000
0000
0100
0000
0000
0000
0000
0000
0000
0000
0000
0000
0000
0000
0000
0000
0000
0000
1000
0000
0000
0000
0000
0000
0000
0000
,  // measure 112
0001
0000
0100
1010
0000
0000
0100
0000
0001
1000
0000
0010
0101
0000
0000
0001
0000
0100
1010
0000
0000
1100
0000
0000
,  // measure 113
0100
0000
0000
0011
0000
0000
1000
0000
0001
0100
0000
0000
0001
1000
0001
1000
0001
1000
0001
0000
0000
1000
0000
0000
,  // measure 114
1000
0000
0000
0010
0000
0000
0010
0000
0000
0010
0000
0000
0010
0000
0000
0010
0000
0000
0010
0000
0000
0020
0000
0030
,  // measure 115
1010
0000
0100
0000
1000
0000
1000
0000
0011
0000
0000
0100
0000
0000
0001
0000
,  // measure 116
1100
0011
0101
0000
,  // measure 117
1000
0000
0000
0000
0001
0000
0000
0000
1010
0000
0000
0001
0000
0000
1000
0000
,  // measure 118
0101
1100
0011
0000
,  // measure 119
1000
0000
0100
0000
2000
3200
0320
2030
,  // measure 120
3002
0023
2030
3200
0321
2030
3002
0203
,  // measure 121
0320
0000
0000
0000
0000
0000
0000
0000
0000
0000
0000
0000
0000
0000
0000
0000
0000
0000
0000
0000
0000
0000
0000
0000
2030
0000
0000
0000
0000
0000
0000
0000
0000
0000
0000
0000
0000
0000
0000
0000
0000
0000
0000
0000
0000
0000
0000
0000
3020
0000
0000
0000
0000
0000
0000
0000
0000
0000
0000
0000
0000
0000
0000
0000
0000
0000
0000
0000
0000
0030
0000
0000
0020
0000
0000
0000
0000
0000
0000
0000
0000
0000
0000
0000
0000
0000
0000
0000
0000
0000
0000
0000
0000
0030
0000
0000
1002
0000
0000
0000
0000
0000
0000
0000
0000
0000
0000
0000
0000
0000
0000
0000
0000
0000
0000
0000
0000
0000
0000
0000
0000
0000
0000
0000
0000
0000
0000
0000
0000
0000
0000
0000
0000
0000
0000
0000
0000
0000
0000
0000
0000
0000
0000
0000
0000
0000
0000
0000
0000
0000
0000
0000
0000
0000
0000
0000
0000
0000
0000
0000
1000
0000
0000
0000
0000
0000
0000
0000
0000
0000
0000
0000
0000
0000
0000
0000
0000
0000
0000
0000
0000
0000
0000
0000
0000
0000
0000
0000
0000
0000
0000
0000
,  // measure 122
0000
0000
0000
0000
0000
0000
0000
0000
0000
0000
0000
0000
0000
0000
0000
0000
0000
0000
0000
0000
0000
0000
0000
0000
0000
0000
0000
0000
0000
0000
0000
0000
0100
0000
0000
0000
0000
0000
0000
0000
0000
0000
0000
0000
0000
0000
0000
0000
0000
0000
0000
0000
0000
0000
0000
0000
0000
0000
0000
0000
0000
0000
0000
0000
0000
0000
0000
0000
0000
0000
0000
0000
0000
0000
0000
0000
0000
0000
0000
0000
0000
0000
0000
0000
0000
0000
0000
0000
0000
0000
0000
0000
0000
0003
0000
0000
0021
0000
0000
0000
0000
0000
0000
0000
0000
0000
0000
0000
0230
0000
0000
0000
0000
0000
0000
0000
0000
0000
0000
0000
2300
0000
0000
0000
0000
0000
0000
0000
0000
0000
0000
0000
3002
0000
0000
0000
0000
0000
0000
0000
0000
0000
0000
0000
0203
0000
0000
0000
0000
0000
0000
0000
0000
0000
0000
0000
0320
0000
0000
0000
0000
0000
0000
0000
0000
0000
0000
0000
2030
0000
0000
0000
0000
0000
0000
0000
0000
0000
0000
0000
3002
0000
0000
0000
0000
0000
0000
0000
0000
0000
0000
0000
,  // measure 123
2013
0000
0000
0000
0000
0000
0000
0000
0000
0000
0000
0000
3200
0000
0000
0000
0000
0000
0000
0000
0000
0000
0000
0000
0302
0000
0000
0000
0000
0000
0000
0000
0000
0000
0000
0000
0203
0000
0000
0000
0000
0000
0000
0000
0000
0000
0000
0000
0320
0000
0000
0000
0000
0000
0000
0000
0000
0000
0000
0000
2030
0000
0000
0000
0000
0000
0000
0000
0000
0000
0000
0000
3002
0000
0000
0000
0000
0000
0000
0000
0000
0000
0000
0000
0023
0000
0000
0000
0000
0000
0000
0000
0000
0000
0000
0000
1130
2000
0000
0000
0000
0000
0000
0000
0000
0000
0000
0000
3002
0000
0000
0000
0000
0000
0000
0000
0000
0000
0000
0000
0023
0000
0000
0000
0000
0000
0000
0000
0000
0000
0000
0000
0032
0000
0000
0000
0000
0000
0000
0000
0000
0000
0000
0000
2003
0000
0000
0000
0000
0000
0000
0000
0000
0000
0000
0000
3200
0000
0000
0000
0000
0000
0000
0000
0000
0000
0000
0000
0321
0000
0000
0000
0000
0000
0000
0000
0000
0000
0000
0000
2030
0000
0000
0000
0000
0000
0000
0000
0000
0000
0000
0000
,  // measure 124
3020
0230
0302
0023
1230
0302
2003
3200
2310
0000
0000
0000
3020
0000
2030
0000
,  // measure 125
3120
0000
2030
0000
3020
0000
2030
0000
3201
0320
0032
2003
3002
0023
1230
0320
,  // measure 126
0032
0203
0320
2030
3201
0320
2030
3002
1023
0000
0000
0000
0000
0000
1000
0000
,  // measure 127
1000
0000
0000
0000
0000
0000
0100
0000
0000
0000
0000
0000
1000
0000
0000
0000
1000
0000
0000
0000
1000
0030
0000
0000
0101
0000
0000
0000
0000
0000
0001
0000
0000
0000
0000
0000
0100
0000
0000
0000
0000
0000
0011
0000
0000
0000
0000
0000
,  // measure 128
0100
0001
1100
0001
0101
1000
1000
1000
,  // measure 129
0101
0000
0000
0010
0000
0000
0010
0000
0000
1000
0100
1000
1100
0000
0000
0100
0000
0000
0100
0000
0000
0012
0000
0000
,  // measure 130
0000
0000
0000
0000
0000
0000
0000
0000
0000
0000
0000
0000
0000
0000
0000
0003
2020
0000
0000
0000
0000
0000
0000
0000
0000
0000
0000
0000
0000
0000
0000
0000
0000
0000
0000
0000
0000
0000
0000
0000
0000
0000
0000
0000
0000
0000
3030
0000
0201
0000
0000
0000
0320
0000
0000
0000
2030
0000
0000
0000
3002
0000
0000
0000
,  // measure 131
0023
0230
2300
3002
0023
2030
3200
0320
2030
3200
0320
0032
2103
0000
3020
0000
,  // measure 132
0230
0000
0000
0000
0000
0000
0301
0000
0010
0000
0001
0000
0011
0000
0000
0000
0001
0000
0000
0000
0001
0000
0000
0000
1000
0000
0000
0000
0000
0000
0010
0000
0000
0000
0000
0000
0101
0000
0000
0010
0000
0000
1000
0000
0000
0010
0000
0000
,  // measure 133
0100
0000
0000
0000
0000
0000
0000
0000
0000
0000
0000
0000
0001
0000
0000
0000
0000
0000
0000
0000
0000
0000
0000
0000
1000
0000
0000
0000
0000
0000
0000
0000
0000
0000
0000
0000
0100
0000
0000
0000
0000
0000
0000
0000
0000
0000
0000
0000
0010
0000
0000
0000
0000
0000
0000
0000
0001
0000
0000
0000
0000
0000
0000
0000
0100
0000
0000
0000
0000
0000
0000
0000
0010
0000
0000
0000
0000
0000
0000
0000
1000
0000
0000
0000
0000
0000
0000
0000
0100
0000
0000
0000
0000
0000
0000
0000
0010
0000
0000
0000
0000
0000
0001
0000
0000
0000
0000
0000
1000
0000
0000
0000
0000
0000
0100
0000
0000
0000
0000
0000
0010
0000
0000
0000
0000
0000
0000
0000
0000
0000
0000
0000
0000
0000
0000
0000
0000
0000
0000
0000
0000
0000
0000
0000
1001
0000
0000
0000
0000
0000
0000
0000
0000
0000
0000
0000
0000
0000
0000
0000
0000
0000
0000
0000
0000
0000
0000
0000
0000
0000
0000
0000
0000
0000
0000
0000
0000
0000
0000
0000
0000
0000
0000
0000
0000
0000
0000
0000
0000
0000
0000
0000
,  // measure 134
0102
0000
0000
0013
0000
0000
0100
0000
0000
1000
0000
0000
0100
0000
0010
0000
0001
0000
0010
0000
0001
0000
0010
0000
,  // measure 135
1100
0000
0000
0100
0000
0000
0100
0000
0000
0100
0000
0000
0010
0000
0000
0000
0000
0000
0000
0000
0010
0000
0010
0000
,  // measure 136
0001
0001
0001
0001
0101
0000
0010
1000
,  // measure 137
1010
0001
0100
0100
0010
1000
0001
0010
,  // measure 138
2200
0000
0000
3300
0000
0000
2200
0000
0000
3300
0000
0000
0001
0000
1000
0000
0001
0000
1000
0000
0000
0000
0000
0000
,  // measure 139
1000
0000
0100
0100
0010
0000
0001
1000
,  // measure 140
0101
0000
1000
0001
0000
0010
0101
0000
0000
1000
0000
0000
,  // measure 141
0011
1000
0101
0011
,  // measure 142
1010
0000
0100
0000
0001
0000
0010
0000
0000
0000
0000
0000
0001
0000
0000
0001
0000
0000
0001
0000
0000
0001
0000
0000
,  // measure 143
0010
0000
0000
0001
0000
0100
0010
0000
0000
0001
0000
0100
,  // measure 144
1010
0000
0000
0001
0000
0100
1010
0000
0000
0001
0000
0010
,  // measure 145
1100
0000
0010
0001
0000
0100
0010
1000
0100
0000
0000
0000
,  // measure 146
1001
0010
0001
1000
0100
0010
0001
0010
,  // measure 147
0001
0000
0000
0010
0000
0000
0100
0000
0000
0100
0000
0000
0010
0000
0000
0000
0010
0000
0000
0000
0010
0000
0000
0000
,  // measure 148
2200
3300
0010
0001
0100
0100
0001
1000
,  // measure 149
0101
0010
1000
1000
0001
0100
0001
0000
,  // measure 150
2020
3030
2000
3000
0011
0000
0101
0000
,  // measure 151
1000
0100
1000
0100
1000
0100
1000
0000
0000
0011
0000
0000
,  // measure 152
1100
0000
0000
0101
0000
1000
0010
0000
1000
0101
0000
0000
,  // measure 153
0011
0000
0000
0010
0000
0000
0001
0000
0010
0001
0000
0100
,  // measure 154
1010
0001
1000
0010
0100
0100
0100
0001
,  // measure 155
2020
3030
2020
3030
1000
0000
0100
0000
,  // measure 156
2020
3030
1000
0000
2020
3030
1000
0000
,  // measure 157
0102
0000
0000
0000
0000
0000
0000
0000
0000
0000
0000
0000
0000
0000
0000
0000
0000
0000
1000
0000
0000
1000
0003
0000
,  // measure 158
1010
0000
0000
0000
0000
0000
0010
0000
0000
0000
0000
0010
,  // measure 159
0000
0000
0000
0000
0010
0000
0000
0000
0000
0010
0000
0000
,  // measure 160
0000
0010
0000
0000
0000
0010
0000
0000
0010
0000
0000
0010
,  // measure 161
0000
0000
0000
0000
0000
0000
0010
0000
0000
0000
0000
0000
0000
0000
0000
0000
0010
0000
0000
0000
0000
0000
0000
0000
0010
0000
0000
0000
0000
0010
0000
0000
0000
0000
0010
0000
0100
0000
0000
0000
0000
0000
0100
0000
0000
0000
0000
0000
,  // measure 162
0101
0000
0100
2020
3030
0010
0101
0000
,  // measure 163
2000
0000
0000
0000
0000
0000
0000
3000
0200
0000
0000
0000
0000
0000
0000
0300
0020
0000
0000
0000
0000
0000
0000
0030
0002
0000
0000
0000
0000
0000
0000
0003
,  // measure 164
1000
0000
0100
0010
0000
1000
0101
0000
0000
1000
0000
0100
,  // measure 165
0011
0000
0000
0000
1000
0000
0101
0000
0000
0000
0000
0000
2002
0000
0000
0000
0000
0000
0000
0000
0000
3003
0000
0000
,  // measure 166
1100
1010
1100
1010
,  // measure 167
1000
0000
0010
0000
1000
0000
0010
0000
1000
0000
0010
0000
1000
0000
0000
0001
0000
0000
1000
0000
0000
0100
0000
0000
,  // measure 168
0011
0000
0000
1000
0000
0000
0001
0000
0100
0001
0000
0000
,  // measure 169
1000
0000
0000
0000
0000
0000
0000
0000
0000
0000
0000
0000
0001
0000
0000
0000
0000
0000
0000
0000
0100
0000
0000
0000
0010
0000
0000
0000
0000
0000
0000
0000
0000
0010
0000
0000
0000
0000
0000
0000
0000
0000
0010
0000
0000
0000
0000
0000
,  // measure 170
1010
0000
0002
0000
0000
0003
0000
0000
1002
0000
0000
0003
,  // measure 171
0000
0000
1000
0000
0100
0000
0000
0000
0000
0010
0000
0000
,  // measure 172
0102
0000
0000
0003
0000
0000
0010
0000
0000
0000
0100
0000
0002
0000
0000
0003
1000
0000
0002
0000
0000
0003
0100
0000
,  // measure 173
0010
0000
1002
0003
0100
0000
1002
0003
,  // measure 174
2100
0010
0001
0010
,  // measure 175
0100
0000
0010
0000
0001
0000
0100
3000
,  // measure 176
1020
0000
0000
0000
0000
0000
0000
0000
0000
0000
0000
0000
0000
0000
0000
0000
0000
0000
0000
0000
0000
0000
0000
0000
0000
0000
0000
0000
0000
0000
0030
0000
0020
0000
0000
0000
0000
0000
0000
0000
0000
0000
0000
0000
0000
0000
0000
0000
0000
0000
0000
0000
0000
0000
0000
0000
0000
0000
0000
0000
0030
0000
0000
0000
0020
0000
0000
0000
0000
0000
0000
0000
0000
0000
0000
0000
0000
0000
0000
0000
0000
0000
0000
0000
0000
0000
0000
0000
0000
0000
0030
0000
0000
0000
0000
0000
0020
0000
0000
0000
0000
0000
0000
0000
0000
0000
0000
0000
0000
0000
0000
0000
0000
0000
0000
0000
0000
0000
0000
0000
0000
0000
0000
0000
0000
0000
0000
0000
0000
0000
0000
0000
0000
0000
0000
0000
0000
0000
0000
0000
0000
0000
0000
0000
1000
0000
0000
0000
0000
0000
0000
0000
0000
0000
0000
0000
0000
0000
0000
0000
0000
0000
0000
0000
0000
0000
0000
0000
0000
0000
0000
0000
0000
0000
0000
0000
0000
0000
0000
0000
0000
0000
0000
0000
0000
0000
0000
0000
0000
0000
0000
0000
,  // measure 177
0100
0000
1000
0000
0100
0000
1000
0030
,  // measure 178
0102
1000
0100
0010
,  // measure 179
1000
0000
0010
0003
1200
0000
0001
0300
,  // measure 180
2002
0000
0000
3003
2020
0000
3030
0000
1000
0000
0000
0000
2002
0000
0000
3003
,  // measure 181
2020
0000
0000
3030
0000
0000
0100
0000
0000
0000
0000
0000
0001
0000
0010
0000
0001
0000
0010
0000
0001
0000
0010
0000
,  // measure 182
1100
0001
1010
0000
0011
0000
1000
0001
,  // measure 183
1100
0000
1010
0000
1000
0010
0101
0000
,  // measure 184
1002
0000
0000
0000
0000
0000
0000
0000
0000
0000
0000
0000
0000
0000
0000
0000
0000
0000
0000
0000
0000
0000
0000
0000
0000
0000
0000
0003
0002
0000
0000
0000
,  // measure 185
1000
0000
0000
0000
0000
0003
0002
0000
0000
0000
0000
0000
0000
0000
0000
0003
0002
0000
0000
0000
0000
0000
0000
0003
0002
0000
0000
0000
0000
0000
0000
0003
,  // measure 186
2100
3001
0100
0012
,  // measure 187
1000
0103
1010
0100
,  // measure 188
0022
0030
1003
0000
2200
0300
3010
0000
,  // measure 189
0202
0300
0103
0000
2020
3000
1030
0000
,  // measure 190
2100
3001
0102
1003
,  // measure 191
1020
0130
2100
3001
,  // measure 192
0011
0100
1010
0001
,  // measure 193
0101
0010
1010
0100
,  // measure 194
1001
0000
0000
0010
0000
0000
0100
0000
0000
1000
0010
1000
,  // measure 195
0010
0000
0000
0010
0000
0000
0010
0000
0000
0010
1000
0010
,  // measure 196
1100
0010
0101
0010
,  // measure 197
0101
0000
0010
0000
1100
1000
0010
0000
,  // measure 198
0101
0000
0101
0010
1000
1000
1000
0100
,  // measure 199
0100
0010
1000
1000
1000
1000
0100
0010
,  // measure 200
1100
0100
0011
0100
1000
1000
1000
0001
,  // measure 201
0110
0000
0000
0000
0000
0000
0000
0000
0110
0000
0000
0000
0000
0000
0000
0000
0110
0000
0000
0000
0000
0000
0000
0000
1000
0000
0000
0000
0000
0000
0000
0000
0010
0000
0000
0000
0000
0000
0000
0000
0101
0000
0000
0000
0000
0000
0000
0000
0001
0000
0000
0000
0000
0000
0000
0000
2000
0000
0000
0000
0000
0000
0000
3000
,  // measure 202
1010
0000
0000
1000
0000
0000
0011
0000
0000
0100
0000
1000
0001
0000
0100
1010
0000
0000
0100
0000
0001
1000
0000
0010
,  // measure 203
0101
0000
0000
0001
0000
0100
1010
0000
0000
1100
0000
0000
0100
0000
0000
0011
0000
0000
1000
0000
0001
0100
0000
0000
,  // measure 204
0001
1000
0001
1000
0001
1000
0001
0000
0000
1000
0000
0000
1000
0000
0000
0010
0000
0000
0010
0000
0000
0010
0000
0000
,  // measure 205
0010
0010
0010
0010
0001
0100
0100
0100
,  // measure 206
0010
0000
0000
0000
;
