#TITLE:Will My Heart Survive;
#SUBTITLE:;
#ARTIST:Nightcore;
#TITLETRANSLIT:;
#SUBTITLETRANSLIT:;
#ARTISTTRANSLIT:;
#CREDIT:;
#BANNER:;
#BACKGROUND:;
#LYRICSPATH:;
#CDTITLE:;
#MUSIC:Will my Heart Survive.ogg;
#OFFSET:0.166;
#SAMPLESTART:39.989;
#SAMPLELENGTH:12.000;
#SELECTABLE:YES;
#BPMS:0.000=175.540,108.000=87.770,132.000=175.540,460.000=87.770,476.000=175.540;
#STOPS:528.000=2.000
;
#BGCHANGES:;
// cache tags:
#FIRSTBEAT:8.000;
#LASTBEAT:528.250;
#SONGFILENAME:Songs/toune 2011/Will My Heart Survive/Will my Heart Survive.SM;
#HASMUSIC:1;
#HASBANNER:0;
#MUSICLENGTH:197.996;
// end cache tags

//---------------dance-single - DaVe Tarma----------------
#NOTES:
     dance-single:
     DaVe Tarma:
     Challenge:
     12:
     0.960,1.000,0.086,0.182,0.975,1276.000,17.000,36.000,27.000,0.000:
0000
0000
0000
0000
,
0000
0000
0000
0000
,
2000
0000
0000
0000
0000
3000
0000
0000
0200
0000
0000
0000
0000
0000
0300
0000
,
0010
0000
0000
0000
0002
0000
0000
0000
0000
0000
0000
0003
1000
0000
0020
0000
,
0000
0000
0000
0000
0000
0000
0000
0000
0030
0000
0000
0000
2020
3030
0000
0000
,
2020
3030
0000
0000
2000
3000
0000
0000
0200
0300
0000
0000
0020
0030
0000
0000
,
0200
0300
0000
0000
2000
3000
0020
0030
0000
0000
0000
0000
0000
0000
0000
0000
,
2002
0000
0000
0000
0000
0000
3000
0003
0000
0000
0000
0000
0000
0000
1000
0000
,
0100
0000
0010
0001
0000
0000
1000
M000
,
0010
00M0
0100
0M00
0001
000M
1000
0000
,
2020
0000
0000
0000
0000
3030
0000
0000
1100
0000
0000
0000
0000
0000
0000
0000
,
0011
0000
0010
0000
0010
0000
0010
0100
,
1000
0000
1000
0000
0100
0000
0010
0001
,
0100
0M00
0001
000M
1000
M000
1000
M000
,
0010
00M0
0010
1000
0100
0000
0010
0001
,
1000
M000
1000
M000
1000
0000
M100
0010
,
0001
0000
0001
1000
0010
0000
0001
1000
,
0100
1000
0100
0010
0100
0010
0001
0010
,
0001
0000
0000
0000
0001
0000
0000
0000
0001
1000
0001
0000
1000
0000
0010
0000
,
1000
0100
1000
0000
0100
0000
0010
0000
0100
0000
0010
0001
0010
0000
0001
0100
,
0001
1000
0010
0000
1000
0000
0001
0000
1000
0000
0100
1000
0100
0000
0010
0100
,
0010
0001
0010
0000
0100
0000
0010
0000
0100
0000
1000
0100
1000
0000
0010
0100
,
0010
1000
0010
0000
0100
0000
0001
0000
0010
0000
0001
0100
0001
0000
1000
0010
,
1000
0001
1000
0000
0100
0000
1000
0000
0001
0000
1000
0001
0100
0000
0001
1000
,
0001
0100
0001
0000
0010
0000
0001
0000
0100
0000
0001
0010
0001
0000
0100
0001
,
1000
0010
1000
0000
0001
0000
1000
0000
0100
0000
1000
0100
0010
0000
0100
0010
,
0001
0010
0001
0000
0100
0000
0001
0000
1000
0000
0010
1000
0001
0000
1000
0100
,
2000
0000
0M00
0000
00M0
0000
0000
000M
0000
0000
0000
00M0
0000
0000
0000
0M00
,
0000
0000
0000
000M
0000
0000
0000
000M
3000
0000
000M
0000
0100
0000
0010
0000
,
0001
1000
0000
0000
0000
0000
MMMM
0000
0000
0000
0000
1000
0010
0000
1000
0100
,
0000
0000
0000
MMM0
0000
0000
0000
0000
0000
0000
0000
0000
1000
0000
0100
0000
,
0010
0001
0000
0000
0001
0000
1000
0010
0000
0000
0000
1000
0100
0000
0010
0001
,
1000
0001
1000
0000
0020
0030
2000
3000
2000
3000
0200
0300
0020
0030
0002
0003
,
1001
1000
0100
0010
0100
0010
0001
0010
,
0001
1000
0001
1000
1010
1000
1010
1000
,
0100
1000
0100
0010
0100
0010
0001
0010
,
0001
1000
0001
1000
0010
1000
0001
1000
,
0100
1000
0100
0010
0100
0010
0001
0010
,
0100
1000
0100
1000
0100
0010
0100
0010
,
0100
0010
0001
0000
0010
0000
0001
0000
0100
0000
0001
0000
1000
0000
0010
0000
,
1000
0000
0001
0000
1000
0000
0100
0000
1000
0100
1000
0000
0100
0000
1000
0000
,
0100
0010
0100
0000
0010
0000
0001
0000
0010
0000
0001
0000
0100
0000
0001
0000
,
1000
0010
1000
0001
1000
0001
1000
0100
,
1000
0100
1000
0000
0100
0000
1000
0000
0010
0000
0100
0000
0010
0000
0100
0000
,
0010
0000
0100
0000
0001
0000
0100
0000
0010
0000
0100
0000
0001
0000
0100
0001
,
0100
0000
0001
0010
0001
0000
0100
0000
0001
0000
1000
0000
0001
0000
1000
0010
,
1000
0000
0001
1000
0100
0000
1000
0000
0100
0000
0010
0000
0001
0000
0010
0100
,
0010
0001
0010
0100
0010
0100
1000
0100
1000
0100
0010
0100
0010
0001
0010
0001
,
0100
0001
1000
0010
0100
0001
0010
0001
0100
0001
1000
0010
1000
0001
1000
0100
,
1000
0100
1000
0100
0010
0100
0010
0001
0010
0001
0010
0100
0010
0100
1000
0100
,
1000
0100
1000
0010
1000
0010
1000
0010
0100
0010
0100
0010
0100
0001
0100
0001
,
0010
0001
0010
0001
1000
0001
1000
0001
1000
0100
1000
0100
1000
0001
1000
0001
,
1000
0100
1000
0100
1000
0100
0010
0100
0010
0001
0010
0100
0010
0100
0010
0100
,
1000
0100
1000
0010
1000
0010
0100
0010
0100
0010
0100
0001
0100
0001
0010
0001
,
0010
0001
0100
0001
1000
0001
1000
0100
1000
0100
1000
0100
0010
0100
0010
0001
,
0010
0100
0010
0100
0010
0100
1000
0100
1000
0010
1000
0010
0100
0010
0100
0010
,
0100
0010
0100
0010
0100
0001
0100
0001
0010
0001
0100
0000
0001
0000
1000
0000
,
0010
1000
0001
1000
0100
1000
0100
0010
0001
0010
0100
0010
0001
0010
0100
0010
,
0100
0010
0001
0010
0100
1000
0100
1000
0100
0010
0001
0010
0100
0010
0001
0010
,
0100
1000
0100
1000
0100
1000
0010
1000
0010
1000
0010
0100
0010
0100
0010
0100
,
0001
0100
0001
0010
0001
0100
0001
1000
0100
1000
0001
1000
0100
1000
0001
1000
,
0100
1000
0100
1000
0100
0010
0001
0010
0100
1000
0100
0010
0001
0010
0100
0010
,
0001
0010
0100
0010
0100
0010
0100
1000
0100
1000
0100
1000
0010
1000
0010
0100
,
0010
0100
0010
1000
0010
0100
0001
0010
0001
0100
0001
1000
0010
1000
0001
1000
,
0100
1000
0100
1000
0100
0010
0100
0010
0001
0010
0100
1000
0100
1000
0100
1000
,
0100
0000
0010
0000
0100
0000
0010
0000
0001
0000
0010
0001
0010
0000
0001
0100
,
0001
1000
0010
1000
0001
1000
0100
0010
,
0011
0010
0011
0010
0100
0010
0100
0010
,
0100
1000
0100
1000
0010
1000
0010
1000
,
1100
1000
1100
1000
0100
0001
0100
0001
,
0100
1000
0100
1000
0010
1000
0010
1000
,
0010
0001
0010
0001
0010
1000
0010
1000
,
0010
0001
0010
0001
0010
1000
0010
1000
,
0100
1000
0100
1000
0100
0001
0100
0001
,
0100
0000
1000
0000
0100
0000
1000
0000
0100
1000
0100
0000
1000
0000
0100
0000
,
0010
0000
0001
0000
0010
0000
0001
0000
1000
0001
1000
0000
0010
0000
1000
0000
,
0001
1000
0100
0000
1000
0000
0100
0000
0010
0001
0010
0100
0010
0000
0001
0000
,
0010
0100
0010
0000
0100
0000
1000
0000
0100
1000
0100
0000
1000
0000
0010
0000
,
1000
0010
1000
0000
0010
0000
0100
0000
0010
0100
0010
0100
0010
0000
1000
0000
,
0010
0100
0010
0000
0100
0000
0001
0000
0010
0001
0100
0000
0001
0000
1000
0000
,
0010
1000
0001
0000
1000
0000
0100
0000
1000
0100
1000
0100
0010
0000
0001
0000
,
0010
0100
0010
0000
0001
0000
0010
0000
0100
1000
0100
0000
1000
0000
0100
0000
,
0010
0000
0001
0000
0010
0000
0001
0000
0100
0001
1000
0010
1000
0000
0001
0000
,
1000
0100
1000
0000
0100
0000
0010
0000
0001
0000
0010
0000
0100
0000
0010
0000
,
0100
1000
0100
0000
1000
0000
0100
0000
0010
0000
0100
0010
0001
0000
0010
0001
,
0100
0001
1000
0000
0010
0000
1000
0000
0001
0000
1000
0000
0010
0000
1000
0000
,
0001
1000
0100
0000
1000
0000
0100
0000
0010
0000
0100
0000
0010
0000
0001
0000
,
0010
0100
0010
0000
0100
0000
0010
0000
0100
0000
1000
0000
0100
0000
1000
0000
,
0010
1000
0010
0100
0010
0100
0010
0001
,
0010
0100
0010
1000
0010
1000
0100
1000
0100
0010
0100
0010
0001
0010
0100
0010
,
0100
0010
0100
1000
0100
1000
0100
0000
0010
0000
0100
0000
0010
0000
0001
0000
,
0010
0001
1000
0001
1000
0010
1000
0001
1000
0100
1000
0100
1000
0100
0010
0100
,
0010
0001
0010
0100
0010
0100
0010
0100
0010
0100
0010
0100
1000
0100
0020
0000
,
0000
0000
0000
0030
0000
0000
0020
0000
,
0002
0000
0030
0000
2000
0000
0003
0000
0020
3000
0000
0000
1030
0000
0100
0000
,
0010
0000
0000
0001
1000
0000
0001
0000
1000
0000
0000
0010
1000
0000
0001
0000
,
1000
0000
0000
1000
0100
0000
1000
0000
0100
0000
0100
0000
0010
0000
0010
0000
,
0001
0000
0000
1000
0001
0000
1000
0000
0010
0000
0000
1000
0001
0000
1000
0000
,
0100
0000
0000
1000
0100
0000
1100
0000
1000
0100
0010
0000
0100
0000
0010
0000
,
0100
0010
0001
0010
0001
0100
0001
1000
0010
1000
0001
1000
0100
1000
0100
1000
,
0100
0010
0100
0010
0001
0010
0100
0010
0100
0010
0100
0010
0100
0010
0200
0000
,
0000
0000
0000
1300
,
0020
0000
0000
0000
0200
0000
0030
0000
0002
0300
0000
0000
0013
0000
0000
0000
,
0001
0000
0000
1000
0010
0000
1000
0000
0001
0000
0000
1000
0100
0000
1000
0000
,
0100
0000
0000
0010
0001
0000
0010
0000
0100
0000
0100
0000
0010
0000
0100
0000
,
1000
0000
0000
0100
1000
0000
0010
0000
1000
0000
0000
0010
0100
0000
0010
0000
,
1000
0000
0000
0010
0100
0000
0001
0000
0010
0001
0100
0000
0001
0000
1000
0000
,
0010
0000
0000
1000
0001
0000
1000
0000
0100
1000
0100
0000
0010
0000
0100
0000
,
0010
0000
0000
0001
0010
0000
0001
0000
1000
0001
1000
0000
0010
1000
0001
0000
,
1000
0000
0000
0100
1000
0000
0100
0000
1000
0100
0010
0000
0100
0010
0001
0010
,
0100
0000
0000
0010
0100
0000
0010
0000
0100
1000
0100
0000
1000
0000
0100
0000
,
0010
0000
0000
0010
0100
0000
0010
0000
0001
0010
0100
0000
0010
0100
0010
0000
,
0100
0000
0000
1000
0100
0000
1000
0000
0100
1000
0100
0000
1100
0000
1000
0000
,
0100
0000
0000
0010
0001
0000
1000
0000
0010
1000
0001
0000
1000
0000
0100
0000
,
1000
0000
0000
0100
0010
0000
0001
0000
1000
0001
1000
0000
0010
0000
1000
0000
,
0001
0000
0001
0000
1000
0000
1000
0000
0010
0000
0010
0000
1000
0000
1000
0100
,
0000
0000
0100
0100
0010
0001
0001
1000
,
0010
0000
0010
1000
0000
0000
1000
0000
1100
0000
1000
0000
0100
0000
0010
0000
,
0001
0000
0000
0000
1000
0000
0000
0000
1000
0000
0000
0000
0000
0000
0000
0000
1000
0000
0000
0000
1000
0000
0000
0000
0010
1000
0010
0000
1000
0000
0010
0000
,
1000
0100
0010
0001
1000
0010
0100
0010
1000
0001
1000
0001
1000
0100
0010
0100
,
1000
0001
0010
0100
0010
0001
0010
0100
1000
0100
0010
0001
0010
0100
1000
0010
,
0100
0001
0100
0010
1000
0010
0100
0001
0010
0100
1000
0100
0010
0100
0010
0001
,
0010
0100
0010
0001
0010
0100
0010
0001
0010
0100
0010
0100
1000
0010
1000
0010
,
1000
0100
1000
0100
1000
0001
1000
0001
1000
0100
0010
0001
1000
0010
0100
0001
,
1000
0010
0100
0001
1000
0100
0010
0001
1000
0010
0100
0001
1000
0100
0010
0001
,
0010
0001
0010
0001
0010
0100
1000
0100
0010
0001
0010
0100
1000
0100
0010
0001
,
0010
0100
0010
0100
0010
0100
0010
0000
0001
0010
0100
0000
1000
0000
0010
0000
,
1000
0100
1000
0100
1000
0001
1000
0001
1000
0010
1000
0010
1000
0001
1000
0001
,
1000
0100
1000
0100
1000
0001
1000
0001
1000
0001
0100
0001
0100
0001
0010
0001
,
0010
0001
1000
0001
1000
0001
0010
0001
0010
0001
1000
0001
1000
0100
1000
0100
,
1000
0001
1000
0001
1000
0100
1000
0100
0010
0100
0010
0000
0001
0000
0010
0000
,
0004
0000
0000
0000
,
2023
3030
0000
0000
0000
0000
0000
0000
0000
0000
0000
0000
0000
0000
0000
0000
;
