#TITLE:Bokura no 16bit Warz;
#SUBTITLE:;
#ARTIST:sasakure.UK;
#TITLETRANSLIT:;
#SUBTITLETRANSLIT:;
#ARTISTTRANSLIT:;
#CREDIT:Mad Matt;
#BANNER:../Tachyon Spectrum-bn.png;
#BACKGROUND:../Tachyon Spectrum-bg.png;
#LYRICSPATH:;
#CDTITLE:;
#MUSIC:16warz.ogg;
#OFFSET:0.756;
#SAMPLESTART:45.100;
#SAMPLELENGTH:12.000;
#SELECTABLE:YES;
#BPMS:0.000=244.000;
#STOPS:;
#BGCHANGES:;
// cache tags:
#FIRSTBEAT:4.000;
#LASTBEAT:504.500;
#SONGFILENAME:Songs/Tachyon Spectrum/Bokura no 16bit Warz - [Mad Matt]/16warz.sm;
#HASMUSIC:1;
#HASBANNER:1;
#MUSICLENGTH:126.948;
// end cache tags

//---------------dance-single - Tachyon Delta----------------
#NOTES:
     dance-single:
     Tachyon Delta:
     Easy:
     19:
     1.000,1.000,0.071,0.126,1.000,1388.000,9.000,16.000,2.000,0.000:




















0000
0000
0000
0000
,
0001
0001
0100
0001
1000
0100
0010
0001
,
0000
1000
0000
1000
0001
0001
0010
0001
,
1000
0100
0010
0100
0000
1000
0000
0001
,
1000
1000
0010
1000
0001
0010
0100
0010
,
0000
0001
0000
1000
0010
0010
0100
0001
,
0010
0100
1000
0001
0000
0100
0000
0100
,
0020
0130
0001
0010
0100
1000
0010
0100
,
0000
0001
0000
0010
0200
1300
0001
0100
,
0010
1000
0010
0100
0000
0001
0000
0010
,
0200
1300
0010
0100
0001
0100
0010
1000
,
0000
0000
0010
0000
0000
0000
1000
0000
0100
0000
1000
0100
0010
0000
0001
0000
,
1000
0001
1000
0000
0010
0000
0100
0000
0000
0000
0001
0100
0001
0000
1000
0000
,
0100
0010
0001
0100
0010
1000
0100
0010
,
0001
1000
0001
1000
0010
0100
0001
0010
,
0100
1000
0010
0100
0001
1000
0100
1000
,
0010
0100
0001
1000
0100
0010
0001
0100
,
0010
1000
0001
0010
0100
1000
0001
0100
,
0010
0000
1000
0000
0100
0000
0010
0000
0001
0000
1000
0000
0010
0000
1000
0001
,
1000
0001
0100
0001
0010
0100
1000
0010
,
0100
0001
1000
0100
1000
0001
0100
0010
,
1000
0100
0010
0100
1000
0001
0100
0010
,
1000
0001
0010
0001
1000
0100
1000
0001
,
0100
0010
1000
0100
0010
0001
0100
0010
,
1000
0000
0010
0000
0100
0000
0001
1000
0001
0000
1000
0000
0100
0000
0010
0001
,
1000
0100
1000
0100
0010
0001
0010
0001
,
0000
0000
0010
0001
0010
0001
0000
0000
,
0010
0001
0010
0001
0000
0011
0000
1001
,
0000
1010
0000
0110
0000
0101
0000
1001
,
0000
0000
0000
1100
0000
0000
0000
0000
0101
0000
0000
0000
0000
0000
0000
2002
0000
0000
0000
0000
0000
0000
0000
0000
,
3003
0000
0000
0000
1000
0001
1000
0001
1000
0000
0000
0000
0000
0000
0001
0000
,
1000
0100
0010
0100
1000
0001
0100
0000
,
0100
0010
1000
0100
0010
0001
1000
0010
,
0100
0001
0100
0001
0100
0000
0000
0000
0000
0000
0100
0000
0010
0000
1000
0000
,
0100
0010
0001
1000
0010
0000
0100
0001
,
0010
0100
0010
0001
1000
0010
0100
0001
,
1000
0000
0100
0010
0001
1000
0010
0100
,
0001
0010
0100
0000
1000
0010
0100
0001
,
0010
0100
1000
0010
0100
0001
1000
0001
,
0010
0000
0100
0000
1000
0100
1000
0001
1000
0100
1000
0001
1000
0000
0100
0000
,
0010
0000
0001
0000
1000
0000
0010
0000
0100
0001
0100
0001
1000
0000
0100
0000
,
0010
0001
1000
0010
0100
0001
0010
0100
,
1000
0000
0010
0000
0100
0001
0100
0010
0100
0001
0100
0010
0100
0000
0001
0000
,
1000
0000
0001
0000
0010
0000
0100
0000
1000
0000
0010
0000
1000
0010
1000
0001
,
1000
0010
1000
0001
1000
0000
0010
0000
0100
0000
0001
0000
0010
0000
0100
0000
,
1000
0001
0000
0000
0010
0100
1000
0001
,
0000
0000
0000
0000
1000
0100
0010
0001
1000
0100
0010
0001
1000
0010
0100
0001
,
1000
0010
0100
0001
0100
0010
1000
0001
0100
0010
1000
0001
1000
0001
0010
0100
,
1000
0001
1000
0001
0010
0100
1000
0100
0010
0001
1000
0001
1000
0010
0100
0001
,
0100
0010
1000
0001
0100
0001
1000
0010
0100
0001
1000
0010
1000
0001
0010
0001
,
1000
0100
1000
0001
0010
0100
1000
0001
0010
0001
1000
0100
1000
0001
0100
0001
,
1000
0010
0100
0001
1000
0010
1000
0001
0100
0001
1000
0010
0100
0001
0100
0010
,
1000
0001
1000
0001
0100
0010
1000
0010
0100
0001
1000
0001
1000
0100
0010
0001
,
1000
0100
1000
0001
0010
0100
1000
0001
0010
0001
1000
0100
1000
0001
0010
0100
,
1000
0001
1000
0001
0010
0100
1000
0001
1000
0001
1000
0010
1000
0010
0100
0001
,
1000
0010
0100
0001
0100
0010
1000
0001
0100
0010
1000
0001
1000
0001
0010
0100
,
1000
0001
1000
0001
0010
0100
1000
0100
0010
0001
1000
0001
1000
0010
0100
0001
,
0100
0010
1000
0001
0100
0001
1000
0010
0100
0001
1000
0010
1000
0001
0010
0001
,
1000
0100
1000
0001
0010
0100
1000
0001
0010
0001
1000
0100
1000
0001
0100
0001
,
1000
0010
0100
0001
1000
0010
1000
0001
0100
0001
1000
0010
0100
0001
0100
0010
,
1000
0001
1000
0001
0100
0010
1000
0010
0100
0001
1000
0001
1000
0100
0010
0001
,
1000
0100
1000
0001
0010
0100
1000
0001
0010
0001
1000
0100
1000
0001
0010
0100
,
1000
0001
1000
0001
0010
0100
1000
0001
1000
0001
1000
0010
1000
0010
0100
0001
,
1000
0010
0100
0001
0100
0010
1000
0001
0100
0010
1000
0001
1000
0001
0010
0100
,
1000
0001
1000
0001
0010
0100
1000
0100
0010
0001
1000
0001
1000
0010
0100
0001
,
0100
0010
1000
0001
0100
0001
1000
0010
0100
0001
1000
0010
1000
0001
0010
0001
,
1000
0100
1000
0001
0010
0100
1000
0001
0010
0001
1000
0100
1000
0001
0100
0001
,
1000
0010
0100
0001
1000
0010
1000
0001
0100
0001
1000
0010
0100
0001
0100
0010
,
1000
0001
1000
0001
0100
0010
1000
0010
0100
0001
1000
0001
1000
0100
0010
0001
,
1000
0100
1000
0001
0010
0100
1000
0001
0010
0001
1000
0100
1000
0001
0010
0100
,
1000
0001
1000
0001
0010
0100
1000
0001
1000
0001
1000
0010
1000
0010
0100
0001
,
1000
0010
0100
0001
0100
0010
1000
0001
0100
0010
1000
0001
1000
0001
0010
0100
,
1000
0001
1000
0001
0010
0100
1000
0100
0010
0001
1000
0001
1000
0010
0100
0001
,
0100
0010
1000
0001
0100
0001
1000
0010
0100
0001
1000
0010
1000
0001
0010
0001
,
1000
0100
1000
0001
0010
0100
1000
0001
0010
0001
1000
0100
1000
0001
0100
0001
,
1000
0010
0100
0001
1000
0010
1000
0001
0100
0001
1000
0010
0100
0001
0100
0010
,
1000
0001
1000
0001
0100
0010
1000
0010
0100
0001
1000
0001
1000
0100
0010
0001
,
1000
0100
1000
0001
0010
0100
1000
0001
0010
0001
1000
0100
1000
0001
0010
0100
,
1000
0001
1000
0001
0010
0100
1000
0001
1000
0001
1000
0010
2000
0000
0000
0000
,
0000
0000
0000
0000
,
0000
0000
0000
3000
0001
0100
0000
0010
,
0000
0000
0000
1000
0000
0000
0000
0000
0000
0000
0000
0100
0000
0000
0000
0000
0000
0000
0000
0000
0010
0000
0000
0000
,
0000
0000
0000
0000
0001
0000
0000
0000
0000
0100
0000
0000
0010
0000
0000
0000
0000
0000
1000
0000
0000
0000
0000
0000
,
0001
0000
0000
0000
0000
1000
0000
0000
0000
0000
0000
0000
1000
0001
0100
0001
,
1000
0000
0000
0010
0000
0000
1000
0000
0000
0001
0000
0000
1000
0000
0000
0001
0000
0000
0100
0000
0000
0001
0000
0000
1000
0000
0000
0100
0000
0000
1000
0000
0000
0001
0000
0000
1000
0000
0000
0000
0001
0000
0000
0000
1000
0000
0000
0000
,
0000
0002
0000
0000
0000
0000
0000
0000
,
0000
0000
0000
0000
0000
0003
1000
0100
,
1000
0000
0000
0001
0000
0000
0000
0100
0000
0000
0000
0000
,
0010
0000
0000
1000
0001
1000
0100
0010
0001
1000
0010
0100
,
0001
0000
1000
0000
0100
0000
1000
0000
0001
0000
0100
0000
0010
0000
1000
0000
0001
0000
1000
0000
0000
0100
0000
0000
,
0010
0001
0000
0000
1000
0100
0010
0001
,
0000
0000
1000
0010
0100
0001
0000
0000
,
1000
0000
0010
0000
0100
0000
0001
0000
0000
0000
0000
0000
1000
0010
0100
0001
,
1000
0010
0100
0001
1000
0010
0100
0001
1000
0010
0100
0001
0100
0010
1000
0001
,
0100
0010
1000
0001
1000
0001
0010
0100
1000
0001
1000
0001
0010
0100
1000
0100
,
0010
0001
1000
0001
1000
0010
0100
0001
0100
0010
1000
0001
0100
0001
1000
0010
,
0100
0001
1000
0010
1000
0001
0010
0001
1000
0100
1000
0001
0010
0100
1000
0001
,
0010
0001
1000
0100
1000
0001
0100
0001
1000
0010
0100
0001
1000
0010
1000
0001
,
0100
0001
1000
0010
0100
0001
0100
0010
1000
0001
1000
0001
0100
0010
1000
0010
,
0100
0001
1000
0001
1000
0100
0010
0001
1000
0100
1000
0001
0010
0100
1000
0001
,
0010
0001
1000
0100
1000
0001
0010
0100
1000
0001
1000
0001
0010
0100
1000
0001
,
1000
0001
1000
0010
1000
0010
0100
0001
1000
0010
0100
0001
0100
0010
1000
0001
,
0100
0010
1000
0001
1000
0001
0010
0100
1000
0001
1000
0001
0010
0100
1000
0100
,
0010
0001
1000
0001
1000
0010
0100
0001
0100
0010
1000
0001
0100
0001
1000
0010
,
0100
0001
1000
0010
1000
0001
0010
0001
1000
0100
1000
0001
0010
0100
1000
0001
,
0010
0001
1000
0100
1000
0001
0100
0001
1000
0010
0100
0001
1000
0010
1000
0001
,
0100
0001
1000
0010
0100
0001
0100
0010
1000
0001
1000
0001
0100
0010
1000
0010
,
0100
0001
1000
0001
1000
0100
0010
0001
1000
0100
1000
0001
0010
0100
1000
0001
,
0010
0001
1000
0100
1000
0001
0010
0100
1000
0001
1000
0001
0010
0100
1000
0001
,
1000
0001
0010
0100
2000
0000
0000
0000
0000
0000
3002
0000
0000
0000
0000
0000
,
0203
0302
0000
0023
,
0000
0000
0230
0000
0000
2300
0000
0000
,
3002
0000
0000
0000
0203
0000
0000
0000
0000
0000
0310
0000
1000
0001
1000
0001
,
0010
0100
1000
0100
0010
0001
1000
0100
1000
0100
0010
0001
0010
0001
1000
0100
,
1000
0001
0010
0100
1000
0001
0100
0001
1000
0010
1000
0001
0100
0010
1000
0001
,
0100
0001
1000
0010
1000
0001
0100
0010
1000
0001
0100
0010
1000
0010
0100
0001
,
1000
0010
1000
0001
0100
0001
1000
0100
1000
0001
0010
0100
1000
0001
0010
0100
,
1000
0100
1000
0001
0010
0001
0010
0100
1000
0001
1000
0001
0010
0100
1000
0001
,
0010
0001
1000
0100
1000
0001
0100
0001
1000
0010
1000
0001
0100
0001
1000
0010
,
0100
0010
1000
0010
0100
0001
0100
0010
1000
0001
0100
0001
1000
0010
1000
0001
,
1000
0001
0100
0010
1000
0001
1000
0010
1000
0001
0100
0001
1000
0010
0100
0001
,
1000
0010
0100
0001
1000
0010
1000
0001
0100
0001
1000
0100
1000
0001
0010
0100
,
1000
0001
0010
0100
1000
0000
0100
0000
0010
0000
0001
0000
0000
0000
0000
0000
,
1000
0100
0010
0001
0000
0000
1000
0100
,
0010
0001
0000
0000
1000
0100
1000
0100
,
1000
0000
0100
0000
1000
0000
0100
0000
1000
0000
0100
0000
1000
0001
1000
0001
,
1000
0MM0
0000
0000
0000
0000
0000
0000
;

//---------------dance-single - Mad Matt----------------
#NOTES:
     dance-single:
     Mad Matt:
     Challenge:
     20:
     1.000,1.000,0.071,0.126,1.000,1388.000,9.000,16.000,2.000,0.000:

0000
0000
0000
0000
,
0001
0001
0100
0001
1000
0100
0010
0001
,
0000
1000
0000
1000
0001
0001
0010
0001
,
1000
0100
0010
0100
0000
1000
0000
0001
,
1000
1000
0010
1000
0001
0010
0100
0010
,
0000
0001
0000
1000
0010
0010
0100
0001
,
0010
0100
1000
0001
0000
0100
0000
0100
,
0020
0130
0001
0010
0100
1000
0010
0100
,
0000
0001
0000
0010
0200
1300
0001
0100
,
0010
1000
0010
0100
0000
0001
0000
0010
,
0200
1300
0010
0100
0001
0100
0010
1000
,
0000
0000
0010
0000
0000
0000
1000
0000
0100
0000
1000
0100
0010
0000
0001
0000
,
1000
0001
1000
0000
0010
0000
0100
0000
0000
0000
0001
0100
0001
0000
1000
0000
,
0100
0010
0001
0100
0010
1000
0100
0010
,
0001
1000
0001
1000
0010
0100
0001
0010
,
0100
1000
0010
0100
0001
1000
0100
1000
,
0010
0100
0001
1000
0100
0010
0001
0100
,
0010
1000
0001
0010
0100
1000
0001
0100
,
0010
0000
1000
0000
0100
0000
0010
0000
0001
0000
1000
0000
0010
0000
1000
0001
,
1000
0001
0100
0001
0010
0100
1000
0010
,
0100
0001
1000
0100
1000
0001
0100
0010
,
1000
0100
0010
0100
1000
0001
0100
0010
,
1000
0001
0010
0001
1000
0100
1000
0001
,
0100
0010
1000
0100
0010
0001
0100
0010
,
1000
0000
0010
0000
0100
0000
0001
1000
0001
0000
1000
0000
0100
0000
0010
0001
,
1000
0100
1000
0100
0010
0001
0010
0001
,
0000
0000
0010
0001
0010
0001
0000
0000
,
0010
0001
0010
0001
0000
0011
0000
1001
,
0000
1010
0000
0110
0000
0101
0000
1001
,
0000
0000
0000
1100
0000
0000
0000
0000
0101
0000
0000
0000
0000
0000
0000
2002
0000
0000
0000
0000
0000
0000
0000
0000
,
3003
0000
0000
0000
1000
0001
1000
0001
1000
0000
0000
0000
0000
0000
0001
0000
,
1000
0100
0010
0100
1000
0001
0100
0000
,
0100
0010
1000
0100
0010
0001
1000
0010
,
0100
0001
0100
0001
0100
0000
0000
0000
0000
0000
0100
0000
0010
0000
1000
0000
,
0100
0010
0001
1000
0010
0000
0100
0001
,
0010
0100
0010
0001
1000
0010
0100
0001
,
1000
0000
0100
0010
0001
1000
0010
0100
,
0001
0010
0100
0000
1000
0010
0100
0001
,
0010
0100
1000
0010
0100
0001
1000
0001
,
0010
0000
0100
0000
1000
0100
1000
0001
1000
0100
1000
0001
1000
0000
0100
0000
,
0010
0000
0001
0000
1000
0000
0010
0000
0100
0001
0100
0001
1000
0000
0100
0000
,
0010
0001
1000
0010
0100
0001
0010
0100
,
1000
0000
0010
0000
0100
0001
0100
0010
0100
0001
0100
0010
0100
0000
0001
0000
,
1000
0000
0001
0000
0010
0000
0100
0000
1000
0000
0010
0000
1000
0010
1000
0001
,
1000
0010
1000
0001
1000
0000
0010
0000
0100
0000
0001
0000
0010
0000
0100
0000
,
1000
0001
0000
0000
0010
0100
1000
0001
,
0000
0000
0000
0000
0010
0100
1000
0001
0010
0100
1000
0001
0100
0010
0100
0001
,
1000
0010
0100
0010
1000
0100
0010
0001
0100
0010
1000
0001
0100
0010
0100
0001
,
1000
0010
0100
0010
1000
0100
0010
0001
0100
0010
1000
0001
0010
0100
0010
0001
,
1000
0100
0010
0100
1000
0010
0100
0001
0010
0100
1000
0001
0010
0100
0010
0001
,
1000
0100
0010
0100
1000
0010
0100
0001
0010
0100
1000
0001
0100
0001
1000
0010
,
1000
0001
1000
0100
0010
0001
0100
0010
1000
0100
1000
0001
0100
0001
1000
0010
,
1000
0001
1000
0100
0010
0001
0100
0010
1000
0100
1000
0001
0010
0001
1000
0100
,
1000
0001
1000
0010
0100
0001
0010
0100
1000
0010
1000
0001
0010
0001
1000
0100
,
1000
0001
1000
0010
0100
0001
0010
0100
1000
0010
1000
0001
0100
0010
1000
0010
,
0100
0001
1000
0001
0010
0100
1000
0010
0100
0001
1000
0001
0100
0010
1000
0010
,
0100
0001
1000
0001
0010
0100
1000
0010
0100
0001
1000
0001
0010
0100
1000
0100
,
0010
0001
1000
0001
0100
0010
1000
0100
0010
0001
1000
0001
0010
0100
1000
0100
,
0010
0001
1000
0001
0100
0010
1000
0100
0010
0001
1000
0010
0100
0001
1000
0100
,
1000
0001
0100
0010
0100
0001
0010
0100
1000
0010
1000
0001
0100
0001
1000
0100
,
1000
0001
0100
0010
0100
0001
0010
0100
1000
0010
1000
0001
0010
0001
1000
0100
,
1000
0001
1000
0010
0100
0001
0010
0100
1000
0010
1000
0001
0010
0001
1000
0100
,
1000
0001
1000
0010
0100
0001
0010
0100
1000
0010
1000
0001
0010
0100
0010
0001
,
1000
0100
0010
0100
1000
0010
0100
0001
0010
0100
1000
0001
0010
0100
0010
0001
,
1000
0100
0010
0100
1000
0010
0100
0001
0010
0100
1000
0001
0100
0010
0100
0001
,
1000
0010
0100
0010
1000
0100
0010
0001
0100
0010
1000
0001
0100
0010
0100
0001
,
1000
0010
0100
0010
1000
0100
0010
0001
0100
0010
1000
0001
0010
0001
1000
0100
,
1000
0001
1000
0010
0100
0001
0010
0100
1000
0010
1000
0001
0010
0001
1000
0100
,
1000
0001
1000
0010
0100
0001
0010
0100
1000
0010
1000
0001
0100
0001
1000
0010
,
1000
0001
1000
0100
0010
0001
0100
0010
1000
0100
1000
0001
0100
0001
1000
0010
,
1000
0001
1000
0100
0010
0001
0100
0010
1000
0100
1000
0001
0010
0100
1000
0100
,
0010
0001
1000
0001
0100
0010
1000
0100
0010
0001
1000
0001
0010
0100
1000
0100
,
0010
0001
1000
0001
0100
0010
1000
0100
0010
0001
1000
0001
0100
0010
1000
0010
,
0100
0001
1000
0001
0010
0100
1000
0010
0100
0001
1000
0001
0100
0010
1000
0010
,
0100
0001
1000
0001
0010
0100
1000
0010
0100
0001
1000
0100
0010
0001
1000
0010
,
1000
0001
0010
0100
0010
0001
0100
0010
1000
0100
1000
0001
0010
0001
1000
0010
,
1000
0001
0010
0100
0010
0001
0100
0010
1000
0100
1000
0001
0100
0001
1000
0010
,
1000
0001
1000
0100
0010
0001
0100
0010
1000
0100
1000
0001
0100
0001
1000
0010
,
1000
0001
1000
0100
0010
0001
0100
0010
1000
0100
1000
0001
2000
0000
0000
0000
,
0000
0000
0000
0000
,
0000
0000
0000
3000
0001
0100
0000
0010
,
0000
0000
0000
1000
0000
0000
0000
0000
0000
0000
0000
0100
0000
0000
0000
0000
0000
0000
0000
0000
0010
0000
0000
0000
,
0000
0000
0000
0000
0001
0000
0000
0000
0000
0100
0000
0000
0010
0000
0000
0000
0000
0000
1000
0000
0000
0000
0000
0000
,
0001
0000
0000
0000
0000
1000
0000
0000
0000
0000
0000
0000
1000
0001
0010
0100
,
0010
0000
0000
0001
0000
0000
1000
0000
0000
0001
0000
0000
0100
0000
0000
0010
0000
0000
0100
0000
0000
0001
0000
0000
1000
0000
0000
0001
0000
0000
0010
0000
0000
0100
0000
0000
1000
0000
0000
0000
0001
0000
0000
0000
1000
0000
0000
0000
,
0000
0002
0000
0000
0000
0000
0000
0000
,
0000
0000
0000
0000
0000
0003
1000
0100
,
1000
0000
0000
0001
0000
0000
0000
0100
0000
0000
0000
0000
,
0010
0000
0000
1000
0001
1000
0100
0010
0001
1000
0010
0100
,
0001
0000
1000
0000
0100
0000
1000
0000
0001
0000
0100
0000
0010
0000
1000
0000
0001
0000
1000
0000
0000
0100
0000
0000
,
0010
0001
0000
0000
1000
0100
0010
0001
,
0000
0000
1000
0010
0100
0001
0000
0000
,
1000
0000
0010
0000
0100
0000
0001
0000
0000
0000
0000
0000
0010
0100
1000
0001
,
0010
0100
1000
0001
0100
0010
0100
0001
1000
0010
0100
0010
1000
0100
0010
0001
,
0100
0010
1000
0001
0100
0010
0100
0001
1000
0010
0100
0010
1000
0100
0010
0001
,
0100
0010
1000
0001
0010
0100
0010
0001
1000
0100
0010
0100
1000
0010
0100
0001
,
0010
0100
1000
0001
0010
0100
0010
0001
1000
0100
0010
0100
1000
0010
0100
0001
,
0010
0100
1000
0001
0100
0001
1000
0010
1000
0001
1000
0100
0010
0001
0100
0010
,
1000
0100
1000
0001
0100
0001
1000
0010
1000
0001
1000
0100
0010
0001
0100
0010
,
1000
0100
1000
0001
0010
0001
1000
0100
1000
0001
1000
0010
0100
0001
0010
0100
,
1000
0010
1000
0001
0010
0001
1000
0100
1000
0001
1000
0010
0100
0001
0010
0100
,
1000
0010
1000
0001
0100
0010
1000
0010
0100
0001
1000
0001
0010
0100
1000
0010
,
0100
0001
1000
0001
0100
0010
1000
0010
0100
0001
1000
0001
0010
0100
1000
0010
,
0100
0001
1000
0001
0010
0100
1000
0100
0010
0001
1000
0001
0100
0010
1000
0100
,
0010
0001
1000
0001
0010
0100
1000
0100
0010
0001
1000
0001
0100
0010
1000
0100
,
0010
0001
1000
0010
0100
0001
1000
0100
1000
0001
0100
0010
0100
0001
0010
0100
,
1000
0010
1000
0001
0100
0001
1000
0100
1000
0001
0100
0010
0100
0001
0010
0100
,
1000
0010
1000
0001
0010
0001
1000
0100
1000
0001
1000
0010
0100
0001
0010
0100
,
1000
0010
1000
0001
0010
0001
1000
0100
1000
0001
1000
0010
0100
0001
0010
0100
,
1000
0010
1000
0001
2000
0000
0000
0000
0000
0000
3002
0000
0000
0000
0000
0000
,
0203
0302
0000
0023
,
0000
0000
0230
0000
0000
2300
0000
0000
,
3002
0000
0000
0000
0203
0000
0000
0000
0000
0000
0301
0000
0010
0100
0010
0001
,
1000
0100
0010
0100
1000
0010
0100
0001
0010
0100
1000
0001
0010
0100
0010
0001
,
1000
0100
0010
0100
1000
0010
0100
0001
0010
0100
1000
0001
0100
0010
0100
0001
,
1000
0010
0100
0010
1000
0100
0010
0001
0100
0010
1000
0001
0100
0010
0100
0001
,
1000
0010
0100
0010
1000
0100
0010
0001
0100
0010
1000
0001
0010
0001
1000
0100
,
1000
0001
1000
0010
0100
0001
0010
0100
1000
0010
1000
0001
0010
0001
1000
0100
,
0010
0001
1000
0010
0100
0001
1000
0100
0010
0001
1000
0010
0100
0001
1000
0100
,
1000
0001
1000
0010
0100
0001
0010
0100
1000
0010
1000
0001
0100
0001
1000
0010
,
1000
0001
1000
0100
0010
0001
0100
0010
1000
0100
1000
0001
0100
0001
1000
0010
,
1000
0001
1000
0100
0010
0001
0100
0010
1000
0100
1000
0001
0010
0100
1000
0100
,
0010
0001
1000
0001
0010
0000
0100
0000
1000
0000
0001
0000
0000
0000
0000
0000
,
0010
0100
1000
0001
0000
0000
0010
0100
,
1000
0001
0000
0000
1000
0100
1000
0100
,
1000
0000
0100
0000
1000
0000
0100
0000
1000
0000
0100
0000
1000
0001
1000
0001
,
1000
0MM0
0000
0000
0000
0000
0000
0000
;

//---------------dance-single - Mad Matt----------------
#NOTES:
     dance-single:
     Mad Matt:
     Medium:
     19:
     1.000,1.000,0.071,0.126,1.000,1388.000,9.000,16.000,2.000,0.000:

0000
0000
0000
0000
,
0001
0001
0100
0001
1000
0100
0010
0001
,
0000
1000
0000
1000
0001
0001
0010
0001
,
1000
0100
0010
0100
0000
1000
0000
0001
,
1000
1000
0010
1000
0001
0010
0100
0010
,
0000
0001
0000
1000
0010
0010
0100
0001
,
0010
0100
1000
0001
0000
0100
0000
0100
,
0020
0130
0001
0010
0100
1000
0010
0100
,
0000
0001
0000
0010
0200
1300
0001
0100
,
0010
1000
0010
0100
0000
0001
0000
0010
,
0200
1300
0010
0100
0001
0100
0010
1000
,
0000
0000
0010
0000
0000
0000
1000
0000
0100
0000
1000
0100
0010
0000
0001
0000
,
1000
0001
1000
0000
0010
0000
0100
0000
0000
0000
0001
0100
0001
0000
1000
0000
,
0100
0010
0001
0100
0010
1000
0100
0010
,
0001
1000
0001
1000
0010
0100
0001
0010
,
0100
1000
0010
0100
0001
1000
0100
1000
,
0010
0100
0001
1000
0100
0010
0001
0100
,
0010
1000
0001
0010
0100
1000
0001
0100
,
0010
0000
1000
0000
0100
0000
0010
0000
0001
0000
1000
0000
0010
0000
1000
0001
,
1000
0001
0100
0001
0010
0100
1000
0010
,
0100
0001
1000
0100
1000
0001
0100
0010
,
1000
0100
0010
0100
1000
0001
0100
0010
,
1000
0001
0010
0001
1000
0100
1000
0001
,
0100
0010
1000
0100
0010
0001
0100
0010
,
1000
0000
0010
0000
0100
0000
0001
1000
0001
0000
1000
0000
0100
0000
0010
0001
,
1000
0100
1000
0100
0010
0001
0010
0001
,
0000
0000
0010
0001
0010
0001
0000
0000
,
0010
0001
0010
0001
0000
0011
0000
1001
,
0000
1010
0000
0110
0000
0101
0000
1001
,
0000
0000
0000
1100
0000
0000
0000
0000
0101
0000
0000
0000
0000
0000
0000
2002
0000
0000
0000
0000
0000
0000
0000
0000
,
3003
0000
0000
0000
1000
0001
1000
0001
1000
0000
0000
0000
0000
0000
0001
0000
,
1000
0100
0010
0100
1000
0001
0100
0000
,
0100
0010
1000
0100
0010
0001
1000
0010
,
0100
0001
0100
0001
0100
0000
0000
0000
0000
0000
0100
0000
0010
0000
1000
0000
,
0100
0010
0001
1000
0010
0000
0100
0001
,
0010
0100
0010
0001
1000
0010
0100
0001
,
1000
0000
0100
0010
0001
1000
0010
0100
,
0001
0010
0100
0000
1000
0010
0100
0001
,
0010
0100
1000
0010
0100
0001
1000
0001
,
0010
0000
0100
0000
1000
0100
1000
0001
1000
0100
1000
0001
1000
0000
0100
0000
,
0010
0000
0001
0000
1000
0000
0010
0000
0100
0001
0100
0001
1000
0000
0100
0000
,
0010
0001
1000
0010
0100
0001
0010
0100
,
1000
0000
0010
0000
0100
0001
0100
0010
0100
0001
0100
0010
0100
0000
0001
0000
,
1000
0000
0001
0000
0010
0000
0100
0000
1000
0000
0010
0000
1000
0010
1000
0001
,
1000
0010
1000
0001
1000
0000
0010
0000
0100
0000
0001
0000
0010
0000
0100
0000
,
1000
0001
0000
0000
0010
0100
1000
0001
,
0000
0000
0000
0000
0010
0100
1000
0001
0010
0100
1000
0001
1000
0010
0100
0010
,
1000
0001
0100
0001
1000
0010
1000
0100
1000
0001
0100
0001
1000
0010
0100
0010
,
1000
0001
0100
0001
1000
0010
1000
0100
1000
0001
0100
0001
1000
0100
0010
0100
,
1000
0001
0010
0001
1000
0100
1000
0010
1000
0001
0010
0001
1000
0100
0010
0100
,
1000
0001
0010
0001
1000
0100
1000
0001
0100
0001
1000
0010
1000
0001
0010
0100
,
0010
0001
1000
0100
1000
0001
0010
0001
0100
0001
1000
0100
1000
0001
0010
0100
,
0010
0001
1000
0100
1000
0001
0010
0001
0100
0001
1000
0100
1000
0001
0100
0010
,
0100
0001
1000
0010
1000
0001
0100
0001
0010
0001
1000
0010
1000
0001
0100
0010
,
0100
0001
1000
0010
1000
0100
1000
0001
0010
0100
1000
0001
1000
0010
0100
0010
,
1000
0001
0100
0001
1000
0010
1000
0100
1000
0001
0100
0001
1000
0010
0100
0010
,
1000
0001
0100
0001
1000
0010
1000
0100
1000
0001
0100
0001
1000
0100
0010
0100
,
1000
0001
0010
0001
1000
0100
1000
0010
1000
0001
0010
0001
1000
0100
0010
0100
,
1000
0001
0010
0001
1000
0100
1000
0001
0100
0001
1000
0010
1000
0001
0010
0100
,
0010
0001
1000
0100
1000
0001
0010
0001
0100
0001
1000
0100
1000
0001
0010
0100
,
0010
0001
1000
0100
1000
0001
0010
0001
0100
0001
1000
0100
1000
0001
0100
0010
,
0100
0001
1000
0010
1000
0001
0100
0001
0010
0001
1000
0010
1000
0001
0100
0010
,
0100
0001
1000
0010
1000
0100
1000
0001
0010
0100
1000
0001
1000
0010
0100
0010
,
1000
0001
0100
0001
1000
0010
1000
0100
1000
0001
0100
0001
1000
0010
0100
0010
,
1000
0001
0100
0001
1000
0010
1000
0100
1000
0001
0100
0001
1000
0100
0010
0100
,
1000
0001
0010
0001
1000
0100
1000
0010
1000
0001
0010
0001
1000
0100
0010
0100
,
1000
0001
0010
0001
1000
0100
1000
0001
0100
0001
1000
0010
1000
0001
0010
0100
,
0010
0001
1000
0100
1000
0001
0010
0001
0100
0001
1000
0100
1000
0001
0010
0100
,
0010
0001
1000
0100
1000
0001
0010
0001
0100
0001
1000
0100
1000
0001
0100
0010
,
0100
0001
1000
0010
1000
0001
0100
0001
0010
0001
1000
0010
1000
0001
0100
0010
,
0100
0001
1000
0010
1000
0100
1000
0001
0010
0100
1000
0001
1000
0010
0100
0010
,
1000
0001
0100
0001
1000
0010
1000
0100
1000
0001
0100
0001
1000
0010
0100
0010
,
1000
0001
0100
0001
1000
0010
1000
0100
1000
0001
0100
0001
1000
0100
0010
0100
,
1000
0001
0010
0001
1000
0100
1000
0010
1000
0001
0010
0001
1000
0100
0010
0100
,
1000
0001
0010
0001
1000
0100
1000
0001
0100
0001
1000
0010
1000
0001
0010
0100
,
0010
0001
1000
0100
1000
0001
0010
0001
0100
0001
1000
0100
1000
0001
0010
0100
,
0010
0001
1000
0100
1000
0001
0010
0001
0100
0001
1000
0100
1000
0001
0100
0010
,
0100
0001
1000
0010
1000
0001
0100
0001
0010
0001
1000
0010
1000
0001
0100
0010
,
0100
0001
1000
0010
1000
0100
1000
0001
0010
0100
1000
0001
2000
0000
0000
0000
,
0000
0000
0000
0000
,
0000
0000
0000
3000
0001
0100
0000
0010
,
0000
0000
0000
1000
0000
0000
0000
0000
0000
0000
0000
0100
0000
0000
0000
0000
0000
0000
0000
0000
0010
0000
0000
0000
,
0000
0000
0000
0000
0001
0000
0000
0000
0000
0100
0000
0000
0010
0000
0000
0000
0000
0000
1000
0000
0000
0000
0000
0000
,
0001
0000
0000
0000
0000
1000
0000
0000
0000
0000
0000
0000
1000
0010
0100
0010
,
1000
0000
0000
0001
0000
0000
1000
0000
0000
0100
0000
0000
0010
0000
0000
0100
0000
0000
1000
0000
0000
0001
0000
0000
1000
0000
0000
0010
0000
0000
0100
0000
0000
0010
0000
0000
1000
0000
0000
0000
0001
0000
0000
0000
1000
0000
0000
0000
,
0000
0002
0000
0000
0000
0000
0000
0000
,
0000
0000
0000
0000
0000
0003
1000
0100
,
1000
0000
0000
0001
0000
0000
0000
0100
0000
0000
0000
0000
,
0010
0000
0000
1000
0001
1000
0100
0010
0001
1000
0010
0100
,
0001
0000
1000
0000
0100
0000
1000
0000
0001
0000
0100
0000
0010
0000
1000
0000
0001
0000
0010
0000
0000
0100
0000
0000
,
1000
0001
0000
0000
0010
0100
1000
0001
,
0000
0000
0100
0010
1000
0001
0000
0000
,
0100
0000
0010
0000
1000
0000
0001
0000
0000
0000
0000
0000
0100
0010
1000
0001
,
0100
0010
1000
0001
1000
0100
0010
0100
1000
0001
0010
0001
1000
0100
1000
0010
,
1000
0001
0010
0001
1000
0100
0010
0100
1000
0001
0010
0001
1000
0100
1000
0010
,
1000
0001
0010
0001
1000
0010
0100
0010
1000
0001
0100
0001
1000
0010
1000
0100
,
1000
0001
0100
0001
1000
0010
0100
0010
1000
0001
0100
0001
1000
0010
1000
0001
,
0010
0001
1000
0100
1000
0001
0100
0010
0100
0001
1000
0010
1000
0001
0100
0001
,
0010
0001
1000
0010
1000
0001
0100
0010
0100
0001
1000
0010
1000
0001
0100
0001
,
0010
0001
1000
0010
1000
0001
0010
0100
0010
0001
1000
0100
1000
0001
0010
0001
,
0100
0001
1000
0100
1000
0001
0010
0100
0010
0001
1000
0100
1000
0010
1000
0001
,
0100
0010
1000
0001
1000
0100
0010
0100
1000
0001
0010
0001
1000
0100
1000
0010
,
1000
0001
0010
0001
1000
0100
0010
0100
1000
0001
0010
0001
1000
0100
1000
0010
,
1000
0001
0010
0001
1000
0010
0100
0010
1000
0001
0100
0001
1000
0010
1000
0100
,
1000
0001
0100
0001
1000
0010
0100
0010
1000
0001
0100
0001
1000
0010
1000
0001
,
0010
0001
1000
0100
1000
0001
0100
0010
0100
0001
1000
0010
1000
0001
0100
0001
,
0010
0001
1000
0010
1000
0001
0100
0010
0100
0001
1000
0010
1000
0001
0100
0001
,
0010
0001
1000
0010
1000
0001
0010
0100
0010
0001
1000
0100
1000
0001
0010
0001
,
0100
0001
1000
0100
1000
0001
0010
0100
0010
0001
1000
0100
1000
0010
1000
0001
,
0100
0010
1000
0001
2000
0000
0000
0000
0000
0000
3002
0000
0000
0000
0000
0000
,
0203
0302
0000
0023
,
0000
0000
0230
0000
0000
2300
0000
0000
,
3002
0000
0000
0000
0203
0000
0000
0000
0000
0000
0310
0000
1000
0100
0010
0100
,
1000
0001
0100
0001
1000
0010
1000
0100
1000
0001
0100
0001
1000
0010
0100
0010
,
1000
0001
0010
0001
1000
0100
1000
0010
1000
0001
0010
0001
1000
0100
0010
0100
,
1000
0001
0100
0001
1000
0010
1000
0100
1000
0001
0100
0001
1000
0010
0100
0010
,
1000
0001
0010
0001
1000
0100
1000
0001
0100
0001
1000
0010
1000
0001
0010
0100
,
0010
0001
1000
0010
1000
0001
0100
0001
0010
0001
1000
0010
1000
0001
0100
0010
,
1000
0001
1000
0100
0010
0001
1000
0001
0100
0010
1000
0001
1000
0100
0010
0001
,
1000
0001
0100
0010
1000
0001
1000
0100
0010
0001
1000
0100
1000
0001
0010
0001
,
0100
0001
1000
0100
1000
0001
0010
0100
0010
0001
1000
0010
1000
0001
0100
0001
,
0010
0001
1000
0010
1000
0001
0100
0010
0100
0001
1000
0100
1000
0001
0010
0001
,
1000
0100
0010
0001
1000
0000
0100
0000
0010
0000
0001
0000
0000
0000
0000
0000
,
1000
0100
0010
0001
0000
0000
1000
0100
,
0010
0001
0000
0000
1000
0100
1000
0100
,
1000
0000
0100
0000
1000
0000
0100
0000
1000
0000
0100
0000
1000
0001
1000
0001
,
1000
0MM0
0000
0000
0000
0000
0000
0000
;

//---------------dance-single - Mad Matt----------------
#NOTES:
     dance-single:
     Mad Matt:
     Hard:
     19:
     1.000,1.000,0.071,0.126,1.000,1388.000,9.000,16.000,2.000,0.000:

0000
0000
0000
0000
,
0001
0001
0100
0001
1000
0100
0010
0001
,
0000
1000
0000
1000
0001
0001
0010
0001
,
1000
0100
0010
0100
0000
1000
0000
0001
,
1000
1000
0010
1000
0001
0010
0100
0010
,
0000
0001
0000
1000
0010
0010
0100
0001
,
0010
0100
1000
0001
0000
0100
0000
0100
,
0020
0130
0001
0010
0100
1000
0010
0100
,
0000
0001
0000
0010
0200
1300
0001
0100
,
0010
1000
0010
0100
0000
0001
0000
0010
,
0200
1300
0010
0100
0001
0100
0010
1000
,
0000
0000
0010
0000
0000
0000
1000
0000
0100
0000
1000
0100
0010
0000
0001
0000
,
1000
0001
1000
0000
0010
0000
0100
0000
0000
0000
0001
0100
0001
0000
1000
0000
,
0100
0010
0001
0100
0010
1000
0100
0010
,
0001
1000
0001
1000
0010
0100
0001
0010
,
0100
1000
0010
0100
0001
1000
0100
1000
,
0010
0100
0001
1000
0100
0010
0001
0100
,
0010
1000
0001
0010
0100
1000
0001
0100
,
0010
0000
1000
0000
0100
0000
0010
0000
0001
0000
1000
0000
0010
0000
1000
0001
,
1000
0001
0100
0001
0010
0100
1000
0010
,
0100
0001
1000
0100
1000
0001
0100
0010
,
1000
0100
0010
0100
1000
0001
0100
0010
,
1000
0001
0010
0001
1000
0100
1000
0001
,
0100
0010
1000
0100
0010
0001
0100
0010
,
1000
0000
0010
0000
0100
0000
0001
1000
0001
0000
1000
0000
0100
0000
0010
0001
,
1000
0100
1000
0100
0010
0001
0010
0001
,
0000
0000
0010
0001
0010
0001
0000
0000
,
0010
0001
0010
0001
0000
0011
0000
1001
,
0000
1010
0000
0110
0000
0101
0000
1001
,
0000
0000
0000
1100
0000
0000
0000
0000
0101
0000
0000
0000
0000
0000
0000
2002
0000
0000
0000
0000
0000
0000
0000
0000
,
3003
0000
0000
0000
1000
0001
1000
0001
1000
0000
0000
0000
0000
0000
0001
0000
,
1000
0100
0010
0100
1000
0001
0100
0000
,
0100
0010
1000
0100
0010
0001
1000
0010
,
0100
0001
0100
0001
0100
0000
0000
0000
0000
0000
0100
0000
0010
0000
1000
0000
,
0100
0010
0001
1000
0010
0000
0100
0001
,
0010
0100
0010
0001
1000
0010
0100
0001
,
1000
0000
0100
0010
0001
1000
0010
0100
,
0001
0010
0100
0000
1000
0010
0100
0001
,
0010
0100
1000
0010
0100
0001
1000
0001
,
0010
0000
0100
0000
1000
0100
1000
0001
1000
0100
1000
0001
1000
0000
0100
0000
,
0010
0000
0001
0000
1000
0000
0010
0000
0100
0001
0100
0001
1000
0000
0100
0000
,
0010
0001
1000
0010
0100
0001
0010
0100
,
1000
0000
0010
0000
0100
0001
0100
0010
0100
0001
0100
0010
0100
0000
0001
0000
,
1000
0000
0001
0000
0010
0000
0100
0000
1000
0000
0010
0000
1000
0010
1000
0001
,
1000
0010
1000
0001
1000
0000
0010
0000
0100
0000
0001
0000
0010
0000
0100
0000
,
1000
0001
0000
0000
0010
0100
1000
0001
,
0000
0000
0000
0000
0010
0100
1000
0001
0010
0100
1000
0001
1000
0010
0100
0001
,
0100
0010
1000
0001
1000
0100
1000
0001
0100
0010
1000
0010
0100
0001
1000
0001
,
0010
0001
1000
0100
0010
0001
0010
0100
1000
0001
0100
0001
1000
0010
0100
0001
,
0100
0010
1000
0001
1000
0100
1000
0001
0100
0010
1000
0010
0100
0001
1000
0001
,
0010
0001
1000
0100
0010
0001
0010
0100
1000
0001
0100
0001
1000
0001
0010
0100
,
1000
0100
0010
0001
1000
0001
0100
0001
1000
0100
0010
0001
0010
0100
1000
0001
,
1000
0010
1000
0001
0100
0010
1000
0010
0100
0001
1000
0100
1000
0001
0010
0100
,
1000
0100
0010
0001
1000
0001
0100
0001
1000
0100
0010
0001
0010
0100
1000
0001
,
1000
0010
1000
0001
0100
0010
1000
0010
0100
0001
1000
0001
0100
0010
1000
0010
,
0100
0001
1000
0001
0010
0001
1000
0010
0100
0001
0100
0010
1000
0001
1000
0100
,
1000
0001
0010
0100
1000
0100
0010
0001
1000
0010
1000
0001
0100
0010
1000
0010
,
0100
0001
1000
0001
0010
0001
1000
0010
0100
0001
0100
0010
1000
0001
1000
0100
,
1000
0001
0010
0100
1000
0100
0010
0001
1000
0010
1000
0001
1000
0100
0010
0001
,
0010
0100
1000
0001
1000
0010
1000
0001
0010
0100
1000
0100
0010
0001
1000
0001
,
0100
0001
1000
0010
0100
0001
0100
0010
1000
0001
0010
0001
1000
0100
0010
0001
,
0010
0100
1000
0001
1000
0010
1000
0001
0010
0100
1000
0100
0010
0001
1000
0001
,
0100
0001
1000
0010
0100
0001
0100
0010
1000
0001
0100
0001
1000
0100
0010
0001
,
0010
0100
1000
0001
1000
0010
1000
0001
0010
0100
1000
0100
0010
0001
1000
0001
,
0100
0001
1000
0010
0100
0001
0100
0010
1000
0001
0010
0001
1000
0100
0010
0001
,
0010
0100
1000
0001
1000
0010
1000
0001
0010
0100
1000
0100
0010
0001
1000
0001
,
0100
0001
1000
0010
0100
0001
0100
0010
1000
0001
0010
0001
1000
0001
0100
0010
,
1000
0010
0100
0001
1000
0001
0010
0001
1000
0010
0100
0001
0100
0010
1000
0001
,
1000
0100
1000
0001
0010
0100
1000
0100
0010
0001
1000
0010
1000
0001
0100
0010
,
1000
0010
0100
0001
1000
0001
0010
0001
1000
0010
0100
0001
0100
0010
1000
0001
,
1000
0100
1000
0001
0010
0100
1000
0100
0010
0001
1000
0001
0010
0100
1000
0100
,
0010
0001
1000
0001
0100
0001
1000
0100
0010
0001
0010
0100
1000
0001
1000
0010
,
1000
0001
0100
0010
1000
0010
0100
0001
1000
0100
1000
0001
0010
0100
1000
0100
,
0010
0001
1000
0001
0100
0001
1000
0100
0010
0001
0010
0100
1000
0001
1000
0010
,
1000
0001
0100
0010
1000
0010
0100
0001
1000
0100
1000
0001
1000
0010
0100
0001
,
0100
0010
1000
0001
1000
0100
1000
0001
0100
0010
1000
0010
0100
0001
1000
0001
,
0010
0001
1000
0100
0010
0001
0010
0100
1000
0001
0100
0001
1000
0010
0100
0001
,
0100
0010
1000
0001
1000
0100
1000
0001
0100
0010
1000
0010
0100
0001
1000
0001
,
0010
0001
1000
0100
0010
0001
0010
0100
1000
0001
0010
0100
2000
0000
0000
0000
,
0000
0000
0000
0000
,
0000
0000
0000
3000
0001
0100
0000
0010
,
0000
0000
0000
1000
0000
0000
0000
0000
0000
0000
0000
0100
0000
0000
0000
0000
0000
0000
0000
0000
0010
0000
0000
0000
,
0000
0000
0000
0000
0001
0000
0000
0000
0000
0100
0000
0000
0010
0000
0000
0000
0000
0000
1000
0000
0000
0000
0000
0000
,
0001
0000
0000
0000
0000
1000
0000
0000
0000
0000
0000
0000
1000
0001
0010
0100
,
0010
0000
0000
0001
0000
0000
1000
0000
0000
0001
0000
0000
0100
0000
0000
0010
0000
0000
0100
0000
0000
0001
0000
0000
1000
0000
0000
0001
0000
0000
0010
0000
0000
0100
0000
0000
1000
0000
0000
0000
0001
0000
0000
0000
1000
0000
0000
0000
,
0000
0002
0000
0000
0000
0000
0000
0000
,
0000
0000
0000
0000
0000
0003
1000
0100
,
1000
0000
0000
0001
0000
0000
0000
0100
0000
0000
0000
0000
,
0010
0000
0000
1000
0001
1000
0100
0010
0001
1000
0010
0100
,
0001
0000
1000
0000
0100
0000
1000
0000
0001
0000
0100
0000
0010
0000
1000
0000
0001
0000
1000
0000
0000
0100
0000
0000
,
0010
0001
0000
0000
1000
0100
0010
0001
,
0000
0000
1000
0010
0100
0001
0000
0000
,
1000
0000
0010
0000
0100
0000
0001
0000
0000
0000
0000
0000
1000
0010
0100
0001
,
1000
0010
0100
0001
1000
0100
0010
0001
0010
0100
1000
0001
1000
0010
1000
0001
,
0010
0100
1000
0100
0010
0001
1000
0001
0100
0001
1000
0010
0100
0001
0100
0010
,
1000
0001
0010
0001
1000
0100
0010
0001
0010
0100
1000
0001
1000
0010
1000
0001
,
0010
0100
1000
0100
0010
0001
1000
0001
0100
0001
1000
0010
0100
0001
0100
0010
,
1000
0001
0010
0001
1000
0001
0100
0010
1000
0010
0100
0001
1000
0001
0010
0001
,
1000
0010
0100
0001
0100
0010
1000
0001
1000
0100
1000
0001
0010
0100
1000
0100
,
0010
0001
1000
0010
1000
0001
0100
0010
1000
0010
0100
0001
1000
0001
0010
0001
,
1000
0010
0100
0001
0100
0010
1000
0001
1000
0100
1000
0001
0010
0100
1000
0100
,
0010
0001
1000
0001
0010
0100
1000
0100
0010
0001
1000
0001
0100
0001
1000
0100
,
0010
0001
0010
0100
1000
0001
1000
0010
1000
0001
0100
0010
1000
0010
0100
0001
,
1000
0100
1000
0001
0010
0100
1000
0100
0010
0001
1000
0001
0100
0001
1000
0100
,
0010
0001
0010
0100
1000
0001
1000
0010
1000
0001
0100
0010
1000
0010
0100
0001
,
1000
0100
1000
0001
1000
0010
0100
0001
0100
0010
1000
0001
1000
0100
1000
0001
,
0100
0010
1000
0010
0100
0001
1000
0001
0010
0001
1000
0100
0010
0001
0010
0100
,
1000
0001
0100
0001
1000
0010
0100
0001
0100
0010
1000
0001
1000
0100
1000
0001
,
0100
0010
1000
0010
0100
0001
1000
0001
0010
0001
1000
0100
0010
0001
0010
0100
,
1000
0001
0010
0100
2000
0000
0000
0000
0000
0000
3002
0000
0000
0000
0000
0000
,
0203
0302
0000
0023
,
0000
0000
0230
0000
0000
2300
0000
0000
,
3002
0000
0000
0000
0203
0000
0000
0000
0000
0000
0310
0000
1000
0010
0100
0001
,
0100
0010
1000
0001
1000
0100
1000
0001
0100
0010
1000
0010
0100
0001
1000
0001
,
0010
0001
1000
0100
0010
0001
0010
0100
1000
0001
0100
0001
1000
0010
0100
0001
,
0100
0010
1000
0001
1000
0100
1000
0001
0100
0010
1000
0010
0100
0001
1000
0001
,
0010
0001
1000
0100
0010
0001
0010
0100
1000
0001
0100
0001
1000
0001
0010
0100
,
1000
0100
0010
0001
1000
0001
0100
0001
1000
0100
0010
0001
0010
0100
1000
0001
,
1000
0010
0100
0001
1000
0001
0010
0100
1000
0001
1000
0010
0100
0001
1000
0001
,
0010
0100
1000
0001
0100
0010
1000
0010
0100
0001
1000
0100
1000
0001
0010
0100
,
1000
0100
0010
0001
1000
0001
0100
0001
1000
0100
0010
0001
0010
0100
1000
0001
,
1000
0010
1000
0001
0100
0010
1000
0010
0100
0001
1000
0001
0100
0010
1000
0010
,
0100
0001
1000
0001
0010
0000
0100
0000
1000
0000
0001
0000
0000
0000
0000
0000
,
0010
0100
1000
0001
0000
0000
0010
0100
,
1000
0001
0000
0000
1000
0100
1000
0100
,
1000
0000
0100
0000
1000
0000
0100
0000
1000
0000
0100
0000
1000
0001
1000
0001
,
1000
0MM0
0000
0000
0000
0000
0000
0000
;
