#TITLE:959BPM;
#SUBTITLE:;
#ARTIST:m1dy;
#TITLETRANSLIT:;
#SUBTITLETRANSLIT:;
#ARTISTTRANSLIT:;
#CREDIT:Aoreo;
#BANNER:959 bpm bn.png;
#BACKGROUND:959 bpm bg.png;
#LYRICSPATH:;
#CDTITLE:;
#MUSIC:959BPM.ogg;
#OFFSET:-0.569;
#SAMPLESTART:56.077;
#SAMPLELENGTH:12.000;
#SELECTABLE:YES;
#BPMS:0.000=239.750;
#STOPS:;
#BGCHANGES:;
// cache tags:
#FIRSTBEAT:64.000;
#LASTBEAT:724.000;
#SONGFILENAME:Songs/Index Tournament 1/959BPM - [Aoreo]/959BPM.sm;
#HASMUSIC:1;
#HASBANNER:1;
#MUSICLENGTH:184.163;
// end cache tags

//---------------dance-single - J. Nero----------------
#NOTES:
     dance-single:
     J. Nero:
     Challenge:
     19:
     1.000,1.000,0.206,0.521,1.000,1829.000,38.000,96.000,16.000,0.000:

0000
0000
0000
0000
,
0000
0000
0000
0000
,
0000
0000
0000
0000
,
0000
0000
0000
0000
,
0000
0000
0000
0000
,
0000
0000
0000
0000
,
0000
0000
0000
0000
,
0000
0000
0000
0000
,
0000
0000
0000
0000
,
0000
0000
0000
0000
,
0000
0000
0000
0000
,
0000
0000
0000
0000
,
0000
0000
0000
0000
,
0000
0000
0000
0000
,
0000
0000
0000
0000
,
0000
0000
0000
0000
,
1001
0001
0000
0010
0400
0000
4300
0000
,
3004
0403
0340
0030
0220
0000
0330
0000
,
1000
0100
1000
0100
1000
0000
0001
0100
0001
0000
0100
0000
0010
1000
0010
0000
,
0100
0001
1000
0001
1000
0000
0001
0000
0010
0000
0100
0000
1000
0000
0001
0000
,
0100
0001
0100
0001
1000
0010
0100
0001
1000
0001
0100
0010
1000
0000
0001
0000
,
0100
0001
0100
0010
1000
0010
0100
0001
0100
0010
1000
0010
0100
0001
1000
0001
,
1000
0010
0100
0010
0100
0000
0001
0100
0001
0000
1000
0000
0010
0100
0010
0000
,
1000
0001
1000
0001
1000
0000
0010
0000
1000
0000
0100
0000
0010
0000
0001
0000
,
1000
0100
0010
0100
0010
0001
1000
0100
1000
0001
0010
0001
1000
0000
0001
0000
,
1000
0100
0010
0001
1000
0001
1000
0100
0010
0100
0010
0001
1000
0100
1000
0001
,
1000
0000
0001
0100
0001
0000
0100
0001
0000
1000
0000
0010
1000
0010
0100
0000
,
0001
0000
0100
0001
0100
0000
0001
1000
0000
0001
0000
1000
0100
1000
0001
1000
,
0001
0000
0100
0001
0100
0000
0001
1000
0000
0100
0000
1000
0100
1000
0001
0000
,
0100
0000
0000
0001
1000
0000
0010
1000
0000
0010
0000
0100
0004
0003
4000
3000
,
1001
0000
1001
0000
,
1001
0000
0000
0000
0000
0000
0000
0000
1001
0000
0001
0000
0400
0300
0010
0000
,
1001
0000
0000
0000
1001
0000
0000
0000
1001
0000
0000
0000
1001
0000
1000
0010
,
0100
0000
0001
0000
0010
0000
0100
0000
1000
0100
1000
0001
0100
0004
4000
0000
,
0000
0000
0000
0000
,
0000
0000
0000
0000
0000
0000
3003
0000
0001
0100
0010
1000
0010
0100
0001
1000
,
0010
0100
0010
1000
0001
0100
0010
1000
0010
0100
0001
1000
0010
0100
0010
1000
,
0001
0010
0100
1000
0100
0010
0001
1000
0010
0100
0010
1000
0001
0010
0100
1000
,
0100
0010
0001
1000
0010
0100
0010
1000
0001
0100
0001
0100
0010
1000
0001
0100
,
0010
1000
0001
1000
0001
0010
0100
1000
0100
1000
0001
0010
0100
1000
0100
1000
,
0001
0010
0100
1000
0001
1000
0001
0010
0001
0010
0100
1000
0001
0010
0100
1000
,
0001
1000
0001
0100
0010
1000
0010
1000
0001
0100
0010
1000
0001
1000
0001
0100
,
0010
1000
0001
1000
0010
0100
0001
1000
0001
0000
0000
1000
0000
0000
0100
0000
,
0000
0010
0000
0000
0004
0000
0000
0000
1003
0010
0100
0001
1000
0001
1000
0100
,
0010
0001
0010
0001
1000
0100
0010
0001
1000
0001
1000
0100
0010
0001
1000
0001
,
0010
0100
1000
0001
0100
0001
1000
0010
0100
0001
0100
0001
1000
0100
0010
0001
,
0010
0100
1000
0100
0010
0100
0010
0001
1000
0100
0010
0001
1000
0100
0010
0100
,
1000
0001
0100
0001
1000
0001
4000
0000
3001
0010
0100
0010
0100
1000
0001
0100
,
0001
1000
0010
0100
0001
1000
0010
0100
0010
1000
0001
0010
0001
1000
0100
1000
,
0001
0100
0001
1000
0100
0010
0100
0010
0001
1000
0100
0010
0001
1000
0100
0010
,
0100
1000
0001
0100
0001
1000
0010
1000
0001
0100
0001
1000
0010
0100
0010
0100
,
0001
1000
0010
1000
0001
0000
0000
0000
1001
0000
1000
0000
0100
0000
0010
0000
,
0001
0001
1000
0010
0100
0100
0001
1000
,
0100
0100
0010
0001
1000
1000
0010
0100
,
0001
0001
0010
0100
1000
1000
0001
0100
,
0010
0010
0100
0001
0010
0010
0100
1000
,
0001
0001
0100
0010
1000
1000
0010
1000
,
0100
0100
0010
0001
1000
1000
0001
0100
,
0010
0010
1000
0100
0010
0010
0001
1000
,
0001
0100
0001
1000
0010
0000
0000
0000
1000
0010
0100
0010
0100
0001
1000
0010
,
0100
0001
1000
0010
0100
0010
1000
0001
0010
0001
1000
0100
1000
0001
0100
0001
,
1000
0010
0100
0010
0100
0001
1000
0010
0100
0001
1000
0100
0010
0001
1000
0001
,
0010
0100
1000
0001
0010
0100
0010
0001
1000
0010
0100
0010
0100
0001
1000
0010
,
0100
0001
1000
0010
0100
0001
0400
0300
0001
1000
0010
0100
0010
0100
0001
1000
,
0010
0100
0001
1000
0010
0100
0010
1000
0001
0100
0001
1000
0100
1000
0001
0010
,
0001
1000
0100
0010
0100
1000
0001
0010
0100
0010
0001
1000
0100
1000
0001
0100
,
0001
1000
0010
0100
0001
1000
0001
1000
0004
0000
0103
0000
0040
0000
1030
0000
,
0200
0000
0300
0000
2000
0000
0000
0000
3001
1000
0001
1000
0100
0010
0100
0010
,
0001
1000
0001
0010
0100
1000
0001
1000
0100
0010
0100
0010
0001
1000
0100
1000
,
0100
1000
0001
0100
0001
0100
0010
1000
0001
1000
0001
0010
0100
1000
0001
1000
,
0100
0010
0001
1000
0001
1000
0100
1000
0004
0000
0000
0000
4003
3000
0040
0030
,
0100
0000
0001
0000
0100
0000
0010
0000
2000
3000
0000
0000
0002
0003
0000
0000
0100
0000
0010
0000
0100
0000
0010
0000
1000
0000
0001
0000
0100
0000
0001
0000
,
1000
0010
0100
0001
1000
0010
1000
0010
0100
0010
0100
0001
1000
0010
0100
0001
,
1000
0010
1000
0001
1000
0100
0010
0001
0010
0001
1000
0001
1000
0100
0010
0100
,
0010
0001
1000
0100
1000
0100
0010
0001
0010
0001
1000
0100
0010
0001
1000
0100
,
0010
0001
1000
0001
1000
0000
0000
0000
0001
0100
0010
0100
0001
1000
0010
0100
,
0001
1000
0010
1000
0010
0100
0001
0100
0010
0100
0001
1000
0100
1000
0001
0010
,
0001
1000
0001
1000
0100
0010
0100
1000
0001
1000
0001
0010
0100
0010
0001
1000
,
0001
1000
0010
0100
0001
0100
0010
1000
0010
0100
0001
1000
0001
0100
0001
1000
,
0010
1000
0010
0100
0001
1000
0100
0010
0100
1000
0001
0010
0001
1000
0100
0010
,
0001
1000
0001
1000
0001
0100
0010
1000
0002
0000
0000
0000
0003
0000
0000
0000
,
1000
0100
1000
0001
0400
0000
0300
0000
0001
1000
0001
1000
0010
0100
0001
1000
,
0010
1000
0001
0100
0010
1000
0001
0100
0010
0100
0001
1000
0001
0010
0100
1000
,
0001
1000
0001
0100
0010
0000
0000
0000
1000
0100
1000
0000
0001
0000
1000
0000
,
0100
0000
0010
0000
0001
0000
1000
0000
0010
0100
0001
0000
0001
0000
1000
0000
,
0010
0000
0010
0000
0100
0001
0010
0000
0010
0100
1000
0000
0001
0000
0010
0000
,
0100
0000
0010
0000
0001
0000
1000
0000
0001
1000
0100
0000
0100
0000
1000
0000
,
0001
0000
0100
0000
0100
0001
1000
0000
1001
0000
0001
0000
0010
0000
0100
0000
,
1000
0000
0001
0000
0100
0000
0010
0000
0100
0001
1000
0000
1000
0000
0001
0000
,
0100
0000
0100
0000
0001
0000
1000
0000
0010
0100
0001
0000
0100
0000
0001
0000
,
0010
0000
0100
0000
1000
0000
0001
0000
1000
0010
0100
0000
0100
0000
0001
0000
,
1000
0000
0000
0000
0000
0000
0000
0000
0001
0100
0010
0000
1000
0000
0100
0000
,
0010
0000
0100
0000
1000
0000
0001
0100
0010
0000
0100
0000
0001
1000
0100
0000
,
1000
0000
0001
0100
0010
0000
1000
0000
0001
0010
0100
0000
1000
0000
0001
0000
,
0010
0000
0001
0000
1000
0000
0100
1000
0001
0000
0100
0000
0010
1000
0100
0000
,
1000
0000
0001
0100
0010
1000
0010
0100
0001
1000
0001
0000
0010
0000
0100
0000
,
1000
0000
0001
0000
1000
0000
0010
0100
0001
0000
1000
0000
0100
0010
0001
0000
,
1000
0000
0100
0010
0001
0000
1000
0000
0001
0100
0010
0000
0100
0000
0001
0000
,
0010
0000
0100
0000
1000
0000
0010
0100
0001
0000
1000
0000
0010
1000
0001
0000
,
0020
0000
0000
0000
0230
0000
0000
0000
1300
0001
0100
0000
0010
0000
0100
0000
,
0001
0000
1000
0000
0001
0000
0010
0100
1000
0000
0010
0000
0100
0001
1000
0000
,
0100
0000
1000
0010
0100
0000
0001
0000
1000
0100
0010
0000
0100
0000
1000
0000
,
0001
0000
0100
0000
0010
0000
1000
0100
0010
0000
0001
0000
0010
0100
0010
0000
,
0100
0000
1000
0100
1000
0001
0100
0001
1000
0010
0100
0000
0001
0000
1000
0000
,
0100
0000
0010
0000
0001
0000
0100
0001
0010
0000
0100
0000
1000
0001
0100
0000
,
0010
0000
1000
0001
0100
0000
0001
0000
0010
0100
1000
0000
0001
0000
0100
0001
,
1000
0000
0010
0000
0100
0010
1000
0000
0001
0100
0001
0100
0040
0000
0000
0000
,
0000
0000
0000
0000
0000
0000
0030
0000
1000
0100
0010
0000
0100
0000
1000
0000
,
0001
0000
0100
0000
0001
0000
1000
0010
0100
0000
0001
0000
1000
0100
1000
0000
,
0001
0000
0010
0100
1000
0000
0001
0000
0100
0001
0010
0000
0100
0000
1000
0000
,
0001
0000
1000
0000
0010
0000
0100
0001
1000
0000
0001
0000
0010
0100
1000
0000
,
0001
0000
0100
0001
0100
0010
1000
0001
0100
0001
1000
0000
0100
0000
0010
0000
,
0100
0000
1000
0000
0001
0000
1000
0100
0010
0000
0001
0000
1000
0100
0010
0000
,
0001
0000
1000
0100
0010
0000
0001
0000
1000
0001
0100
0000
0001
0000
0010
0000
,
0100
0000
0010
0000
0001
0000
1000
0010
0100
0000
0001
0000
0100
0010
1000
0000
,
0001
1000
0004
0003
0101
0000
0100
0001
,
0011
0000
0010
0100
1100
0000
1000
0001
,
0201
0300
0002
0003
0101
0000
0100
0010
,
1010
0000
1000
0001
0101
0000
0200
0300
,
0002
0003
0020
0030
0110
0000
0100
1000
,
1100
0000
0100
1000
1001
0000
0001
0100
,
0201
0300
0002
0003
0011
0000
0010
0100
,
1100
0000
1000
0001
0101
0000
0200
0300
,
0002
0000
0003
0000
2000
0000
3020
0030
1001
0000
1000
0000
0001
0000
0100
0000
,
0010
0010
1000
0001
0010
0010
0100
1000
,
0001
0001
0100
0001
1000
1000
0001
0100
,
0010
0010
1000
0001
0010
0010
0100
1000
,
0001
0001
0010
0100
1000
1000
0001
0100
,
0010
0010
1000
0001
1000
1000
0100
0010
,
0001
0001
0010
0100
1000
1000
0001
0100
,
0010
0010
0100
0001
1000
1000
0100
0010
,
0001
0100
0001
1000
0010
0000
0000
0000
1000
0000
0001
0100
0001
0000
0100
0001
,
0000
1000
0000
0001
0100
0001
0100
0000
0010
0000
1000
0010
1000
0000
0001
1000
,
0000
0001
0000
1000
0100
1000
0001
0100
0001
0000
0010
0100
1000
0000
0001
1000
,
0000
0001
0000
0100
0010
0100
0001
0000
1000
0000
0000
0100
0010
0000
0001
0100
,
0000
0010
0000
1000
0100
1000
0001
0010
0001
0000
0000
0000
0000
0000
0000
0000
,
1001
0000
1001
0000
,
1001
0000
0100
0000
0040
0030
0100
0000
1001
0000
1000
0000
0100
0000
0010
0000
,
0001
0100
0001
0000
1000
0000
0001
0000
0100
0001
0100
0000
0010
1000
0001
0000
,
1000
0100
1000
0001
0400
0000
0000
0300
0001
1000
0001
0100
0001
1000
0010
0100
,
0001
1000
0010
1000
0001
0100
0010
0100
0001
1000
0010
0100
0001
1000
0010
1000
,
0001
0100
0001
1000
0001
0100
0010
1000
0001
1000
0001
0010
0100
1000
0001
0010
,
0100
0010
0100
1000
0001
1000
0100
0010
0001
0010
0001
1000
0100
0010
0001
1000
,
0100
0010
0001
0010
0004
0000
0003
0000
1000
0010
1000
0010
0100
0001
0100
0010
,
1000
0010
0100
0001
1000
0010
0100
0001
1000
0001
0100
0010
1000
0001
0100
0001
,
0100
0010
1000
0001
1000
0010
0100
0010
1000
0001
0010
0100
0010
0100
1000
0001
,
1000
0100
0010
0001
1000
0001
0010
0100
4000
0000
0000
0000
3004
0000
0000
0000
,
0003
0000
4000
3000
0040
0030
0400
0300
0001
1000
0100
0010
0001
0010
0100
1000
,
0001
1000
0001
0010
0100
1000
0100
0010
0001
1000
0100
1000
0100
0010
0001
0010
,
0001
1000
0100
1000
0001
0010
0100
1000
0001
0100
0001
1000
0010
1000
0001
0100
,
0010
1000
0001
0100
0001
1000
0010
1000
0001
0100
0010
1000
0001
0100
0010
1000
,
0010
0100
0001
1000
0010
1000
0001
0100
0001
1000
0100
1000
0100
0010
0001
0010
,
0100
1000
0100
0010
0001
1000
0001
1000
0004
0000
0000
0000
0000
0000
0003
0000
,
1000
0000
0400
0300
0010
0001
1000
0000
0001
0100
0001
1000
0010
0100
0010
1000
,
0001
1000
0100
0010
0001
1000
0001
0100
0010
0100
0001
1000
0001
0100
0010
1000
,
0001
0100
0001
0100
0020
0000
0000
0030
1000
0001
0100
0001
1000
0010
0100
0001
,
1000
0001
0100
0010
0100
0001
1000
0010
0100
0010
0100
0001
1000
0010
1000
0001
,
0100
0010
0100
0010
1000
0001
1000
0001
0010
0100
1000
0100
1000
0001
0010
0100
,
0010
0001
1000
0100
1000
0001
0010
0001
1000
0100
1000
0001
0010
0100
0010
0001
,
1000
0100
0010
0001
4000
0000
3000
0000
0001
1000
0001
0100
0010
0100
0001
1000
,
0010
1000
0001
0100
0001
1000
0010
0100
0001
1000
0001
0100
0010
1000
0001
1000
,
0010
0100
0010
0100
0001
1000
0010
0100
0001
1000
0001
1000
0100
0010
0100
0010
,
0001
1000
0001
0010
0100
1000
0100
0010
0001
1000
0001
0010
0100
1000
0001
1000
,
0100
0010
0001
1000
0004
0000
0000
0000
1003
0100
0010
0001
1000
0001
0010
0100
,
1000
0001
1000
0100
0010
0001
1000
0001
1000
0100
0010
0100
1000
0001
0010
0100
,
1000
0001
1000
0100
1000
0001
1000
0001
0100
0010
0100
0001
1000
0010
1000
0001
,
0100
0001
1000
0010
1000
0001
0100
0010
1000
0010
0100
0001
1000
0001
0100
0010
,
4000
0000
3000
0000
0004
0000
0103
0000
0010
1000
0010
0100
0001
0100
0010
1000
,
0001
1000
0001
0010
0100
0010
0100
1000
0001
1000
0010
0100
0010
1000
0001
0100
,
0001
1000
0010
0100
0001
1000
0001
0100
0010
0100
0001
1000
0100
0010
0100
1000
,
0001
0010
0100
0010
0001
1000
0010
1000
0001
0100
0010
0100
0001
1000
0010
0100
,
0002
0003
2000
0000
0000
0000
0000
0000
,
0000
0000
0000
0000
0000
0000
0000
0000
0000
0000
0000
0000
0000
0000
0000
0000
0000
0000
0000
0000
0000
0000
0000
0000
0000
0000
0000
0000
0000
0000
0000
0000
0000
0000
0000
0000
0000
0000
0000
0000
0000
0000
0000
0000
0000
0000
0000
3000
,
0002
0203
0320
0230
0302
2003
3020
0230
0302
0203
0320
2030
3002
2003
3200
0320
,
0032
2003
3002
0023
0230
2300
3002
2003
3200
0320
0032
2003
3002
0203
0320
0230
,
0302
2003
3002
0023
0230
2300
3002
0203
0320
0230
0302
2003
3200
2300
3002
0203
,
0302
0203
0320
2030
3020
2030
3002
0203
0302
0203
0302
0203
0320
2030
3020
2030
,
3002
2003
3002
2003
3002
2003
3002
2003
3002
0000
0000
0000
0003
0000
0000
0000
,
0000
0000
0000
0000
,
0000
0000
MMMM
0000
,
MMMM
0000
MMMM
0000
,
MMMM
0000
0000
0000
;
