#TITLE:The 8th Era;
#SUBTITLE:;
#ARTIST:Mr Pokeahole;
#TITLETRANSLIT:;
#SUBTITLETRANSLIT:;
#ARTISTTRANSLIT:;
#CREDIT:Mad Matt;
#BANNER:../banner.png;
#BACKGROUND:../bg.png;
#LYRICSPATH:;
#CDTITLE:;
#MUSIC:The 8th Era.ogg;
#OFFSET:0.050;
#SAMPLESTART:11.500;
#SAMPLELENGTH:27.100;
#SELECTABLE:YES;
#BPMS:0.000=250.000;
#STOPS:;
#BGCHANGES:;
// cache tags:
#FIRSTBEAT:0.000;
#LASTBEAT:287.750;
#SONGFILENAME:Songs/Tachyon Epsilon Short Cuts/The 8th Era - [Mad Matt]/The 8th Era.sm;
#HASMUSIC:1;
#HASBANNER:1;
#MUSICLENGTH:70.290;
// end cache tags

//---------------dance-single - Zaia----------------
#NOTES:
     dance-single:
     Zaia:
     Beginner:
     18:
     1.000,1.000,0.000,0.199,1.000,825.000,0.000,14.000,12.000,0.000:



1000
0010
0100
0001
1000
0100
0010
0001
,
1000
0010
0100
0001
1000
0100
0010
0001
,
1000
0010
0100
0001
1000
0100
0010
0001
,
1000
0010
0100
0001
1000
0100
0010
0001
,
1000
0001
0100
0010
1000
0010
0100
0001
,
0010
0001
0010
0100
0010
0001
0100
0010
,
1000
0100
1000
0001
0100
0010
0100
0001
,
0010
0001
0010
0100
1000
0001
0010
0001
,
1000
0001
0100
0010
0100
0001
0010
0100
,
0010
0001
0100
0010
0100
0001
0010
0100
,
0010
0001
1000
0100
0010
0001
1000
0100
,
1000
1000
1000
1000
0002
0000
0003
0000
,
0010
0001
0010
0100
1000
0100
0010
0001
,
0100
0001
0100
0010
0100
0001
0010
0100
,
1000
0010
1000
0001
0010
0100
0010
0001
,
0100
0001
0100
0010
1000
0001
0100
0001
,
1000
0001
0010
0100
0010
0001
0100
0010
,
0100
0001
0010
0100
0010
0001
0100
0010
,
0100
0001
1000
0010
0100
0001
1000
0010
,
1000
0000
0000
1000
0000
0000
1000
0000
0000
1000
0000
0000
0001
0000
1000
0000
0100
0000
0010
0000
0001
0000
1000
0000
,
0001
1000
0001
1000
0010
0100
0001
1000
0001
1000
0010
1000
0001
0100
0010
1000
,
0001
1000
0010
0100
0001
1000
0001
0100
0001
1000
0001
0100
0010
1000
0001
1000
,
0001
0010
0001
1000
0100
0010
0001
0010
0100
1000
0001
0010
0001
1000
0100
0010
,
0100
0010
0001
1000
0100
0010
0001
1000
0001
0010
0100
0010
0100
1000
0001
1000
,
0010
0100
0001
1000
0010
1000
0001
0100
0010
1000
0001
1000
0010
0100
0010
0100
,
0001
1000
0010
1000
0001
0100
0001
1000
0010
0100
0010
0100
0001
1000
0010
1000
,
0001
1000
0100
0010
0001
1000
0100
0010
0100
0010
0001
1000
0100
0010
0001
1000
,
0001
1000
0010
0100
0001
1000
0001
0100
0001
1000
0001
1000
0010
0100
0010
1000
,
0001
1000
0001
0010
0100
1000
0001
0010
0100
0010
0100
1000
0001
0010
0001
1000
,
0100
1000
0001
0010
0100
1000
0001
0010
0001
1000
0100
0010
0001
1000
0001
1000
,
0001
0100
0010
1000
0010
0100
0001
1000
0010
0100
0010
0100
0001
1000
0010
1000
,
0001
1000
0010
0100
0001
0100
0010
1000
0001
0100
0001
1000
0010
0100
0001
1000
,
0001
1000
0100
0010
0100
1000
0001
0010
0100
1000
0001
0010
0100
0010
0100
1000
,
0001
0010
0001
1000
0100
0010
0001
1000
0001
0010
0001
0010
0001
1000
0001
1000
,
0001
0100
0001
1000
0010
0100
0001
1000
0010
0100
0010
0100
0001
1000
0001
1000
,
0010
1000
0001
0100
0001
1000
0010
0100
0010
0100
0001
0100
0001
1000
0001
1000
,
0001
0010
0100
1000
0001
0010
0100
0010
0100
1000
0001
0010
0001
1000
0100
0010
,
0001
1000
0100
0010
0100
1000
0100
0010
0001
1000
0001
0010
0001
1000
0100
1000
,
0001
0010
0100
1000
0001
0010
0001
1000
0100
0010
0001
1000
,
0001
0100
0010
1000
0001
1000
0001
0100
0001
0100
0001
0100
,
0020
0000
0000
0000
,
0000
0000
0000
0000
,
0130
0000
0000
0000
,
0000
0000
0000
0000
,
1000
0001
1000
0001
0010
0100
1000
0001
1000
0001
0010
0100
1000
0001
0010
0100
,
1000
0001
0010
0100
0010
0100
1000
0001
0010
0001
1000
0100
0010
0001
1000
0001
,
1000
0010
0100
0001
0100
0010
1000
0001
0100
0001
1000
0001
1000
0010
0100
0001
,
0100
0010
1000
0001
0100
0010
0100
0010
1000
0001
0100
0001
1000
0010
0100
0001
,
1000
0001
1000
0100
0010
0001
0010
0100
1000
0001
0010
0001
1000
0100
1000
0001
,
0010
0100
1000
0001
0010
0100
0010
0100
1000
0001
0010
0001
1000
0100
1000
0001
,
1000
0010
0100
0001
1000
0010
0100
0010
0100
0001
1000
0010
0100
0001
1000
0001
,
1000
0100
0010
0001
1000
0100
1000
0001
0010
0001
1000
0100
1000
0001
0010
0100
,
1000
0001
1000
0001
0100
0010
1000
0001
1000
0001
0100
0001
0100
0010
1000
0001
,
0100
0001
1000
0010
1000
0001
0100
0010
0100
0010
1000
0001
0100
0010
1000
0001
,
1000
0001
0010
0100
1000
0001
0010
0100
0010
0100
1000
0001
1000
0001
0010
0100
,
1000
0001
1000
0100
0010
0001
1000
0100
1000
0001
0010
0001
1000
0100
0010
0001
,
1000
0001
1000
0010
0100
0001
1000
0001
1000
0010
1000
0010
0100
0001
1000
0001
,
0100
0010
0100
0010
1000
0001
0100
0001
1000
0001
1000
0010
0100
0001
0100
0001
,
1000
0001
0010
0100
1000
0001
0010
0100
0010
0100
1000
0001
0010
0001
1000
0100
,
0010
0001
1000
0001
0010
0100
1000
0001
0010
0001
0010
0001
1000
0001
1000
0001
,
0100
0010
1000
0001
0100
0010
1000
0010
1000
0001
1000
0010
0100
0001
1000
0001
,
1000
0010
0100
0001
1000
0001
0100
0001
1000
0010
1000
0001
0100
0010
0100
0001
,
1000
0010
0100
0001
0100
0010
1000
0001
1000
0100
1000
0001
,
0010
0100
1000
0001
0100
0001
0100
0010
0100
0010
0100
0010
,
1000
0001
1000
0010
0100
0001
0010
0001
,
1000
0100
1000
0010
0100
0001
0010
0001
,
1000
0010
0100
0001
1000
0010
0100
0001
,
1000
1000
1000
1000
0002
0000
0003
0000
,
2000
3200
0320
0230
,
2300
0000
0000
0000
3002
0000
0000
0000
2003
3000
0020
0030
2000
3000
0020
0030
,
0200
M0MM
0000
M0MM
,
0000
0000
0000
0000
M0MM
0000
0000
0000
0000
0000
0000
0000
M0MM
0000
0000
0300
;

//---------------dance-single - Mad Matt----------------
#NOTES:
     dance-single:
     Mad Matt:
     Easy:
     19:
     1.000,1.000,0.000,0.199,1.000,825.000,0.000,14.000,12.000,0.000:




1000
0010
0100
0001
1000
0100
0010
0001
,
1000
0010
0100
0001
1000
0100
0010
0001
,
1000
0010
0100
0001
1000
0100
0010
0001
,
1000
0010
0100
0001
1000
0100
0010
0001
,
1000
0001
0100
0010
1000
0010
0100
0001
,
0010
0001
0010
0100
0010
0001
0100
0010
,
1000
0100
1000
0001
0100
0010
0100
0001
,
0010
0001
0010
0100
1000
0001
0010
0001
,
1000
0001
0100
0010
0100
0001
0010
0100
,
0010
0001
0100
0010
0100
0001
0010
0100
,
0010
0001
1000
0100
0010
0001
1000
0100
,
1000
1000
1000
1000
0002
0000
0003
0000
,
0010
0001
0010
0100
1000
0100
0010
0001
,
0100
0001
0100
0010
0100
0001
0010
0100
,
1000
0010
1000
0001
0010
0100
0010
0001
,
0100
0001
0100
0010
1000
0001
0100
0001
,
1000
0001
0010
0100
0010
0001
0100
0010
,
0100
0001
0010
0100
0010
0001
0100
0010
,
0100
0001
1000
0010
0100
0001
1000
0010
,
1000
0000
0000
1000
0000
0000
1000
0000
0000
1000
0000
0000
0001
0000
1000
0000
0100
0000
0010
0000
0001
0000
1000
0000
,
0001
1000
0001
0100
0001
1000
0100
0010
0100
1000
0001
0100
0001
1000
0010
1000
,
0001
1000
0100
0010
0001
1000
0001
0100
0001
1000
0001
0010
0100
0010
0001
1000
,
0100
0010
0100
1000
0001
1000
0010
1000
0001
0100
0001
1000
0100
0010
0100
1000
,
0001
1000
0010
1000
0001
0100
0001
1000
0001
0010
0100
0010
0001
1000
0001
0100
,
0010
0100
0001
1000
0010
1000
0001
1000
0100
0010
0001
1000
0001
0010
0100
1000
,
0001
1000
0010
1000
0001
0100
0001
1000
0010
0100
0001
1000
0100
1000
0001
0010
,
0100
1000
0100
0010
0001
1000
0001
0100
0001
1000
0010
0100
0001
1000
0100
1000
,
0001
1000
0010
0100
0001
1000
0001
0010
0001
1000
0100
0010
0100
1000
0001
1000
,
0010
1000
0001
0100
0010
0100
0001
1000
0100
1000
0001
0100
0010
1000
0001
1000
,
0100
1000
0001
0010
0100
0010
0001
1000
0001
0100
0001
1000
0010
0100
0001
1000
,
0100
1000
0001
1000
0010
0100
0001
1000
0010
0100
0001
1000
0100
1000
0001
0010
,
0100
0010
0001
1000
0001
0100
0010
1000
0001
1000
0100
1000
0001
0010
0100
0010
,
0001
1000
0100
0010
0001
1000
0001
0100
0001
1000
0100
0010
0100
1000
0001
0010
,
0100
0010
0001
1000
0010
0100
0001
1000
0010
0100
0001
1000
0100
1000
0001
0010
,
0100
0010
0001
1000
0001
0100
0001
1000
0010
0100
0001
1000
0100
1000
0001
0100
,
0001
1000
0001
0010
0001
1000
0100
0010
0001
1000
0001
0100
0001
1000
0001
0010
,
0100
0010
0001
1000
0010
1000
0001
0100
0010
1000
0001
1000
0100
1000
0001
0100
,
0001
1000
0010
0100
0001
1000
0100
1000
0001
0100
0001
1000
0010
0100
0001
1000
,
0001
0010
0100
1000
0001
0010
0001
1000
0100
0010
0001
1000
,
0001
0100
0010
1000
0001
1000
0001
0100
0001
0100
0001
0100
,
0020
0000
0000
0000
,
0000
0000
0000
0000
,
0130
0000
0000
0000
,
0000
0000
0000
0000
,
1000
0001
1000
0100
1000
0001
0100
0010
0100
0001
1000
0100
1000
0001
0010
0001
,
1000
0001
0100
0010
1000
0001
1000
0100
1000
0001
1000
0010
0100
0010
1000
0001
,
0100
0010
0100
0001
1000
0001
0010
0001
1000
0100
1000
0001
0100
0010
0100
0001
,
1000
0001
0010
0001
1000
0100
1000
0001
1000
0010
0100
0010
1000
0001
1000
0100
,
0010
0100
1000
0001
0010
0001
1000
0001
0100
0010
1000
0001
1000
0010
0100
0001
,
1000
0001
0010
0001
1000
0100
1000
0001
0010
0100
1000
0001
0100
0001
1000
0010
,
0100
0001
0100
0010
1000
0001
1000
0100
1000
0001
0010
0100
1000
0001
0100
0001
,
1000
0001
0010
0100
1000
0001
1000
0010
1000
0001
0100
0010
0100
0001
1000
0001
,
0010
0001
1000
0100
0010
0100
1000
0001
0100
0001
1000
0100
0010
0001
1000
0001
,
0100
0001
1000
0010
0100
0010
1000
0001
1000
0100
1000
0001
0010
0100
1000
0001
,
0100
0001
1000
0001
0010
0100
1000
0001
0010
0100
1000
0001
0100
0001
1000
0010
,
0100
0010
1000
0001
1000
0100
0010
0001
1000
0001
0100
0001
1000
0010
0100
0010
,
1000
0001
0100
0010
1000
0001
1000
0100
1000
0001
0100
0010
0100
0001
1000
0010
,
0100
0010
1000
0001
0010
0100
1000
0001
0010
0100
1000
0001
0100
0001
1000
0010
,
0100
0010
1000
0001
1000
0100
1000
0001
0010
0100
1000
0001
0100
0001
1000
0100
,
1000
0001
1000
0010
1000
0001
0100
0010
1000
0001
1000
0100
1000
0001
1000
0010
,
0100
0010
1000
0001
0010
0001
1000
0100
0010
0001
1000
0001
0100
0001
1000
0100
,
1000
0001
0010
0100
1000
0001
0100
0001
1000
0100
1000
0001
0010
0100
1000
0001
,
1000
0010
0100
0001
0100
0010
1000
0001
1000
0100
1000
0001
,
0010
0100
1000
0001
0100
0001
0100
0010
0100
0010
0100
0010
,
1000
0001
1000
0010
0100
0001
0010
0001
,
1000
0100
1000
0010
0100
0001
0010
0001
,
1000
0010
0100
0001
1000
0010
0100
0001
,
1000
1000
1000
1000
0002
0000
0003
0000
,
2000
3200
0320
0230
,
2300
0000
0000
0000
3002
0000
0000
0000
2003
3000
0020
0030
2000
3000
0020
0030
,
0200
M0MM
0000
M0MM
,
0000
0000
0000
0000
M0MM
0000
0000
0000
0000
0000
0000
0000
M0MM
0000
0000
0300
;

//---------------dance-single - Mad Matt----------------
#NOTES:
     dance-single:
     Mad Matt:
     Hard:
     20:
     1.000,1.000,0.000,0.199,1.000,937.000,0.000,14.000,12.000,0.000:












1000
0010
0100
0001
1000
0100
0010
0001
,
1000
0010
0100
0001
1000
0100
0010
0001
,
1000
0010
0100
0001
1000
0100
0010
0001
,
1000
0010
0100
0001
1000
0100
0010
0001
,
1000
0100
1000
0001
0010
0001
1000
0100
0010
0001
1000
0001
0100
0010
1000
0001
,
0100
0001
1000
0010
0100
0010
1000
0001
1000
0100
1000
0001
0010
0100
1000
0001
,
0010
0100
0010
0001
1000
0100
0010
0001
1000
0001
0100
0010
0100
0001
1000
0010
,
1000
0001
0100
0010
1000
0001
1000
0100
0010
0100
1000
0001
0010
0100
1000
0001
,
0010
0100
0010
0001
1000
0001
0100
0010
1000
0001
0100
0010
1000
0001
0100
0001
,
1000
0100
1000
0001
0010
0100
0010
0001
1000
0100
1000
0001
1000
0010
0100
0001
,
1000
0010
1000
0001
0100
0010
1000
0001
1000
0100
0010
0001
1000
0001
0010
0100
,
1000
1000
1000
1000
0002
0000
0003
0000
,
1000
0010
1000
0001
0100
0001
1000
0010
0100
0001
1000
0001
0010
0100
1000
0001
,
0010
0001
1000
0100
0010
0100
1000
0001
1000
0010
1000
0001
0100
0010
1000
0001
,
0100
0010
0100
0001
1000
0010
0100
0001
1000
0001
0010
0100
0010
0001
1000
0100
,
1000
0001
0010
0100
1000
0001
1000
0010
0100
0010
1000
0001
0100
0010
1000
0001
,
0100
0010
0100
0001
1000
0001
0010
0100
1000
0001
0010
0100
1000
0001
0010
0001
,
1000
0010
1000
0001
0100
0010
0100
0001
1000
0010
1000
0001
1000
0100
0010
0001
,
1000
0100
1000
0001
0010
0100
1000
0001
1000
0010
0100
0001
1000
0001
0100
0010
,
1000
0000
0000
1000
0000
0000
1000
0000
0000
1000
0000
0000
0001
0000
1000
0000
0100
0000
0010
0000
0001
0000
1000
0000
,
0001
1000
0001
1000
0010
0100
0001
1000
0001
1000
0100
1000
0001
0100
0010
1000
,
0001
1000
0010
0100
0001
1000
0001
0010
0001
1000
0001
0100
0010
1000
0001
1000
,
0001
0010
0001
1000
0100
0010
0001
0010
0100
1000
0001
0100
0001
1000
0100
0010
,
0100
0010
0001
1000
0100
0010
0001
1000
0001
0010
0100
0010
0100
1000
0001
1000
,
0010
0100
0001
1000
0100
1000
0001
0100
0010
1000
0001
1000
0010
0100
0010
0100
,
0001
1000
0100
1000
0001
0100
0001
1000
0010
0100
0010
0100
0001
1000
0010
1000
,
0001
1000
0100
0010
0001
1000
0100
0010
0100
1000
0001
0100
0001
1000
0100
1000
,
0001
1000
0010
0100
0001
1000
0001
0100
0010
1000
0001
1000
0100
0010
0100
1000
,
0001
1000
0001
0100
0010
1000
0001
1000
0100
0010
0100
1000
0001
0010
0001
1000
,
0100
1000
0001
0010
0100
1000
0001
0100
0001
1000
0100
0010
0001
1000
0100
1000
,
0001
0100
0010
1000
0010
0100
0001
1000
0010
1000
0001
0100
0001
1000
0100
1000
,
0001
1000
0010
0100
0001
0100
0010
1000
0001
0100
0001
1000
0010
0100
0001
1000
,
0001
1000
0100
0010
0100
1000
0001
0010
0100
1000
0001
0010
0100
0010
0100
1000
,
0001
0100
0001
1000
0100
0010
0001
1000
0001
0010
0001
0010
0100
1000
0001
1000
,
0010
0100
0001
1000
0010
0100
0001
1000
0100
1000
0001
0100
0001
1000
0010
0100
,
0010
1000
0001
0100
0001
1000
0010
0100
0001
1000
0100
1000
0001
0100
0001
1000
,
0001
0010
0100
1000
0001
0010
0100
0010
0001
1000
0100
0010
0100
1000
0001
0100
,
0001
1000
0100
0010
0100
1000
0100
0010
0001
1000
0001
0010
0001
1000
0100
1000
,
0001
0010
0100
1000
0001
0010
0001
1000
0100
0010
0001
1000
,
0001
0100
0010
1000
0001
1000
0001
0100
0001
0100
0001
0100
,
0020
0000
0000
0000
,
0000
0000
0000
0000
,
0130
0000
0000
0000
,
0000
0000
0000
0000
,
1000
0001
1000
0001
0010
0100
1000
0001
1000
0001
0100
0001
1000
0001
0010
0100
,
1000
0001
0010
0100
0010
0001
1000
0100
0010
0100
1000
0001
0100
0001
1000
0001
,
1000
0010
0100
0001
0100
0010
1000
0001
0100
0001
1000
0100
1000
0001
0100
0010
,
0100
0001
1000
0001
0100
0010
1000
0001
1000
0100
1000
0001
1000
0010
0100
0001
,
1000
0001
1000
0100
0010
0001
0010
0100
1000
0001
0100
0001
1000
0100
1000
0001
,
0010
0100
1000
0001
0010
0100
0010
0001
1000
0001
1000
0010
1000
0001
0100
0001
,
1000
0100
0010
0100
1000
0001
1000
0010
0100
0001
1000
0010
0100
0001
1000
0001
,
1000
0100
0010
0001
1000
0100
1000
0001
0100
0001
1000
0100
1000
0001
0010
0100
,
1000
0001
1000
0001
0100
0010
1000
0001
1000
0001
0100
0001
0100
0010
1000
0001
,
0100
0001
1000
0100
1000
0001
0100
0010
0100
0010
1000
0001
0100
0010
1000
0001
,
1000
0100
1000
0001
0010
0100
0010
0001
1000
0100
1000
0001
0100
0001
1000
0010
,
0100
0001
1000
0001
0100
0001
1000
0010
1000
0001
0010
0001
1000
0100
0010
0100
,
1000
0001
1000
0010
0100
0001
1000
0001
1000
0100
1000
0001
0100
0001
1000
0010
,
0100
0001
0100
0010
1000
0001
0100
0001
1000
0100
1000
0001
0100
0010
1000
0001
,
1000
0100
1000
0001
0010
0100
0010
0001
1000
0100
0010
0001
1000
0100
1000
0001
,
0100
0001
1000
0001
0010
0100
1000
0001
0010
0001
0010
0100
1000
0001
1000
0001
,
0100
0010
1000
0001
0100
0010
1000
0001
1000
0100
1000
0001
0100
0001
1000
0010
,
0100
0010
1000
0001
0100
0001
1000
0100
1000
0001
1000
0010
0100
0001
1000
0001
,
1000
0010
0100
0001
0100
0010
1000
0001
1000
0100
1000
0001
,
0010
0100
1000
0001
0100
0001
0100
0010
0100
0010
0100
0010
,
1000
0001
1000
0010
0100
0001
0010
0001
,
1000
0100
1000
0010
0100
0001
0010
0001
,
1000
0010
0100
0001
1000
0010
0100
0001
,
1000
1000
1000
1000
0002
0000
0003
0000
,
2000
3200
0320
0230
,
2300
0000
0000
0000
3002
0000
0000
0000
2003
3000
0020
0030
2000
3000
0020
0030
,
0200
M0MM
0000
M0MM
,
0000
0000
0000
0000
M0MM
0000
0000
0000
0000
0000
0000
0000
M0MM
0000
0000
0300
;

//---------------dance-single - Mad Matt----------------
#NOTES:
     dance-single:
     Mad Matt:
     Challenge:
     21:
     1.000,1.000,0.000,0.199,1.000,953.000,0.000,14.000,12.000,0.000:







1000
0010
0100
0001
1000
0100
0010
0001
,
1000
0010
0100
0001
1000
0100
0010
0001
,
1000
0010
0100
0001
1000
0100
0010
0001
,
1000
0010
0100
0001
1000
0100
0010
0001
,
1000
0010
1000
0100
1000
0001
0010
0100
1000
0010
0100
0001
1000
0001
0010
0001
,
1000
0100
0010
0100
1000
0010
1000
0001
0010
0100
1000
0010
0100
0001
1000
0100
,
1000
0001
0100
0001
0010
0001
1000
0100
0010
0001
0100
0010
1000
0001
1000
0100
,
1000
0001
0010
0100
0010
0001
0100
0001
1000
0100
0010
0001
1000
0010
0100
0001
,
1000
0100
1000
0010
1000
0001
0100
0010
1000
0100
0010
0001
1000
0001
0100
0001
,
1000
0010
0100
0010
1000
0100
1000
0001
0100
0010
1000
0100
0010
0001
1000
0010
,
1000
0100
1000
0001
0010
0100
0010
0001
1000
0010
1000
0100
1000
0001
0010
0100
,
1000
1000
1000
1000
0002
0000
0003
0000
,
1000
0100
1000
0010
1000
0001
0100
0010
1000
0100
0010
0001
1000
0001
0100
0001
,
1000
0010
0100
0010
1000
0100
1000
0001
0100
0010
1000
0100
0010
0001
1000
0010
,
1000
0001
0010
0001
0100
0001
1000
0010
0100
0001
0010
0100
1000
0001
1000
0010
,
1000
0001
0100
0010
0100
0001
0010
0001
1000
0010
0100
0001
1000
0100
0010
0001
,
1000
0010
1000
0100
1000
0001
0010
0100
1000
0010
0100
0001
1000
0001
0010
0001
,
1000
0100
0010
0100
1000
0010
1000
0001
0010
0100
1000
0010
0100
0001
1000
0100
,
1000
0010
1000
0001
0100
0010
0100
0001
1000
0100
1000
0010
1000
0001
0100
0010
,
1000
0000
0000
1000
0000
0000
1000
0000
0000
1000
0000
0000
0001
0000
1000
0000
0100
0000
0010
0000
0001
0000
1000
0000
,
0001
0100
0010
1000
0001
1000
0100
0010
0100
1000
0010
0100
0001
1000
0001
0010
,
0100
1000
0010
0100
0001
1000
0001
0010
0100
0010
0001
0100
0010
1000
0001
1000
,
0100
0010
0100
1000
0010
0100
0001
1000
0001
0010
0100
0010
0001
0100
0010
1000
,
0001
1000
0100
0010
0100
1000
0010
1000
0001
0010
0100
0010
0001
0100
0001
1000
,
0001
0010
0100
1000
0010
0100
0001
1000
0100
0010
0001
1000
0001
0100
0010
1000
,
0001
1000
0100
0010
0100
1000
0001
1000
0010
0100
0001
0010
0001
1000
0010
0100
,
0001
1000
0001
0010
0100
0010
0001
0100
0001
1000
0010
0100
0001
1000
0001
0010
,
0100
0010
0001
0100
0010
1000
0001
1000
0100
0010
0001
0100
0010
1000
0001
1000
,
0100
0010
0100
1000
0010
0100
0001
1000
0001
0010
0001
0100
0010
1000
0001
1000
,
0100
0010
0001
0100
0010
1000
0001
1000
0100
1000
0010
0100
0001
1000
0001
0010
,
0100
1000
0010
0100
0001
1000
0001
0010
0100
0010
0001
0100
0010
1000
0001
1000
,
0100
0010
0100
1000
0010
0100
0001
1000
0100
0010
0001
1000
0001
0100
0010
0100
,
0001
0010
0001
1000
0010
0100
0001
1000
0100
0010
0100
1000
0010
0100
0001
1000
,
0001
0010
0100
1000
0010
0100
0001
1000
0100
1000
0010
0100
0010
1000
0001
0010
,
0100
0010
0001
0100
0010
1000
0001
1000
0100
1000
0010
0100
0010
1000
0001
0100
,
0010
1000
0001
1000
0100
0010
0001
0100
0010
1000
0001
0010
0001
1000
0100
0010
,
0100
1000
0001
0100
0010
1000
0001
0010
0100
0010
0001
0100
0010
1000
0001
0010
,
0100
1000
0010
0100
0001
1000
0001
0010
0100
0010
0001
1000
0010
0100
0001
1000
,
0100
0010
0100
1000
0001
0100
0010
1000
0001
0010
0100
1000
0010
0100
0001
1000
,
0100
0010
0001
0100
0010
1000
0001
0010
0100
1000
0010
0100
0001
1000
0100
0010
,
0002
0000
0000
0000
,
0000
0000
0000
0000
,
1003
0000
0000
0000
,
0000
0000
0000
0000
,
1000
0100
0010
0001
1000
0001
0100
0010
0100
0001
0010
0100
1000
0001
1000
0010
,
0100
0001
0010
0100
1000
0001
1000
0010
0100
0010
1000
0100
0010
0001
1000
0001
,
0100
0010
0100
0001
0010
0100
1000
0001
1000
0010
0100
0010
1000
0100
0010
0001
,
1000
0001
0100
0010
0100
0001
0010
0001
1000
0010
0100
0010
1000
0100
1000
0001
,
1000
0010
0100
0001
0010
0100
1000
0001
0100
0010
1000
0001
1000
0100
0010
0001
,
1000
0001
0100
0010
0100
0001
1000
0001
0010
0100
1000
0010
1000
0001
0010
0100
,
1000
0001
1000
0010
0100
0010
1000
0100
1000
0001
0010
0100
1000
0001
1000
0010
,
0100
0010
1000
0100
0010
0001
1000
0001
0100
0010
1000
0100
0010
0001
1000
0001
,
0100
0010
0100
0001
0010
0100
1000
0001
1000
0010
1000
0100
0010
0001
1000
0001
,
0100
0010
1000
0100
0010
0001
1000
0001
0100
0001
0010
0100
1000
0001
1000
0010
,
0100
0001
0010
0100
1000
0001
1000
0010
0100
0010
1000
0100
0010
0001
1000
0001
,
0100
0010
0100
0001
0010
0100
1000
0001
0100
0010
1000
0001
1000
0100
0010
0100
,
1000
0010
1000
0001
0010
0100
1000
0001
0100
0010
0100
0001
0010
0100
1000
0001
,
1000
0010
0100
0001
0010
0100
1000
0001
0100
0001
0010
0100
0010
0001
1000
0010
,
0100
0010
1000
0100
0010
0001
1000
0001
0100
0001
0010
0100
0010
0001
1000
0100
,
0010
0001
1000
0001
0100
0010
1000
0100
0010
0001
1000
0010
1000
0001
0100
0010
,
0100
0001
1000
0100
0010
0001
1000
0010
0100
0010
1000
0100
0010
0001
1000
0010
,
0100
0001
0010
0100
1000
0001
1000
0010
0100
0010
1000
0001
0010
0100
1000
0001
,
0100
0010
0100
0001
1000
0100
0010
0001
1000
0010
0100
0001
0010
0100
1000
0001
,
0100
0010
1000
0100
0010
0001
1000
0010
0100
0001
0010
0100
1000
0001
0100
0010
,
1000
0001
0100
0010
0100
0001
0010
0001
,
1000
0100
1000
0010
0100
0001
0010
0001
,
1000
0010
0100
0001
1000
0010
0100
0001
,
1000
1000
1000
1000
0002
0000
0003
0000
,
2000
3200
0320
0230
,
2300
0000
0000
0000
3002
0000
0000
0000
2003
3000
0020
0030
2000
3000
0020
0030
,
0200
M0MM
0000
M0MM
,
0000
0000
0000
0000
M0MM
0000
0000
0000
0000
0000
0000
0000
M0MM
0000
0000
0300
;

//---------------dance-single - Mad Matt----------------
#NOTES:
     dance-single:
     Mad Matt:
     Medium:
     20:
     1.000,1.000,0.000,0.199,1.000,841.000,0.000,14.000,12.000,0.000:

1000
0010
0100
0001
1000
0100
0010
0001
,
1000
0010
0100
0001
1000
0100
0010
0001
,
1000
0010
0100
0001
1000
0100
0010
0001
,
1000
0010
0100
0001
1000
0100
0010
0001
,
1000
0001
0100
0010
1000
0010
0100
0001
,
0010
0001
0010
0100
0010
0001
0100
0010
,
1000
0100
1000
0001
0100
0010
0100
0001
,
0010
0001
0010
0100
1000
0001
0010
0001
,
1000
0001
0100
0010
0100
0001
0010
0100
,
0010
0001
0100
0010
0100
0001
0010
0100
,
0010
0001
1000
0100
0010
0001
1000
0010
,
1000
1000
1000
1000
0002
0000
0003
0000
,
0010
0001
0010
0100
1000
0100
0010
0001
,
0100
0001
0100
0010
0100
0001
0010
0100
,
1000
0010
1000
0001
0010
0100
0010
0001
,
0100
0001
0100
0010
1000
0001
0100
0001
,
1000
0001
0010
0100
0010
0001
0100
0010
,
0100
0001
0010
0100
0010
0001
0100
0010
,
0100
0001
1000
0010
0100
0001
1000
0010
,
1000
0000
0000
1000
0000
0000
1000
0000
0000
1000
0000
0000
0001
0000
1000
0000
0100
0000
0010
0000
0001
0000
1000
0000
,
0001
0100
0010
1000
0001
1000
0100
0010
0100
1000
0010
0100
0001
1000
0001
0010
,
0100
1000
0010
0100
0001
1000
0001
0010
0100
0010
0001
0100
0010
1000
0001
1000
,
0100
0010
0100
1000
0010
0100
0001
1000
0001
0010
0100
0010
0001
0100
0010
1000
,
0001
1000
0100
0010
0100
1000
0010
1000
0001
0010
0100
0010
0001
0100
0001
1000
,
0001
0010
0100
1000
0010
0100
0001
1000
0100
0010
0001
1000
0001
0100
0010
1000
,
0001
1000
0100
0010
0100
1000
0001
1000
0010
0100
0001
0010
0001
1000
0010
0100
,
0001
1000
0001
0010
0100
0010
0001
0100
0001
1000
0010
0100
0001
1000
0001
0010
,
0100
0010
0001
0100
0010
1000
0001
1000
0100
0010
0001
0100
0010
1000
0001
1000
,
0100
0010
0100
1000
0010
0100
0001
1000
0001
0010
0001
0100
0010
1000
0001
1000
,
0100
0010
0001
0100
0010
1000
0001
1000
0100
1000
0010
0100
0001
1000
0001
0010
,
0100
1000
0010
0100
0001
1000
0001
0010
0100
0010
0001
0100
0010
1000
0001
1000
,
0100
0010
0100
1000
0010
0100
0001
1000
0100
0010
0001
1000
0001
0100
0010
0100
,
0001
0010
0001
1000
0010
0100
0001
1000
0100
0010
0100
1000
0010
0100
0001
1000
,
0001
0010
0100
1000
0010
0100
0001
1000
0100
1000
0010
0100
0010
1000
0001
0010
,
0100
0010
0001
0100
0010
1000
0001
1000
0100
1000
0010
0100
0010
1000
0001
0100
,
0010
1000
0001
1000
0100
0010
0001
0100
0010
1000
0001
0010
0001
1000
0100
0010
,
0100
1000
0001
0100
0010
1000
0001
0010
0100
0010
0001
0100
0010
1000
0001
0010
,
0100
1000
0010
0100
0001
1000
0001
0010
0100
0010
0001
1000
0010
0100
0001
1000
,
0100
0010
0100
1000
0001
0100
0010
1000
0001
0010
0100
1000
0010
0100
0001
1000
,
0100
0010
0001
0100
0010
1000
0001
0010
0100
1000
0010
0100
0001
1000
0100
0010
,
0002
0000
0000
0000
,
0000
0000
0000
0000
,
1003
0000
0000
0000
,
0000
0000
0000
0000
,
1000
0100
0010
0001
1000
0001
0100
0010
0100
0001
0010
0100
1000
0001
1000
0010
,
0100
0001
0010
0100
1000
0001
1000
0010
0100
0010
1000
0100
0010
0001
1000
0001
,
0100
0010
0100
0001
0010
0100
1000
0001
1000
0010
0100
0010
1000
0100
0010
0001
,
1000
0001
0100
0010
0100
0001
0010
0001
1000
0010
0100
0010
1000
0100
1000
0001
,
1000
0010
0100
0001
0010
0100
1000
0001
0100
0010
1000
0001
1000
0100
0010
0001
,
1000
0001
0100
0010
0100
0001
1000
0001
0010
0100
1000
0010
1000
0001
0010
0100
,
1000
0001
1000
0010
0100
0010
1000
0100
1000
0001
0010
0100
1000
0001
1000
0010
,
0100
0010
1000
0100
0010
0001
1000
0001
0100
0010
1000
0100
0010
0001
1000
0001
,
0100
0010
0100
0001
0010
0100
1000
0001
1000
0010
1000
0100
0010
0001
1000
0001
,
0100
0010
1000
0100
0010
0001
1000
0001
0100
0001
0010
0100
1000
0001
1000
0010
,
0100
0001
0010
0100
1000
0001
1000
0010
0100
0010
1000
0100
0010
0001
1000
0001
,
0100
0010
0100
0001
0010
0100
1000
0001
0100
0010
1000
0001
1000
0100
0010
0100
,
1000
0010
1000
0001
0010
0100
1000
0001
0100
0010
0100
0001
0010
0100
1000
0001
,
1000
0010
0100
0001
0010
0100
1000
0001
0100
0001
0010
0100
0010
0001
1000
0010
,
0100
0010
1000
0100
0010
0001
1000
0001
0100
0001
0010
0100
0010
0001
1000
0100
,
0010
0001
1000
0001
0100
0010
1000
0100
0010
0001
1000
0010
1000
0001
0100
0010
,
0100
0001
1000
0100
0010
0001
1000
0010
0100
0010
1000
0100
0010
0001
1000
0010
,
0100
0001
0010
0100
1000
0001
1000
0010
0100
0010
1000
0001
0010
0100
1000
0001
,
0100
0010
0100
0001
1000
0100
0010
0001
1000
0010
0100
0001
0010
0100
1000
0001
,
0100
0010
1000
0100
0010
0001
1000
0010
0100
0001
0010
0100
1000
0001
0100
0010
,
1000
0001
0100
0010
0100
0001
0010
0001
,
1000
0100
1000
0010
0100
0001
0010
0001
,
1000
0010
0100
0001
1000
0010
0100
0001
,
1000
1000
1000
1000
0002
0000
0003
0000
,
2000
3200
0320
0230
,
2300
0000
0000
0000
3002
0000
0000
0000
2003
3000
0020
0030
2000
3000
0020
0030
,
0200
M0MM
0000
M0MM
,
0000
0000
0000
0000
M0MM
0000
0000
0000
0000
0000
0000
0000
M0MM
0000
0000
0300
;
