#TITLE:Evolution;
#SUBTITLE:;
#ARTIST:Nevarakka;
#TITLETRANSLIT:;
#SUBTITLETRANSLIT:;
#ARTISTTRANSLIT:;
#CREDIT:;
#BANNER:Evolution.jpg;
#BACKGROUND:Evolution_bg.jpg;
#LYRICSPATH:;
#CDTITLE:bannerBBK.png;
#MUSIC:Evolution (From sp14).mp3;
#OFFSET:-0.060;
#SAMPLESTART:30.769;
#SAMPLELENGTH:12.000;
#SELECTABLE:YES;
#DISPLAYBPM:136.000;
#BPMS:0.000=136.000,236.000=34816.000,1260.000=17408.000;
#STOPS:;
#BGCHANGES:;
// cache tags:
#FIRSTBEAT:16.000;
#LASTBEAT:236.000;
#SONGFILENAME:Songs/new cc/Evolution/Evolution (From sp14).sm;
#HASMUSIC:1;
#HASBANNER:1;
#MUSICLENGTH:106.161;
// end cache tags

//---------------dance-single - ----------------
#NOTES:
     dance-single:
     :
     Hard:
     12:
     0.873,0.945,0.706,0.396,1.000,530.000,75.000,42.000,48.000,29.000:
0000
0000
0000
0000
,
0000
0000
0000
0000
,
0000
0000
0000
0000
,
0000
0000
0000
0000
,
1200
0312
1203
0312
,
2103
3210
0321
2130
,
3102
2013
3120
2130
,
3102
0000
2103
0000
3202
0000
0000
0303
,
0102
1023
0132
1023
,
0231
1302
2013
3201
,
0321
1230
2301
3201
,
0321
0000
0231
0000
0322
0000
0000
0033
,
2002
0000
0000
0000
0000
0000
0000
3003
,
1000
0100
1000
0000
1100
0000
0000
0000
1000
0100
1000
0100
1100
0000
0000
0000
,
0010
0100
0000
0010
0100
0000
0000
0000
0010
0100
0000
0010
0100
0000
0010
0000
,
0001
0010
0001
0000
0011
0000
0000
0000
0001
0010
0001
0010
0011
0000
0000
0000
,
0100
0010
0000
0100
0010
0000
0000
0000
0100
0010
0000
0100
0010
0000
0100
0000
,
0010
0001
0010
0000
0011
0000
0000
0000
0010
0001
0010
0001
0011
0000
0000
0000
,
1000
0001
0000
1000
0001
0000
0000
0000
1000
0001
0000
1000
0001
0000
1000
0000
,
0100
0010
0100
0000
0110
0000
0000
0000
0100
0010
0100
0010
0110
0000
0000
0000
,
0001
0010
0000
0001
0010
0000
0000
0000
0001
0010
0000
0001
0010
0000
0001
0000
,
1000
0100
1000
0100
1000
0100
1000
0100
0010
0100
0010
0100
0010
0100
0010
0100
,
0010
0001
0010
0001
0010
0001
0010
0001
0010
0100
1000
0100
1000
0100
1000
0100
,
1000
0100
0010
1000
0010
1000
0010
1000
0010
0001
0100
0001
0100
0001
0100
0001
,
0100
0010
0100
0010
0100
0010
0100
0010
0100
0001
0010
0001
0010
0001
0010
0001
,
1000
0100
1000
0100
1000
0100
1000
0100
0001
1000
0001
1000
0001
1000
0001
1000
,
0001
0100
0010
0100
0010
0100
0010
0100
1000
0100
1000
0100
1000
0100
1000
0100
,
1000
0010
0100
0010
0100
0010
0100
0010
0100
0001
0010
0001
0010
0001
0010
0001
,
2020
0000
0000
3030
,
1221
M00M
0000
0000
0000
0000
0330
0000
,
1000
0100
0000
0000
1100
0000
0100
1000
0010
1000
0100
0000
0110
0010
0000
0010
,
0110
0010
1000
0100
0010
0001
0000
0010
0110
0010
1000
0100
0010
0001
0000
0100
,
0110
0100
0001
0010
0100
1000
0000
0100
0110
0100
0001
0010
0100
1000
0000
0100
,
0110
0010
1000
1000
0001
0001
0000
0100
0110
0010
1000
1000
0001
0001
0000
0000
,
0100
0000
0010
0001
0000
0000
0000
0000
0000
0000
0000
0000
0101
0000
0000
0000
0000
0000
0001
0000
0000
0100
0000
0000
1000
0000
0000
0100
0000
0000
0001
0000
0000
0000
0000
0000
1001
0000
0000
1000
0000
0000
0000
0000
0000
1000
0000
0000
,
1001
1000
0100
0001
1000
0010
0000
1000
1001
1000
0100
0001
1000
0010
0000
0001
,
1001
0001
0010
1000
0001
0100
0000
0001
1001
0001
0010
1000
0001
0100
0000
0001
,
1001
1000
0100
0100
0010
0010
0000
0001
1001
1000
0100
0100
0010
0010
0000
0000
,
2200
0000
0000
0000
0000
0000
0000
3300
,
1000
0000
1000
0100
1000
0010
1000
0001
1000
0000
1100
0000
1000
0010
1001
0000
,
0100
0010
0100
0000
1000
0100
1000
0000
0001
0010
0001
0010
1100
0010
1100
0000
,
0100
0000
0100
0010
0100
0001
0100
1000
0100
0000
0110
0000
0100
0001
1100
0000
,
0010
0001
0010
0000
0100
0010
0100
0000
1000
0001
1000
0001
0110
0001
0110
0000
,
0001
0000
0001
0010
0001
0100
0001
1000
0001
0000
0011
0000
0001
0100
1001
0000
,
0010
0100
0010
0000
0001
0010
0001
0000
1000
0100
1000
0100
0011
0100
0011
0000
,
0010
0000
0010
0001
0010
1000
0010
0100
0010
0000
0011
0000
0010
1000
0110
0000
,
0001
1000
0001
0000
0010
0001
0010
0000
0100
1000
0100
1000
0011
1000
0011
0000
,
1000
0100
0010
1000
01M0
0000
10M0
0100
00M0
1000
01M0
0000
00M1
0010
0100
1000
,
0100
0001
1000
0100
M001
0000
M100
0001
M000
0100
M001
0000
M010
0100
M001
0010
,
M100
0010
M001
0100
M010
0000
M100
0010
M000
0100
M010
0000
1000
0001
0010
0100
,
1000
0010
0001
0100
001M
0000
010M
0010
000M
0100
001M
0100
100M
0001
M010
0100
,
M001
0010
M001
0100
M010
0000
M100
0010
M000
0100
M010
0000
1000
0001
001M
0100
,
001M
1000
010M
0010
100M
0000
001M
1000
000M
0010
100M
0000
0001
0100
1000
0001
,
0010
0001
1000
0010
M001
0000
M010
0001
M000
0010
M001
0000
M100
1000
0001
0010
,
0100
0001
1000
0010
M001
0000
M010
0001
M000
0010
M001
0010
M100
1000
0001
0010
,
0202
0000
0000
0000
,
0000
0000
0000
0000
,
0000
0000
0000
0000
,
0000
0000
0000
0000
,
0303
0000
0000
0000
;
