#TITLE:Bed of Razors;
#SUBTITLE:By Nicholas T. Mihaila;
#ARTIST:Children Of Bodom;
#TITLETRANSLIT: Bed Of Razors;
#SUBTITLETRANSLIT:;
#ARTISTTRANSLIT: Children Of Bodom;
#CREDIT: Hope this works...;
#BANNER:BOR - Banner.gif;
#BACKGROUND:BOR - Background.gif;
#LYRICSPATH:;
#CDTITLE:cdtitle.gif;
#MUSIC:Children Of Bodom - Bed Of Razors.mp3;
#OFFSET:-0.300;
#SAMPLESTART:88.000;
#SAMPLELENGTH:14.000;
#SELECTABLE:YES;
#BPMS:0.000=69.170,8.000=138.700;
#STOPS:74.000=0.440
;
#BGCHANGES:;
// cache tags:
#FIRSTBEAT:0.000;
#LASTBEAT:530.000;
#SONGFILENAME:Songs/toune 5/COB - Bed of Razors/bed of razors.sm;
#HASMUSIC:1;
#HASBANNER:1;
#MUSICLENGTH:236.050;
// end cache tags

//---------------dance-single - Long Version----------------
#NOTES:
     dance-single:
     Long Version:
     Hard:
     11:
     1.000,1.000,0.915,1.000,1.000,1216.000,216.000,295.000,0.000,64.000:
1000
0100
0001
0010
0001
1000
0010
0100
0001
0010
0001
0100
1000
0100
0001
0010
0001
1000
0010
0100
0001
1000
0100
0010
,
1000
0100
0001
0010
0001
1000
0010
0100
0001
0010
0001
0100
1000
0100
0001
0010
0001
1000
0010
0100
0001
1000
0100
0010
,
1001
0000
0110
0000
,
1001
0000
0000
0000
0000
0000
0202
0000
0303
2020
0000
3030
,
2002
0000
3003
1000
1000
1000
0220
0000
0330
1000
1000
1000
,
2002
0000
3003
1000
1000
1000
0202
0000
0303
2020
0000
3030
,
0220
0000
1000
0000
,
0000
0000
1000
0000
,
0302
0000
0000
0000
0000
0000
1000
0000
0000
0000
0000
2030
,
0000
0000
0000
0000
0000
0000
0100
0010
0100
0010
0100
3013
,
1000
0100
0001
0010
0001
1000
0010
0100
0001
0010
0001
0100
,
1000
0100
0001
0010
0001
1000
0010
0100
0001
1000
0100
0010
,
1000
0100
0001
0010
0001
1000
0010
0100
0001
0010
0001
0100
,
1000
0100
0001
0010
0001
1000
0010
0100
0001
1000
0100
0010
,
1000
0100
0001
0010
0001
1000
0010
0100
0001
0010
0001
0100
,
1000
0100
0001
0010
0001
1000
0010
0100
0001
1000
0100
0010
,
1000
0100
0001
0010
0001
1000
0010
0100
0001
0010
0001
0100
,
1000
0100
0010
0001
0100
0010
1000
0100
0010
0001
1000
0100
,
0001
0010
0100
1000
0100
0010
0001
0000
0000
1000
0010
0100
,
0001
0010
0100
1000
0010
0100
0001
0010
0100
1000
0010
0100
,
0001
0010
0100
1000
0001
0010
1000
0001
0010
1000
0010
0100
,
0001
0010
0100
1000
0010
0100
0001
0010
0100
1000
0010
0100
,
0001
0010
0100
1000
0100
0010
0002
0000
0000
2203
0000
3300
,
2020
0000
3030
0220
0000
0330
0202
0000
0303
0010
1000
0010
,
2002
0000
3003
0202
0000
0303
0220
0000
0330
0001
0000
0000
,
0101
0000
1010
0000
0000
0000
1010
0000
0101
0000
0000
0000
,
0101
0000
1010
0001
0100
1000
0001
0100
1000
0001
0000
0000
,
0101
0000
1010
0000
0000
0000
1010
0000
0101
0000
0000
0000
,
0101
0000
1010
1100
0000
1010
0110
0000
0000
1000
0100
0001
,
0010
0001
1000
0010
0100
0001
0010
0001
0100
1000
0100
0001
,
0010
0001
1000
0010
0100
0001
1000
0100
0010
1000
0100
0001
,
0010
0001
1000
0010
0100
0001
0010
0001
0100
1000
0100
0001
,
0010
0001
1000
0010
0100
0001
1000
0100
0010
1000
0100
0001
,
0010
0001
1000
0010
0100
0001
0010
0001
0100
1000
0100
0001
,
0010
0001
1000
0010
0100
0001
1000
0100
0010
1000
0100
0001
,
0010
0001
1000
0010
0100
0001
0010
0001
0100
2001
3020
2031
,
3020
2031
3020
2031
3020
2230
0000
0000
3301
0020
0000
0130
,
0020
0000
0031
0200
0000
1300
0200
0000
0301
0020
0000
0130
,
0020
0000
0030
0200
0000
0000
0300
0000
0010
0101
0000
0202
,
0000
0000
0303
0202
0000
0000
1303
0000
0000
0200
0000
0300
,
0001
0010
0100
2000
0000
0000
3000
0000
0000
2002
3103
0010
,
0100
0010
0100
1001
0000
2200
0000
3300
0000
2002
3103
0010
,
0100
0010
0100
1001
0000
2200
0000
3300
0000
2002
3103
0010
,
0100
0010
0100
2020
3130
0001
0100
0001
0100
2002
3103
0010
,
0100
1000
0100
2020
0000
0000
0000
3030
0000
2200
0000
3300
,
0022
0000
0033
2020
3030
2020
0000
0000
3030
2200
0000
3300
,
0022
0000
0033
2020
0000
0000
0000
3030
0000
0220
0000
0330
,
0202
0000
0000
0000
0303
0000
2020
0000
0000
0000
3030
0000
0202
0000
0000
0000
0303
0000
0001
0000
0100
0010
0001
0000
,
1000
0100
0010
0001
0010
0100
1000
0100
0010
2002
3103
0010
,
0100
0010
0100
1001
0000
2200
0000
3300
0000
2002
3103
0010
,
0100
0010
0100
1001
0000
2200
0000
3300
0000
0022
0133
0001
,
0100
0001
0100
0202
1303
0001
1000
0001
1000
0022
0133
0001
,
0100
0010
0100
0220
0000
0000
0000
0330
0000
2002
3103
0010
,
0100
0010
0100
1001
0000
2200
0000
3300
0000
2002
3103
0010
,
0100
0010
0100
2002
0000
0000
3103
0010
0100
2020
3130
0001
,
0100
0001
0100
0022
0133
1000
0100
1000
0100
2002
3103
0010
,
0100
0001
0100
2020
0000
0000
0000
3030
0000
2002
3103
0010
,
0001
0010
0100
0022
0033
2200
0000
3300
0000
2002
3103
0010
,
0001
0010
0100
0022
0033
2200
0000
3301
0010
1000
0100
0010
,
1000
0100
0010
0100
0010
0001
0100
0010
0001
0010
0001
1000
,
0100
0010
0001
1100
0011
1100
0011
0000
0000
2002
3103
0010
,
0001
0010
0100
0022
0033
2200
0000
3300
0000
2002
3103
0010
,
0001
0010
0100
0022
0033
2200
0000
3301
0010
1000
0100
0010
,
1000
0100
0010
0100
0010
0001
0100
0010
0001
0010
0001
1000
,
0100
0010
0001
1100
0011
1100
0011
0000
0000
0001
0010
0100
,
1010
0000
1010
0000
0001
0010
1100
0000
1010
0000
0001
0010
,
0101
0000
1010
0000
1001
0110
1001
0110
1001
0000
0000
0000
,
1100
0000
0011
0000
0000
0000
0011
0000
1100
0000
0000
0000
,
1100
0000
0011
0000
0000
1001
0110
1001
0110
1001
0010
0001
,
0100
0010
0100
1000
0010
0001
0100
0010
0100
1000
0010
0001
,
0100
0010
0100
0001
0010
0100
0001
0010
0100
1000
0010
0001
,
0100
0010
0100
1000
0010
0001
0100
0010
0100
1000
0010
0001
,
0100
0010
0100
1000
0100
0010
0002
0000
0000
2203
0000
3300
,
2020
0000
3030
0202
0000
0303
0022
0000
0033
2020
0000
3030
,
2002
0000
3003
0202
0000
0303
0220
0000
0330
0001
0000
0000
,
0101
0000
0110
0000
0000
0000
0110
0000
0101
0000
0000
0000
,
0101
0000
0110
1000
0001
0100
1000
0001
0100
1000
0000
0000
,
0101
0000
0110
0000
0000
0000
0110
0000
0101
0000
0000
0000
,
0101
0000
0110
1000
0001
0100
1000
0001
0100
1000
0100
0010
,
1000
0100
0001
0010
0100
1000
0100
0010
0001
1000
0100
0010
,
1000
0100
0001
0100
0010
0001
0100
0010
0001
1000
0100
0010
,
1000
0100
0001
0010
0100
1000
0100
0010
0001
1000
0100
0010
,
1000
0100
0001
0100
0010
0001
0100
0010
0001
1000
0100
0010
,
1000
0100
0001
0010
0100
1000
0100
0010
0001
1000
0100
0010
,
1000
0100
0001
0100
0010
0001
0100
0010
0001
1000
0100
0010
,
1000
0100
0001
0010
0100
1000
0100
0010
0001
1000
0100
0010
,
1000
0100
0001
0100
0010
0001
0100
0010
0001
2000
3010
0010
,
0001
2000
3010
0100
0010
0001
2000
3010
0010
0001
2000
3010
,
0100
0010
0001
2020
0000
3030
2020
0000
3030
0001
0010
0100
,
1000
0100
0010
0001
0100
1000
0010
0100
1000
0001
0100
0010
,
1000
0100
0010
2002
0000
0000
0000
3003
0000
0001
0010
0100
,
1000
0100
0010
1000
0100
0010
0001
0010
0100
0001
0010
0100
,
1000
0100
0001
0010
0100
0001
0010
1000
0010
0100
1000
0010
,
0100
1000
0100
0010
0001
0100
0010
0001
0100
1000
0100
0001
,
0010
0100
1000
0100
0010
0002
0010
0100
1000
0203
0000
0000
,
0301
0000
0010
0000
0100
0000
2000
0000
0000
0000
0000
0000
3000
0000
0100
0000
0001
0010
0100
0000
0001
0010
1000
0000
,
0001
0010
0100
0001
0010
0001
0100
0001
0010
1100
0001
1010
,
0001
0110
0001
1000
0100
0010
0001
0100
0010
1000
0100
0010
,
0001
0010
0100
1000
0010
0100
0002
0000
0103
2000
0000
0000
,
3010
0001
0010
0200
0000
0000
0000
0300
0000
1000
0100
0010
,
0001
1000
0100
0010
0001
0010
0100
1000
0002
0000
0203
0000
,
0300
0000
0010
0000
0100
0000
2000
0000
0000
0000
0000
0000
3020
0000
0000
0000
0000
0000
1030
0100
0010
0001
0010
0100
,
1000
0100
0010
1000
0100
0010
2000
0000
0000
0000
0000
0000
0000
0000
0000
0000
3001
0000
0020
0000
0000
0000
0130
0000
,
0020
0000
0031
0200
0000
1300
0200
0000
0301
0020
0000
0130
,
0020
0000
0030
0200
0000
0000
0300
0000
0010
0101
0000
0202
,
0000
0000
0303
0202
0000
0000
1303
0000
0000
0200
0000
0300
,
0001
0010
0100
2000
0000
0000
3000
0000
0000
2002
3103
0010
,
0100
0010
0100
1001
0000
2200
0000
3300
0000
2002
3103
0010
,
0100
0010
0100
1001
0000
2200
0000
3300
0000
2002
3103
0010
,
0100
0010
0100
2020
3130
0001
0100
0001
0100
2002
3103
0010
,
0100
1000
0100
2020
0000
0000
0000
3030
0000
2200
0000
3300
,
0022
0000
0033
2020
3030
2020
0000
0000
3030
2200
0000
3300
,
0022
0000
0033
2020
0000
0000
0000
3030
0000
0220
0000
0330
,
0202
0000
0000
0000
0303
0000
2020
0000
0000
0000
3030
0000
0202
0000
0000
0000
0303
0000
0001
0000
0100
0010
0001
0000
,
1000
0100
0010
0001
0010
0100
1000
0100
0010
2002
3103
0010
,
0100
0010
0100
1001
0000
2200
0000
3300
0000
2002
3103
0010
,
0100
0010
0100
1001
0000
2200
0000
3300
0000
0022
0133
0001
,
0100
0001
0100
0202
1303
0001
1000
0001
1000
0022
0133
0001
,
0100
0010
0100
0220
0000
0000
0000
0330
0000
2002
3103
0010
,
0100
0010
0100
1001
0000
2200
0000
3300
0000
2002
3103
0010
,
0100
0010
0100
2002
0000
0000
3103
0010
0100
2020
3130
0001
,
0100
0001
0100
0022
0133
1000
0100
1000
0100
2002
3103
0010
,
0100
0001
0100
2020
0000
0000
0000
3030
0000
2002
3103
0010
,
0001
0010
0100
0022
0033
2200
0000
3300
0000
2002
3103
0010
,
0001
0010
0100
0022
0033
2200
0000
3301
0010
1000
0100
0010
,
1000
0100
0010
0100
0010
0001
0100
0010
0001
0010
0001
1000
,
0100
0010
0001
1100
0011
1100
0011
0000
0000
2002
3103
0010
,
0001
0010
0100
0022
0033
2200
0000
3300
0000
2002
3103
0010
,
0001
0010
0100
0022
0033
2200
0000
3301
0010
1000
0100
0010
,
1000
0100
0010
0100
0010
0001
0100
0010
0001
0010
0001
1000
,
0100
0010
0001
1100
0011
1100
0011
0001
0010
1000
0100
0010
,
1000
0100
0010
0100
0010
0001
0100
0010
0001
0010
0001
1000
,
0100
0010
0001
0110
1001
0110
1001
0000
0000
0000
0000
0000
;
