#TITLE:The Summer is Magic;
#SUBTITLE:;
#ARTIST:AleX Tune;
#TITLETRANSLIT:;
#SUBTITLETRANSLIT:;
#ARTISTTRANSLIT:;
#CREDIT:owenviau1;
#BANNER:BN.png;
#BACKGROUND:BG.png;
#LYRICSPATH:;
#CDTITLE:../CDTitleOV1.png;
#MUSIC:AleX Tune - The Summer is Magic.mp3;
#OFFSET:-0.331;
#SAMPLESTART:101.131;
#SAMPLELENGTH:29.999;
#SELECTABLE:YES;
#BPMS:0.000=200.000;
#STOPS:;
#BGCHANGES:;
// cache tags:
#FIRSTBEAT:0.000;
#LASTBEAT:927.000;
#SONGFILENAME:Songs/owenviau1 (2016) (Pad & Index)/The Summer is Magic - [owenviau1] v1.0.1/The Summer is Magic.sm;
#HASMUSIC:1;
#HASBANNER:1;
#MUSICLENGTH:280.061;
// end cache tags

//---------------dance-single - 18.31 (18) (owenviau----------------
#NOTES:
     dance-single:
     18.31 (18) (owenviau:
     Challenge:
     18:
     1.000,1.000,0.000,0.175,1.000,3300.000,0.000,49.000,28.000,0.000:
1000
0100
0010
0001
0100
0010
1000
0001
0100
0001
0010
0100
1000
0010
0100
0001
,
1000
0100
0010
0001
0100
0010
0100
0001
1000
0001
0100
0010
1000
0100
0010
0001
,
0100
0010
1000
0001
0010
0001
0100
0010
1000
0100
0010
0001
1000
0010
1000
0001
,
0100
0010
1000
0100
0010
0001
0100
0010
1000
0001
0010
0100
1000
0000
0010
0000
,
0100
0001
1000
0100
0010
0001
0100
0010
1000
0010
0100
0001
1000
0100
0010
0001
,
0100
0010
1000
0001
0100
0001
0010
0100
1000
0010
0100
0010
1000
0001
0100
0001
,
0010
0100
1000
0010
0100
0001
1000
0100
0010
0001
0100
0010
0100
0001
1000
0010
,
0100
0010
1000
0100
0010
0001
0100
0001
1000
0100
0010
0001
0100
0000
0010
0000
,
1000
0100
0010
0001
0100
0010
0100
0001
1000
0001
0100
0010
1000
0100
0010
0001
,
0100
0010
1000
0001
0010
0001
1000
0100
1000
0010
0100
0001
1000
0100
0010
0001
,
0100
0010
1000
0001
0010
0100
1000
0010
0100
0001
1000
0100
1000
0001
0100
0010
,
1000
0010
0100
0001
1000
0100
0010
0001
0100
0010
1000
0001
0010
0001
0100
0010
,
1000
0100
0010
0001
1000
0010
1000
0100
0010
0001
0100
0010
1000
0001
0010
0100
,
1000
0010
0100
0001
0100
0010
1000
0100
0010
0001
0100
0010
1000
0100
0010
0001
,
0100
0001
1000
0010
0100
0001
1000
0100
0010
0001
0100
0010
1000
0001
0010
0001
,
1000
0100
0010
0001
0100
0001
1000
0010
0100
0001
1000
0100
0010
0001
0100
0010
,
1000
0100
0010
0001
0100
0010
0100
0001
1000
0001
0100
0010
1000
0100
0010
0001
,
0100
0010
1000
0001
0010
0001
1000
0100
1000
0010
0100
0001
1000
0100
0010
0001
,
0100
0010
1000
0001
0010
0100
1000
0010
0100
0001
1000
0100
1000
0001
0100
0010
,
1000
0010
0100
0001
1000
0100
0010
0001
0100
0010
1000
0001
0010
0001
0100
0010
,
1000
0100
0010
0001
1000
0010
1000
0100
0010
0001
0100
0010
1000
0001
0010
0100
,
1000
0010
0100
0001
0100
0010
1000
0100
0010
0001
0100
0010
1000
0100
0010
0001
,
0100
0001
1000
0010
0100
0001
1000
0100
0010
0001
0100
0010
1000
0001
0010
0001
,
1000
0100
0010
0001
0100
0001
1000
0010
0100
0001
1000
0100
0010
0001
0100
0001
,
1000
0100
0010
0001
0100
0010
0100
0001
1000
0001
0100
0010
1000
0100
0010
0001
,
0100
0010
1000
0001
0010
0001
1000
0100
1000
0010
0100
0001
1000
0100
0010
0001
,
0100
0010
1000
0001
0010
0100
1000
0010
0100
0001
1000
0100
1000
0001
0100
0010
,
1000
0010
0100
0001
1000
0100
0010
0001
0100
0010
1000
0001
0010
0001
0100
0010
,
1000
0100
0010
0001
1000
0010
1000
0100
0010
0001
0100
0010
1000
0001
0010
0100
,
1000
0010
0100
0001
0100
0010
1000
0100
0010
0001
0100
0010
1000
0100
0010
0001
,
0100
0001
1000
0010
0100
0001
1000
0100
0010
0001
0100
0010
1000
0001
0010
0001
,
1000
0100
0010
0001
0100
0001
1000
0010
0100
0001
1000
0100
0010
0000
0001
0000
,
1000
0010
0100
0001
1000
0100
0010
0001
0100
0010
1000
0001
0010
0100
1000
0010
,
0100
0001
1000
0100
0010
0001
0100
0010
1000
0001
0010
0100
1000
0000
0020
0000
,
0130
0001
1000
0100
0010
0001
0100
0010
1000
0001
0100
0001
1000
0010
0100
0001
,
0100
0010
1000
0001
0100
0010
1000
0001
1000
0010
0100
0001
1000
0100
0010
0001
,
0100
0010
1000
0001
0010
0100
1000
0010
0100
0001
1000
0100
1000
0001
0100
0010
,
1000
0010
0100
0001
1000
0100
0010
0001
0100
0010
1000
0001
0010
0001
0100
0010
,
1000
0100
0010
0001
1000
0010
1000
0100
0010
0001
0100
0010
1000
0001
0010
0100
,
1000
0010
0100
0001
0100
0010
1000
0100
0010
0001
0100
0010
1000
0100
0010
0001
,
0100
0001
1000
0010
0100
0001
1000
0100
0010
0001
0100
0010
1000
0001
0010
0001
,
1000
0100
0010
0001
0100
0001
1000
0010
0100
0001
1000
0100
0010
0001
0100
0010
,
1000
0001
1000
0100
0010
0001
0100
0010
1000
0001
0100
0001
1000
0010
0100
0001
,
0100
0010
1000
0001
0100
0010
1000
0001
1000
0010
0100
0001
1000
0100
0010
0001
,
0100
0010
1000
0001
0010
0100
1000
0010
0100
0001
1000
0100
1000
0001
0100
0010
,
1000
0010
0100
0001
1000
0100
0010
0001
0100
0010
1000
0001
0010
0001
0100
0010
,
1000
0100
0010
0001
1000
0010
1000
0100
0010
0001
0100
0010
1000
0001
0010
0100
,
1000
0010
0100
0001
0100
0010
1000
0100
0010
0001
0100
0010
1000
0100
0010
0001
,
0100
0001
1000
0010
0100
0001
1000
0100
0010
0001
0100
0010
1000
0001
0010
0001
,
1000
0100
0010
0001
0100
0001
1000
0010
0100
0001
1000
0100
0010
0001
0100
0010
,
1000
0001
1000
0100
0010
0001
0100
0010
1000
0001
0100
0001
1000
0010
0100
0001
,
0100
0010
1000
0001
0100
0010
1000
0001
1000
0010
0100
0001
1000
0100
0010
0001
,
0100
0010
1000
0001
0010
0100
1000
0010
0100
0001
1000
0100
1000
0001
0100
0010
,
1000
0010
0100
0001
1000
0100
0010
0001
0100
0010
1000
0001
0010
0001
0100
0010
,
1000
0100
0010
0001
1000
0010
1000
0100
0010
0001
0100
0010
1000
0001
0010
0100
,
1000
0010
0100
0001
0100
0010
1000
0100
0010
0001
0100
0010
1000
0100
0010
0001
,
0100
0001
1000
0010
0100
0001
1000
0100
0010
0001
0100
0010
1000
0001
0010
0001
,
1000
0100
0010
0001
0100
0001
1000
0010
0100
0001
1000
0100
0010
0001
0100
0010
,
0100
0001
1000
0100
0010
0001
0100
0010
1000
0001
0100
0001
1000
0010
0100
0001
,
0100
0010
1000
0001
0100
0010
1000
0001
1000
0010
0100
0001
1000
0100
0010
0001
,
0100
0010
1000
0001
0010
0100
1000
0010
0100
0001
1000
0100
1000
0001
0100
0010
,
1000
0010
0100
0001
1000
0100
0010
0001
0100
0010
1000
0001
0010
0001
0100
0010
,
1000
0100
0010
0001
1000
0010
1000
0100
0010
0001
0100
0010
1000
0001
0010
0100
,
1000
0010
0100
0001
0100
0010
1000
0100
0010
0001
0100
0010
1000
0100
0010
0001
,
0100
0001
1000
0010
0100
0001
1000
0100
0010
0001
0100
0010
1000
0001
0010
0001
,
1000
0100
0010
0001
0100
0001
1000
0010
0100
0001
1000
0100
0010
0001
0100
0010
,
2000
0000
0000
000M
3000
0000
M000
0000
0000
000M
0000
0000
M000
0000
0000
000M
0000
0000
M000
0000
0000
000M
0000
0000
,
M000
000M
M000
0010
0100
0001
1000
0200
,
0000
0000
0000
0000
0000
0000
0320
0000
0000
0000
0030
0000
0000
0000
0000
0000
0000
0000
0001
0000
0000
0200
0000
0000
,
0000
0000
0000
0000
0000
0000
0320
0000
0000
0000
0030
0000
0000
0000
0000
1000
0000
0000
0100
0000
0000
0020
0000
0000
,
0000
0000
0030
0000
0000
0000
0000
0000
0000
0001
0000
0000
0100
0000
0000
0010
0000
0000
1000
0000
0000
0002
0000
0000
,
0000
0000
0000
0000
0000
0000
0000
0000
0003
0000
0000
0000
0200
0000
0000
0000
0000
0000
0000
0000
0000
0300
0000
0000
0000
0000
0000
0000
0000
0000
0000
0000
0000
0000
0000
0000
0010
0000
0000
0000
0000
0000
0000
0000
0000
0000
0000
0000
1000
0000
0000
0000
0000
0000
0000
0000
0000
0000
0000
0000
0100
0000
0000
0000
0000
0000
0000
0000
0000
0000
0000
0000
0010
0000
0000
0000
0000
0000
0000
0000
0000
0000
0000
0000
0002
0000
0000
0000
0000
0000
0000
0000
0000
0000
0000
0000
,
0000
0000
0000
0000
0003
0000
0200
0000
0000
0000
0300
0000
0000
0000
0000
0000
0000
0000
0010
0000
0000
2000
0000
0000
,
0000
0000
0000
0000
3000
0000
0020
0000
0000
0000
0030
0000
0000
0000
0000
0100
0000
0000
0001
0000
0000
2000
0000
0000
,
0000
0000
3000
0000
0000
0000
0000
0000
0000
0010
0000
0000
0100
0000
0000
0001
0000
0000
0010
0000
0000
0002
0000
0000
,
0000
0000
0003
2000
0000
3000
0000
0000
0000
0100
0000
0000
0010
0000
0000
0001
0000
0000
1000
0000
0000
0200
0000
0000
,
0000
0000
0000
0000
0000
0000
0320
0000
0000
0000
0030
0000
0000
0000
0000
0000
0000
0000
0001
0000
0000
0200
0000
0000
,
0000
0000
0000
0000
0000
0000
0320
0000
0000
0000
0030
0000
0000
0000
0000
1000
0000
0000
0100
0000
0000
0020
0000
0000
,
0000
0000
0030
0000
0000
0000
0000
0000
0000
0001
0000
0000
0100
0000
0000
0010
0000
0000
1000
0000
0000
0002
0000
0000
,
0000
0000
0000
0000
0000
0000
0000
0000
0003
0000
0000
0000
0200
0000
0000
0000
0000
0000
0000
0000
0000
0300
0000
0000
0000
0000
0000
0000
0000
0000
0000
0000
0000
0000
0000
0000
0010
0000
0000
0000
0000
0000
0000
0000
0000
0000
0000
0000
1000
0000
0000
0000
0000
0000
0000
0000
0000
0000
0000
0000
0100
0000
0000
0000
0000
0000
0000
0000
0000
0000
0000
0000
0010
0000
0000
0000
0000
0000
0000
0000
0000
0000
0000
0000
0002
0000
0000
0000
0000
0000
0000
0000
0000
0000
0000
0000
,
0000
0000
0000
0000
0003
0000
0200
0000
0000
0000
0300
0000
0000
0000
0000
0000
0000
0000
0010
0000
0000
2000
0000
0000
,
0000
0000
0000
0000
3000
0000
0020
0000
0000
0000
0030
0000
0000
0000
0000
0100
0000
0000
0001
0000
0000
2000
0000
0000
,
0000
0000
3000
0000
0000
0000
0000
0000
0000
0010
0000
0000
0100
0000
0000
0001
0000
0000
0010
0000
0000
0002
0000
0000
,
0000
0000
0003
2000
0000
3000
0000
0000
0000
0000
0000
0000
0000
0000
0000
0000
0000
0000
0000
0000
0000
0000
0000
0000
,
1000
0100
0010
0001
0100
0010
1000
0001
0010
0100
1000
0010
0100
0010
1000
0001
,
0100
0010
0100
0001
1000
0001
0100
0010
1000
0100
0010
0001
1000
0010
1000
0100
,
0010
0001
0100
0010
1000
0001
0100
0001
1000
0010
1000
0001
0010
0001
0100
0010
,
1000
0100
0010
0001
0100
0010
1000
0010
0100
0001
0100
0010
1000
0100
0010
0001
,
1000
0001
0010
0100
1000
0010
0100
0001
1000
0100
0010
0001
0100
0001
0010
0100
,
1000
0010
0100
0010
1000
0001
0100
0001
1000
0100
0010
0001
0100
0010
1000
0001
,
0010
0001
1000
0010
1000
0100
0010
0001
0100
0001
0010
0100
1000
0001
0100
0010
,
2000
0000
0000
0000
0000
0000
0010
0000
0000
3200
0000
0000
0010
0000
0300
0000
0000
0000
1000
0000
0000
0001
0000
0000
,
1000
0010
0100
0001
0010
0001
0100
0010
1000
0001
0100
0001
1000
0010
0100
0001
,
0100
0010
1000
0001
0100
0010
1000
0001
1000
0010
0100
0001
1000
0100
0010
0001
,
0100
0010
1000
0001
0010
0100
1000
0010
0100
0001
1000
0100
1000
0001
0100
0010
,
1000
0010
0100
0001
1000
0100
0010
0001
0100
0010
1000
0001
0010
0001
0100
0010
,
1000
0100
0010
0001
1000
0010
1000
0100
0010
0001
0100
0010
1000
0001
0010
0100
,
1000
0010
0100
0001
0100
0010
1000
0100
0010
0001
0100
0010
1000
0100
0010
0001
,
0100
0001
1000
0010
0100
0001
1000
0100
0010
0001
0100
0010
1000
0001
0010
0001
,
1000
0100
0010
0001
0100
0001
1000
0010
0100
0001
1000
0100
0010
0001
0100
0010
,
1M00
0001
1000
0100
0010
0001
0100
0010
1000
0001
0100
0001
1000
0010
0100
0001
,
0100
0010
1000
0001
0100
0010
1000
0001
1000
0010
0100
0001
1000
0100
0010
0001
,
0100
0010
1000
0001
0010
0100
1000
0010
0100
0001
1000
0100
1000
0001
0100
0010
,
1000
0010
0100
0001
1000
0100
0010
0001
0100
0010
1000
0001
0010
0001
0100
0010
,
1000
0100
0010
0001
1000
0010
1000
0100
0010
0001
0100
0010
1000
0001
0010
0100
,
1000
0010
0100
0001
0100
0010
1000
0100
0010
0001
0100
0010
1000
0100
0010
0001
,
0100
0001
1000
0010
0100
0001
1000
0100
0010
0001
0100
0010
1000
0001
0010
0001
,
1000
0100
0010
0001
0100
0001
1000
0010
0100
0001
1000
0100
0010
0001
0100
0010
,
1000
0001
1000
0100
0010
0001
0100
0010
1000
0001
0100
0001
1000
0010
0100
0001
,
0100
0010
1000
0001
0100
0010
1000
0001
1000
0010
0100
0001
1000
0100
0010
0001
,
0100
0010
1000
0001
0010
0100
1000
0010
0100
0001
1000
0100
1000
0001
0100
0010
,
1000
0010
0100
0001
1000
0100
0010
0001
0100
0010
1000
0001
0010
0001
0100
0010
,
1000
0100
0010
0001
1000
0010
1000
0100
0010
0001
0100
0010
1000
0001
0010
0100
,
1000
0010
0100
0001
0100
0010
1000
0100
0010
0001
0100
0010
1000
0100
0010
0001
,
0100
0001
1000
0010
0100
0001
1000
0100
0010
0001
0100
0010
1000
0001
0010
0001
,
1000
0100
0010
0001
0100
0001
1000
0010
0100
0001
1000
0100
0010
0001
0100
0010
,
0100
0001
1000
0100
0010
0001
0100
0010
1000
0001
0100
0001
1000
0010
0100
0001
,
0100
0010
1000
0001
0100
0010
1000
0001
1000
0010
0100
0001
1000
0100
0010
0001
,
0100
0010
1000
0001
0010
0100
1000
0010
0100
0001
1000
0100
1000
0001
0100
0010
,
1000
0010
0100
0001
1000
0100
0010
0001
0100
0010
1000
0001
0010
0001
0100
0010
,
1000
0100
0010
0001
1000
0010
1000
0100
0010
0001
0100
0010
1000
0001
0010
0100
,
1000
0010
0100
0001
0100
0010
1000
0100
0010
0001
0100
0010
1000
0100
0010
0001
,
0100
0001
1000
0010
0100
0001
1000
0100
0010
0001
0100
0010
1000
0001
0010
0001
,
1000
0000
0000
0000
0000
0000
0000
0000
0000
0000
0000
0000
0100
0000
0000
0000
0000
0000
0000
0000
0000
0000
0000
0000
0010
0000
0000
0000
0000
0000
0000
0000
0000
0000
0000
0000
0001
0000
0000
0000
0000
0000
0000
0000
0000
0000
0000
0000
1000
0000
0000
0000
0000
0000
0000
0000
0000
0000
0010
0000
0000
0000
0000
0000
0000
0000
0000
0100
0000
0000
0000
0000
0000
0000
0000
0000
0000
0001
0000
0000
0000
0000
0000
0000
0000
0000
1000
0000
0000
0000
0000
0000
0000
0000
0000
0000
0010
0000
0000
0000
0000
0000
0000
0000
0000
0000
0000
0000
0100
0000
0000
0000
0000
0000
0000
0000
0000
0000
0000
0000
0001
0000
0000
0000
0000
0000
0000
0000
0000
0000
0000
0000
1000
0000
0000
0000
0000
0000
0000
0000
0000
0000
0000
0000
0100
0000
0000
0000
0000
0000
0000
0000
0000
0000
0000
0000
0010
0000
0000
0000
0000
0000
0000
0000
0000
0000
0000
0000
0001
0000
0000
0000
0000
0000
0000
0000
0000
0000
0000
0000
0000
0000
0000
0000
0000
0000
0000
0000
0000
0000
0000
0000
,
0100
0001
1000
0100
0010
0001
0100
0010
1000
0001
0100
0001
1000
0010
0100
0001
,
0100
0010
1000
0001
0100
0010
1000
0001
1000
0010
0100
0001
1000
0100
0010
0001
,
0100
0010
1000
0001
0010
0100
1000
0010
0100
0001
1000
0100
1000
0001
0100
0010
,
1000
0010
0100
0001
1000
0100
0010
0001
0100
0010
1000
0001
0010
0001
0100
0010
,
1000
0100
0010
0001
1000
0010
1000
0100
0010
0001
0100
0010
1000
0001
0010
0100
,
1000
0010
0100
0001
0100
0010
1000
0100
0010
0001
0100
0010
1000
0100
0010
0001
,
0100
0001
1000
0010
0100
0001
1000
0100
0010
0001
0100
0010
1000
0001
0010
0001
,
1000
0000
0000
0000
0000
0000
0000
0000
0000
0000
0000
0000
0100
0000
0000
0000
0000
0000
0000
0000
0000
0000
0000
0000
0010
0000
0000
0000
0000
0000
0000
0000
0000
0000
0000
0000
0001
0000
0000
0000
0000
0000
0000
0000
0000
0000
0000
0000
0100
0000
0000
0000
0000
0000
0000
0000
0000
0000
0000
0000
0001
0000
0000
0000
0000
0000
0000
0000
0000
0000
0000
0000
1000
0000
0000
0000
0000
0000
0000
0000
0000
0000
0000
0000
0010
0000
0000
0000
0000
0000
0000
0000
0000
0000
0000
0000
0100
0000
0000
0000
0000
0000
0000
0000
0000
0000
0001
0000
0000
0000
0000
0000
0000
0000
0000
1000
0000
0000
0000
0000
0000
0000
0000
0000
0000
0100
0000
0000
0000
0000
0000
0000
0000
0000
0010
0000
0000
0000
0000
0000
0000
0000
0000
0000
0001
0000
0000
0000
0000
0000
0000
0000
0000
0000
0000
0000
0100
0000
0000
0000
0000
0000
0000
0000
0000
0000
0000
0000
0010
0000
0000
0000
0000
0000
0000
0000
0000
0000
0000
0000
1000
0000
0000
0000
0000
0000
0000
0000
0000
0000
0000
0000
,
0002
0003
0000
0000
2000
3000
0020
0000
0030
0000
0200
0300
0002
0000
0003
0000
,
2000
0000
3000
0000
0200
0000
0000
0000
0300
0000
0000
0000
0020
0000
0030
0000
0002
0000
0000
0000
0003
0000
0000
0000
0020
0030
0200
0300
2000
3000
0004
0003
,
0100
0010
1000
0001
0010
0100
1000
0010
0100
0001
1000
0100
1000
0001
0100
0010
,
1000
0010
0100
0001
1000
0100
0010
0001
0100
0010
1000
0001
0010
0001
0100
0010
,
1000
0100
0010
0001
1000
0010
1000
0100
0010
0001
0100
0010
1000
0001
0010
0100
,
1000
0010
0100
0001
0100
0010
1000
0100
0010
0001
0100
0010
1000
0100
0010
0001
,
0100
0001
1000
0010
0100
0001
1000
0100
0010
0001
0100
0010
1000
0001
0010
0001
,
1000
0100
0010
0001
0100
0001
1000
0010
0100
0001
1000
0100
0010
0001
0100
0010
,
1000
0001
1000
0100
0010
0001
0100
0010
1000
0001
0100
0001
1000
0010
0100
0001
,
0100
0010
1000
0001
0100
0010
1000
0001
1000
0010
0100
0001
1000
0100
0010
0001
,
M100
0010
1000
0001
0010
0100
1000
0010
0100
0001
1000
0100
1000
0001
0100
0010
,
1000
0010
0100
0001
1000
0100
0010
0001
0100
0010
1000
0001
0010
0001
0100
0010
,
1000
0100
0010
0001
1000
0010
1000
0100
0010
0001
0100
0010
1000
0001
0010
0100
,
1000
0010
0100
0001
0100
0010
1000
0100
0010
0001
0100
0010
1000
0100
0010
0001
,
0100
0001
1000
0010
0100
0001
1000
0100
0010
0001
0100
0010
1000
0001
0010
0001
,
1000
0100
0010
0001
0100
0001
1000
0010
0100
0001
1000
0100
0010
0001
0100
0010
,
0100
0001
1000
0100
0010
0001
0100
0010
1000
0001
0100
0001
1000
0010
0100
0001
,
0100
0010
1000
0001
0100
0010
1000
0001
1000
0010
0100
0001
1000
0100
0010
0001
,
M100
0010
1000
0001
0010
0100
1000
0010
0100
0001
1000
0100
1000
0001
0100
0010
,
1000
0010
0100
0001
1000
0100
0010
0001
0100
0010
1000
0001
0010
0001
0100
0010
,
1000
0100
0010
0001
1000
0010
1000
0100
0010
0001
0100
0010
1000
0001
0010
0100
,
1000
0010
0100
0001
0100
0010
1000
0100
0010
0001
0100
0010
1000
0100
0010
0001
,
0100
0001
1000
0010
0100
0001
1000
0100
0010
0001
0100
0010
1000
0001
0010
0001
,
1000
0100
0010
0001
0100
0001
1000
0010
0100
0001
1000
0100
0010
0001
0100
0010
,
0100
0001
1000
0100
0010
0001
0100
0010
1000
0001
0100
0001
1000
0010
0100
0001
,
0100
0010
1000
0001
0100
0010
1000
0001
1000
0010
0100
0001
1000
0100
0010
0001
,
0100
0010
1000
0001
0010
0100
1000
0010
0100
0001
1000
0100
1000
0001
0100
0010
,
1000
0010
0100
0001
1000
0100
0010
0001
0100
0010
1000
0001
0010
0001
0100
0010
,
1000
0100
0010
0001
1000
0010
1000
0100
0010
0001
0100
0010
1000
0001
0010
0100
,
1000
0010
0100
0001
0100
0010
1000
0100
0010
0001
0100
0010
1000
0100
0010
0001
,
0100
0001
1000
0010
0100
0001
1000
0100
0010
0001
0100
0010
1000
0001
0010
0001
,
1000
0100
0010
0001
0100
0001
1000
0010
0100
0000
0001
0000
1000
0000
0010
0000
,
0100
0001
1000
0100
0010
0001
0100
0010
1000
0001
0100
0001
1000
0010
0100
0001
,
0100
0010
1000
0001
0100
0010
1000
0001
1000
0010
0100
0001
1000
0100
0010
0001
,
0100
0010
1000
0100
0010
0001
0100
0001
,
1000
0010
0100
0001
1000
0100
0010
0001
,
0100
0010
1000
0001
0010
0001
0100
0010
,
1000
0000
0100
0000
0010
0000
0001
0000
0100
0000
0001
0000
1000
0000
0010
0100
,
0001
1000
0010
0100
0010
1000
0001
0100
,
0001
0010
0100
1000
0010
0100
0010
1000
,
0001
0100
0010
0100
0001
1000
0100
0010
,
0001
0000
1000
0000
0010
0000
1000
0000
0001
0000
0100
0000
0010
0000
1000
0001
,
0100
0010
1000
0100
1000
0001
0010
0100
,
1000
0010
0100
0001
0100
0010
1000
0001
,
1000
0010
0100
0001
1000
0100
0010
0001
,
1000
0000
0010
0000
1000
0000
0001
0000
0100
0000
0010
0000
1000
0000
0010
0100
,
0001
1000
0100
0010
0001
0100
0010
1000
,
0001
0010
0001
1000
0100
1000
0001
0100
,
0010
1000
0001
0100
0001
1000
0100
0010
,
0001
0000
0100
0000
0010
1000
0100
0010
0001
0100
0010
0000
1000
0100
0010
0001
,
0100
0010
1000
0001
0010
0100
1000
0010
0100
0001
1000
0100
1000
0001
0100
0010
,
1000
0010
0100
0001
1000
0100
0010
0001
0100
0010
1000
0001
0010
0001
0100
0010
,
1000
0100
0010
0001
1000
0010
1000
0100
0010
0001
0100
0010
1000
0001
0010
0100
,
1000
0010
0100
0001
0100
0010
1000
0100
0010
0001
0100
0010
1000
0100
0010
0001
,
0100
0001
1000
0010
0100
0001
1000
0100
0010
0001
0100
0010
1000
0001
0010
0001
,
1000
0100
0010
0001
0100
0001
1000
0010
0100
0001
1000
0100
0010
0001
0100
0010
,
0100
0001
1000
0100
0010
0001
0100
0010
1000
0001
0100
0001
1000
0010
0100
0001
,
0100
0010
1000
0001
0100
0010
1000
0001
1000
0010
0100
0001
1000
0100
0010
0001
,
0100
0010
1000
0001
0010
0100
1000
0010
0100
0001
1000
0100
1000
0001
0100
0010
,
1000
0010
0100
0001
1000
0100
0010
0001
0100
0010
1000
0001
0010
0001
0100
0010
,
1000
0100
0010
0001
1000
0010
1000
0100
0010
0001
0100
0010
1000
0001
0010
0100
,
1000
0010
0100
0001
0100
0010
1000
0100
0010
0001
0100
0010
1000
0100
0010
0001
,
0100
0001
1000
0010
0100
0001
1000
0100
0010
0001
0100
0010
1000
0001
0010
0001
,
1000
0100
0010
0001
0100
0001
1000
0010
0100
0001
1000
0100
0010
0001
0100
0010
,
1000
0001
1000
0100
0010
0001
0100
0010
1000
0001
0100
0001
1000
0010
0100
0001
,
0100
0010
1000
0001
0100
0010
1000
0001
1000
0010
0100
0001
1000
0100
0010
0001
,
0100
0010
1000
0001
0010
0100
1000
0010
0100
0001
1000
0100
1000
0001
0100
0010
,
1000
0010
0100
0001
1000
0100
0010
0001
0100
0010
1000
0001
0010
0001
0100
0010
,
1000
0100
0010
0001
1000
0010
1000
0100
0010
0001
0100
0010
1000
0001
0010
0100
,
1000
0010
0100
0001
0100
0010
1000
0100
0010
0001
0100
0010
1000
0100
0010
0001
,
0100
0001
1000
0010
0100
0001
1000
0100
0010
0001
0100
0010
1000
0001
0010
0001
,
1000
0100
0010
0001
0100
0001
1000
0010
0100
0001
1000
0100
0010
0001
0100
0010
,
1000
0001
1000
0100
0010
0001
0100
0010
1000
0001
0100
0001
1000
0010
0100
0001
,
0100
0010
1000
0001
0100
0010
1000
0001
1000
0010
0100
0001
1000
0100
0010
0001
,
0100
0010
1000
0001
0010
0100
1000
0010
0100
0001
1000
0100
1000
0001
0100
0010
,
1000
0010
0100
0001
1000
0100
0010
0001
0100
0010
1000
0001
0010
0001
0100
0010
,
1000
0100
0010
0001
1000
0010
1000
0100
0010
0001
0100
0010
1000
0001
0010
0100
,
1000
0010
0100
0001
0100
0010
1000
0100
0010
0001
0100
0010
1000
0100
0010
0001
,
0100
0001
1000
0010
0100
0001
1000
0100
0010
0001
0100
0010
1000
0001
0010
0001
,
1000
0100
0010
0001
0100
0001
1000
0010
0100
0001
1000
0100
0010
0001
0100
0010
,
0100
0001
1000
0100
0010
0001
0100
0010
1000
0001
0100
0001
1000
0010
0100
0001
,
0100
0010
1000
0001
0100
0010
1000
0001
1000
0010
0100
0001
1000
0100
0010
0001
,
0100
0010
1000
0001
0010
0100
1000
0010
0100
0001
1000
0100
1000
0001
0100
0010
,
1000
0010
0100
0001
1000
0100
0010
0001
0100
0010
1000
0001
0010
0001
0100
0010
,
1000
0100
0010
0001
1000
0010
1000
0100
0010
0001
0100
0010
1000
0001
0010
0100
,
1000
0010
0100
0001
0100
0010
1000
0100
0010
0001
0100
0010
1000
0100
0010
0001
,
0100
0001
1000
0010
0100
0001
1000
0100
0010
0001
0100
0010
1000
0001
0010
0001
,
1000
0100
0010
0001
0100
0001
1000
0010
0100
0001
1000
0100
0010
0001
0100
0010
,
0100
0001
1000
0100
0010
0001
0100
0010
1000
0001
0100
0001
1000
0010
0100
0001
,
0100
0010
1000
0001
0100
0000
0010
0000
0100
0000
0001
0000
1000
0100
0010
0001
,
0100
0010
1000
0001
0010
0100
1000
0010
0100
0001
1000
0100
1000
0001
0100
0010
,
1000
0010
0100
0001
1000
0100
0010
0001
0100
0010
1000
0001
0010
0001
0100
0010
,
1000
0100
0010
0001
1000
0010
1000
0100
0010
0001
0100
0010
1000
0001
0010
0100
,
1000
0010
0100
0001
0100
0010
1000
0100
0010
0001
0100
0010
1000
0100
0010
0001
,
0100
0001
1000
0010
0100
0001
1000
0100
0010
0001
0100
0010
1000
0001
0010
0001
,
1000
0100
0010
0001
0100
0001
1000
0010
0100
0001
1000
0100
0010
0001
0100
0010
,
1000
0001
1000
0100
0010
0001
0100
0010
1000
0001
0100
0001
1000
0010
0100
0001
,
0100
0000
0010
0000
1000
0000
0001
0000
0100
0000
0010
0000
1000
0000
0001
0000
1000
0000
0010
0000
0100
0000
0000
0000
0002
0003
0020
0030
0200
0300
2000
3000
,
002M
0000
M000
0030
000M
0000
M000
0000
000M
0000
M000
0000
000M
0000
M000
0000
,
000M
M000
000M
M000
000M
M000
000M
0000
,
0000
0000
0000
0000
,
0000
0000
0000
0000
;
