#TITLE:Russian Roulette;
#SUBTITLE:;
#ARTIST:Bazooka;
#TITLETRANSLIT:;
#SUBTITLETRANSLIT:;
#ARTISTTRANSLIT:;
#CREDIT:;
#BANNER:;
#BACKGROUND:;
#LYRICSPATH:;
#CDTITLE:;
#MUSIC:23- bazooka - russian roulette (radio edit).ogg;
#OFFSET:-0.100;
#SAMPLESTART:30.738;
#SAMPLELENGTH:12.000;
#SELECTABLE:YES;
#DISPLAYBPM:146.000;
#BPMS:0.000=150.000,6.000=150000.000,366.000=145.880;
#STOPS:14.000=0.460
,22.000=0.420
,30.000=0.360
,38.000=0.320
,46.000=0.280
,54.000=0.260
,62.000=0.240
,70.000=0.220
,78.000=0.200
,86.000=0.180
,94.000=0.160
,102.000=0.160
,110.000=0.160
,118.000=0.160
,126.000=0.160
,134.000=0.180
,142.000=0.200
,150.000=0.220
,158.000=0.220
,166.000=0.260
,174.000=0.260
,182.000=0.280
,190.000=0.300
,198.000=0.320
,206.000=0.340
,214.000=0.360
,222.000=0.380
,230.000=0.420
,238.000=0.480
,246.000=0.540
,254.000=0.600
,262.000=0.640
,270.000=0.680
,278.000=0.720
,286.000=0.760
,294.000=0.920
,302.000=1.080
,310.000=1.160
,318.000=1.280
,326.000=1.560
,334.000=1.800
,342.000=2.020
,350.000=2.000
,358.000=2.000
,366.000=3.400
;
#BGCHANGES:;
// cache tags:
#FIRSTBEAT:6.000;
#LASTBEAT:639.000;
#SONGFILENAME:Songs/SSSC Pack 2/Russian Roulette - [Insane Steve]/rr.sm;
#HASMUSIC:1;
#HASBANNER:0;
#MUSICLENGTH:148.222;
// end cache tags

//---------------dance-single - Insane Steve----------------
#NOTES:
     dance-single:
     Insane Steve:
     Challenge:
     14:
     0.959,1.000,0.067,0.074,1.000,974.000,10.000,11.000,318.000,0.000:


0000
0000
0000
0000
,
0000
0000
0000
0000
0000
0000
0000
0000
M000
000M
00M0
000M
0M00
00M0
M000
0000
,
0000
0000
0000
0000
,
0000
0000
0000
0000
0000
0000
0000
0000
000M
00M0
0M00
M000
0M00
00M0
000M
0000
,
0000
0000
0000
0000
,
0000
0000
0000
0000
0000
0000
0000
0000
M000
00M0
0M00
00M0
M000
000M
00M0
0000
,
0000
0000
0000
0000
,
0000
0000
0000
0000
0000
0000
0000
0000
00M0
0M00
00M0
0M00
00M0
M000
000M
0000
,
0000
0000
0000
0000
,
0000
0000
0000
0000
0000
0000
0000
0000
M000
00M0
0M00
000M
00M0
0M00
M000
0000
,
0000
0000
0000
0000
,
0000
0000
0000
0000
0000
0000
0000
0000
00M0
0M00
00M0
000M
00M0
0M00
M000
0000
,
0000
0000
0000
0000
,
0000
0000
0000
0000
0000
0000
0000
0000
M000
000M
00M0
0M00
M000
000M
00M0
0000
,
0000
0000
0000
0000
,
0000
0000
0000
0000
0000
0000
0000
0000
0M00
00M0
M000
000M
M000
000M
M000
0000
,
0000
0000
0000
0000
,
0000
0000
0000
0000
0000
0000
0000
0000
000M
00M0
0M00
M000
0M00
00M0
0M00
0000
,
0000
0000
0000
0000
,
0000
0000
0000
0000
0000
0000
0000
0000
0M00
00M0
000M
M000
0M00
00M0
000M
0000
,
0000
0000
0000
0000
,
0000
0000
0000
0000
0000
0000
0000
0000
000M
00M0
0M00
00M0
000M
00M0
0M00
0000
,
0000
0000
0000
0000
,
0000
0000
0000
0000
0000
0000
0000
0000
000M
0M00
00M0
M000
0M00
00M0
000M
0000
,
0000
0000
0000
0000
,
0000
0000
0000
0000
0000
0000
0000
0000
0M00
00M0
M000
0M00
M000
000M
0M00
0000
,
0000
0000
0000
0000
,
0000
0000
0000
0000
0000
0000
0000
0000
000M
0M00
00M0
M000
0M00
M000
000M
0000
,
0000
0000
0000
0000
,
0000
0000
0000
0000
0000
0000
0000
0000
000M
00M0
0M00
M000
00M0
0M00
000M
0000
,
0000
0000
0000
0000
,
0000
0000
0000
0000
0000
0000
0000
0000
M000
0M00
00M0
000M
M000
0M00
M000
0000
,
0000
0000
0000
0000
,
0000
0000
0000
0000
0000
0000
0000
0000
000M
0M00
00M0
0M00
000M
00M0
0M00
0000
,
0000
0000
0000
0000
,
0000
0000
0000
0000
0000
0000
0000
0000
M000
000M
0M00
00M0
0M00
000M
M000
0000
,
0000
0000
0000
0000
,
0000
0000
0000
0000
0000
0000
0000
0000
000M
00M0
000M
00M0
0M00
M000
0M00
0000
,
0000
0000
0000
0000
,
0000
0000
0000
0000
0000
0000
0000
0000
M000
00M0
M000
00M0
0M00
000M
M000
0000
,
0000
0000
0000
0000
,
0000
0000
0000
0000
0000
0000
0000
0000
000M
00M0
000M
M000
00M0
M000
000M
0000
,
0000
0000
0000
0000
,
0000
0000
0000
0000
0000
0000
0000
0000
M000
0M00
M000
0M00
M000
0M00
00M0
0000
,
0000
0000
0000
0000
,
0000
0000
0000
0000
0000
0000
0000
0000
00M0
000M
0M00
00M0
M000
000M
M000
0000
,
0000
0000
0000
0000
,
0000
0000
0000
0000
0000
0000
0000
0000
M000
00M0
0M00
000M
00M0
000M
M000
0000
,
0000
0000
0000
0000
,
0000
0000
0000
0000
0000
0000
0000
0000
0M00
00M0
0M00
00M0
000M
M000
000M
0000
,
0000
0000
0000
0000
,
0000
0000
0000
0000
0000
0000
0000
0000
M000
00M0
0M00
00M0
M000
000M
00M0
0000
,
0000
0000
0000
0000
,
0000
0000
0000
0000
0000
0000
0000
0000
000M
00M0
000M
M000
000M
0M00
00M0
0000
,
0000
0000
0000
0000
,
0000
0000
0000
0000
0000
0000
0000
0000
00M0
M000
0M00
M000
00M0
0M00
000M
0000
,
0000
0000
0000
0000
,
0000
0000
0000
0000
0000
0000
0000
0000
000M
0M00
00M0
0M00
000M
M000
000M
0000
,
0000
0000
0000
0000
,
0000
0000
0000
0000
0000
0000
0000
0000
M000
000M
0M00
00M0
0M00
000M
00M0
0000
,
0000
0000
0000
0000
,
0000
0000
0000
0000
0000
0000
0000
0000
000M
0M00
00M0
0M00
000M
M000
000M
0000
,
0000
0000
0000
0000
,
0000
0000
0000
0000
0000
0000
0000
0000
M000
0M00
00M0
000M
M000
000M
M000
0000
,
0000
0000
0000
0000
,
0000
0000
0000
0000
0000
0000
0000
0000
00M0
000M
M000
000M
00M0
0M00
M000
0000
,
0000
0000
0000
0000
,
0000
0000
0000
0000
0000
0000
0000
0000
0M00
00M0
000M
0M00
00M0
M000
0M00
0000
,
0000
0000
0000
0000
,
0000
0000
0000
0000
0000
0000
0000
0000
M000
000M
0M00
00M0
M000
000M
M000
0000
,
0000
0000
0000
0000
,
0000
0000
0000
0000
0000
0000
0000
0000
00M0
0M00
000M
00M0
000M
M000
00M0
0000
,
0000
0000
0000
0000
,
0000
0000
0000
0000
0000
0000
0000
0000
000M
M000
00M0
M000
000M
00M0
000M
0000
,
0000
0000
0000
0000
,
0000
0000
0000
0000
0000
0000
0000
0000
0M00
M000
000M
00M0
000M
M000
00M0
0000
,
0000
0000
0000
0000
,
0000
0000
0000
0000
0000
0000
0000
0000
000M
00M0
0M00
00M0
000M
M000
00M0
0000
,
0000
0000
0000
0000
,
0000
0000
0000
0000
0000
0000
0000
0000
0M00
000M
00M0
000M
M000
0M00
M000
0000
,
0000
0000
0000
0000
,
0000
0000
0000
0000
0000
0000
0000
0000
000M
M000
00M0
M000
000M
00M0
000M
0000
,
0000
0000
0000
0000
,
0000
0000
0000
0000
0000
0000
0000
0000
M000
0M00
00M0
000M
0M00
00M0
0M00
0000
,
0000
0000
0000
0000
,
0000
0000
0000
0000
0000
0000
0000
0000
000M
M000
00M0
0M00
000M
00M0
0M00
0000
,
0000
0000
0000
0000
,
0000
0000
0000
0000
0000
0000
0000
0000
00M0
0M00
00M0
0M00
00M0
0M00
00M0
0000
,
0000
0000
0000
0000
,
0000
0000
0000
0000
0000
0000
0000
0000
0000
0000
0000
0000
M000
000M
0000
M000
,
0000
000M
0000
0M00
0000
00M0
0000
0M00
0000
00M0
0M00
00M0
0000
0000
0000
0000
,
0000
0000
0000
0000
0000
0000
0000
0000
0000
0000
0000
0000
1000
0001
0000
1000
,
0000
0001
0000
0100
0000
0010
0000
0100
0000
0010
0100
0010
0200
0000
0000
0000
,
0000
0000
0300
0000
0000
0000
0001
0100
,
0010
0000
1000
0100
0010
0001
0010
0100
1000
0000
0001
0100
0010
0100
0001
0010
,
0100
0000
1000
0000
0100
0000
0010
0000
0100
0000
1000
0000
0001
1000
0001
0000
0010
0000
0000
0000
0010
0000
0000
0000
0100
0000
0000
0000
1000
0000
0000
0000
,
0010
0000
1000
0010
0100
0001
0100
0010
1000
0000
0001
0010
0100
0000
1000
0010
,
0100
0000
0000
0000
0010
0000
0000
0000
1000
0001
1000
0000
0001
0000
0000
0000
0100
0010
0100
0010
0100
0010
0100
0000
0001
0000
0000
0000
1000
0000
0000
0000
,
0100
0000
0000
0000
0010
0000
0100
0000
1000
0000
0001
0000
0010
0000
0001
0000
1000
0000
0000
0000
0001
0000
0100
0000
0010
0100
0010
0100
0010
0000
1000
0000
,
0001
1000
0001
1000
0001
0000
0010
0000
0100
1000
0100
1000
0100
0000
0010
0000
0001
0000
0000
0000
0001
0000
0000
0000
1000
0000
0000
0000
0010
0000
0000
0000
,
0100
0000
0000
0000
0001
0000
0010
0000
0001
0000
1000
0000
0010
0000
0100
0000
0001
0000
0000
0000
1000
0000
0100
0000
1000
0001
1000
0000
0001
0000
0100
0010
,
0100
0000
0010
0000
0100
0001
0100
0000
0001
0000
1000
0010
1000
0000
0010
0000
0100
0010
0100
0000
0010
0100
0010
0000
1000
0000
0000
0000
0001
0000
0000
0000
,
0010
0000
0001
0100
0010
1000
0010
0100
0001
0000
0100
0010
1000
0000
0010
0000
,
0100
0000
0001
1000
0100
0010
0100
1000
0001
0000
1000
0010
0100
0000
0010
0000
,
1000
0000
0100
0010
0001
0010
0100
1000
0100
0000
1000
0001
0100
0000
0010
0000
,
0100
0000
0000
0000
0001
0000
0010
0000
0001
0000
0100
0000
0010
0000
1000
0000
0010
0000
0000
0000
0100
0000
0010
0000
1000
0001
1000
0001
1000
0000
0010
0000
,
0100
0000
0010
0000
0100
0000
0001
0000
1000
0100
1000
0100
1000
0000
0001
0000
0100
0000
0010
0000
0100
0000
0001
0000
0100
0010
0100
0010
0100
0000
0001
0000
,
1000
0000
0001
0000
0010
0000
0100
0000
0010
0100
0010
0100
0010
0000
0100
0000
1000
0000
0001
0000
0100
0000
0010
0000
0100
0001
0100
0001
0100
0000
0001
0000
,
1000
0001
1000
0001
1000
0000
0001
0000
0010
0100
0010
0100
0010
0000
0100
0000
1000
0100
1000
0100
1000
0000
0001
0000
1000
0001
1000
0001
1000
0001
1000
0001
,
1000
0001
1000
0001
1000
0001
1000
0001
1000
0001
1000
0001
1000
0001
1000
0001
1000
0001
1000
0001
1000
0001
1000
0001
1000
0000
0010
0000
0000
0000
0100
0000
,
0000
0001
0000
1000
0000
0001
0000
1000
0000
0100
0010
0001
2000
0000
0000
0000
,
0000
0000
0000
0000
0000
0000
0000
0000
0000
0000
0000
0000
3001
0100
0001
1000
,
0100
0000
1000
0000
0001
0000
0010
0000
0001
0000
1000
0000
0010
0000
1000
0000
0010
0100
0010
0000
0100
0010
0100
0000
0001
0000
0000
0000
1000
0000
0000
0000
,
0100
0000
1000
0100
0010
0001
0010
0100
1000
0000
0001
0100
0010
0100
0001
1000
,
0001
0010
0100
1000
0100
0010
0100
1000
0002
0000
0103
0000
0010
0000
0100
0000
,
0001
0000
1000
0010
0100
0001
0100
0010
1000
0000
0001
0010
0100
0000
1000
0001
,
1000
0010
0100
0010
1000
2001
3001
0100
,
0010
0000
1000
0100
0010
0001
0100
0010
1000
0000
0001
0010
0001
1000
0010
0100
,
0010
1000
0001
0010
0100
0010
0001
1000
0002
0000
1003
0000
0010
0000
0100
0000
,
0001
0000
0010
0100
0010
0001
1000
0010
0100
0000
0010
0100
0001
0100
0001
1000
,
0100
1000
0001
0010
0001
1000
0010
1000
0010
0000
0010
0000
0100
0000
0001
0000
,
1000
0000
0100
0010
0001
0100
0010
1000
0100
0000
1000
0001
0100
0010
0100
0001
,
0010
0100
0010
0001
1000
0010
0100
0010
0200
0000
0301
0000
1000
0000
0100
0000
,
1000
0000
0001
0100
0010
0100
0010
1000
0001
0000
0010
0100
1000
0000
0001
0100
,
0010
1000
0001
1000
0100
0210
0310
0001
,
1000
0000
0010
0100
0001
1000
0001
0010
0100
0000
1000
0001
1000
0010
0100
0001
,
1000
0000
0001
0000
0010
0000
0100
0000
0010
0000
0001
0000
1000
0000
0010
0000
0200
0000
0000
0000
0301
0000
0000
0000
1000
0001
1000
0001
1000
0000
0010
0000
,
0100
0000
0001
0000
1000
0000
0001
0000
0010
0100
0010
0100
0010
0000
0001
0000
1000
0000
0001
0000
0100
0000
0010
0000
1000
0000
0010
0000
1000
0000
0001
0000
,
0010
0000
0001
0000
1000
0000
0100
0000
1000
0000
0001
0000
0100
0000
0001
0000
1000
0100
1000
0000
0100
1000
0100
0000
0010
0000
0001
0000
1000
0000
0001
0000
,
0100
0010
0100
0001
1000
0001
0010
0100
1000
0100
0010
0001
1000
0010
0100
0010
,
1000
0001
1000
0010
0100
0001
1000
0001
0010
0100
1000
0001
1000
0001
1000
0010
,
0100
0010
0100
0001
1000
0001
0010
0100
0010
0001
1000
0001
1000
0010
0100
0010
,
1000
0001
1000
0100
0010
0001
0010
0001
1000
0010
0100
0010
1000
0001
1000
0001
,
0010
0100
1000
0100
0010
0001
1000
0001
1000
0010
0100
0010
1000
0001
1000
0100
,
0010
0100
1000
0001
1000
0010
0100
0010
1000
0001
1000
0001
0010
0100
1000
0001
,
1000
0100
0010
0100
1000
0001
0100
0010
0100
0010
1000
0001
1000
0100
1000
0100
,
0010
0000
0001
0000
0010
0000
0001
0000
1000
0000
0001
0000
1000
0000
0001
0000
0100
0010
0100
0000
0010
0100
0010
0000
2000
0000
0000
0000
0000
0000
0000
0000
,
0000
0000
0000
0000
0000
0000
0000
0000
0000
0000
0000
0000
3001
0010
0000
0001
,
0000
0000
1000
0000
0000
0000
0010
0000
0000
0000
0100
0000
0001
0000
1000
0000
0001
1000
0001
1000
0001
1000
0001
1000
0001
0000
0100
0000
0010
0000
0000
0000
,
1000
0000
0001
0000
0010
0100
1000
0001
0000
1000
0010
0100
0001
1000
0001
0000
,
0100
0000
0010
0000
1000
0100
1000
0001
0000
0100
0010
1000
0001
1000
0100
0000
,
0010
0000
0001
0000
0100
0010
0000
0100
0001
0000
1000
0001
0010
0100
1000
0001
,
1000
0010
0100
0010
0000
1000
0001
1000
0001
0010
0100
1000
0001
0010
0100
0000
,
1000
0010
0000
0100
0001
1000
0000
0001
0010
0100
1000
0001
1000
0010
0100
0000
,
0010
1000
0000
0001
1000
0001
0000
1000
0020
0000
0230
0000
0301
0010
0100
0000
,
1000
0010
0000
0100
0001
1000
0000
0100
1000
0001
1000
0001
0100
0010
0100
0010
,
1000
0001
1000
0001
0010
0100
1000
0001
1000
0010
0100
0001
1000
0000
0100
0000
,
0110
0000
0010
0001
1000
0000
0010
0000
0110
0000
0100
0001
1000
0000
0100
0000
,
1100
0000
1000
0000
0001
0000
0100
0000
0110
0000
0010
1000
0001
0000
1000
0000
,
1001
0000
0001
0010
0100
0000
0010
0000
1001
0000
1000
0010
0100
0000
0010
0000
,
1010
0000
1000
0000
0001
0000
0010
0000
0110
0000
0100
0000
1000
0001
1000
0001
,
0100
0010
0100
0010
1000
0010
1000
0010
0100
0001
0100
0001
1000
0100
1000
0100
,
0010
0001
0010
0001
0100
0010
0100
0010
1000
0010
1000
0010
0100
0001
1000
0001
,
0010
0100
0010
0001
1000
0010
0100
0010
1000
0001
1000
0001
0010
0100
0000
1000
,
0100
0000
0000
0000
0010
0000
0001
0000
0000
0000
1000
0000
0001
0000
0100
0000
0010
0100
0010
0000
1000
0010
1000
0000
0001
0000
1000
0100
1000
0000
0100
0000
,
0010
0001
0010
0000
0100
1000
0100
0000
0010
0000
0001
1000
0001
0000
0100
0000
0010
1000
0010
0000
0100
0010
0100
0000
0001
0000
1000
0100
1000
0000
0001
0000
,
1000
0000
0010
0100
0010
0000
1000
0000
0001
0000
0010
0100
0010
0000
0001
0000
1000
0000
0010
0100
0010
0000
1000
0000
0001
0010
0001
0000
0010
0100
0010
0000
,
0100
1000
0100
0000
1000
0001
1000
0000
0001
1000
0001
0000
0100
0010
0100
0000
0010
1000
0010
0000
0100
0001
0100
0000
0001
0000
1000
0000
0000
0000
0100
0000
,
0000
0000
0010
0000
0000
0000
0100
0000
0000
0000
1000
0000
0000
0000
0001
0000
0000
0000
0001
0000
0100
0000
0001
0000
0100
0001
0100
0001
0100
0001
0100
0001
,
0100
0001
0100
0001
0100
0001
0100
0001
0100
0001
0100
0001
0100
0001
0100
0001
0100
0001
0100
0001
0100
0001
0100
0001
0100
0000
0000
0000
0000
0000
0000
0000
;

//---------------dance-single - Insane Steve----------------
#NOTES:
     dance-single:
     Insane Steve:
     Hard:
     13:
     0.901,1.000,0.074,0.081,1.000,911.000,11.000,12.000,318.000,0.000:

0000
0000
0000
0000
,
0000
0000
0000
0000
0000
0000
0000
0000
M000
000M
00M0
000M
0M00
00M0
M000
0000
,
0000
0000
0000
0000
,
0000
0000
0000
0000
0000
0000
0000
0000
000M
00M0
0M00
M000
0M00
00M0
000M
0000
,
0000
0000
0000
0000
,
0000
0000
0000
0000
0000
0000
0000
0000
M000
00M0
0M00
00M0
M000
000M
00M0
0000
,
0000
0000
0000
0000
,
0000
0000
0000
0000
0000
0000
0000
0000
00M0
0M00
00M0
0M00
00M0
M000
000M
0000
,
0000
0000
0000
0000
,
0000
0000
0000
0000
0000
0000
0000
0000
M000
00M0
0M00
000M
00M0
0M00
M000
0000
,
0000
0000
0000
0000
,
0000
0000
0000
0000
0000
0000
0000
0000
00M0
0M00
00M0
000M
00M0
0M00
M000
0000
,
0000
0000
0000
0000
,
0000
0000
0000
0000
0000
0000
0000
0000
M000
000M
00M0
0M00
M000
000M
00M0
0000
,
0000
0000
0000
0000
,
0000
0000
0000
0000
0000
0000
0000
0000
0M00
00M0
M000
000M
M000
000M
M000
0000
,
0000
0000
0000
0000
,
0000
0000
0000
0000
0000
0000
0000
0000
000M
00M0
0M00
M000
0M00
00M0
0M00
0000
,
0000
0000
0000
0000
,
0000
0000
0000
0000
0000
0000
0000
0000
0M00
00M0
000M
M000
0M00
00M0
000M
0000
,
0000
0000
0000
0000
,
0000
0000
0000
0000
0000
0000
0000
0000
000M
00M0
0M00
00M0
000M
00M0
0M00
0000
,
0000
0000
0000
0000
,
0000
0000
0000
0000
0000
0000
0000
0000
000M
0M00
00M0
M000
0M00
00M0
000M
0000
,
0000
0000
0000
0000
,
0000
0000
0000
0000
0000
0000
0000
0000
0M00
00M0
M000
0M00
M000
000M
0M00
0000
,
0000
0000
0000
0000
,
0000
0000
0000
0000
0000
0000
0000
0000
000M
0M00
00M0
M000
0M00
M000
000M
0000
,
0000
0000
0000
0000
,
0000
0000
0000
0000
0000
0000
0000
0000
000M
00M0
0M00
M000
00M0
0M00
000M
0000
,
0000
0000
0000
0000
,
0000
0000
0000
0000
0000
0000
0000
0000
M000
0M00
00M0
000M
M000
0M00
M000
0000
,
0000
0000
0000
0000
,
0000
0000
0000
0000
0000
0000
0000
0000
000M
0M00
00M0
0M00
000M
00M0
0M00
0000
,
0000
0000
0000
0000
,
0000
0000
0000
0000
0000
0000
0000
0000
M000
000M
0M00
00M0
0M00
000M
M000
0000
,
0000
0000
0000
0000
,
0000
0000
0000
0000
0000
0000
0000
0000
000M
00M0
000M
00M0
0M00
M000
0M00
0000
,
0000
0000
0000
0000
,
0000
0000
0000
0000
0000
0000
0000
0000
M000
00M0
M000
00M0
0M00
000M
M000
0000
,
0000
0000
0000
0000
,
0000
0000
0000
0000
0000
0000
0000
0000
000M
00M0
000M
M000
00M0
M000
000M
0000
,
0000
0000
0000
0000
,
0000
0000
0000
0000
0000
0000
0000
0000
M000
0M00
M000
0M00
M000
0M00
00M0
0000
,
0000
0000
0000
0000
,
0000
0000
0000
0000
0000
0000
0000
0000
00M0
000M
0M00
00M0
M000
000M
M000
0000
,
0000
0000
0000
0000
,
0000
0000
0000
0000
0000
0000
0000
0000
M000
00M0
0M00
000M
00M0
000M
M000
0000
,
0000
0000
0000
0000
,
0000
0000
0000
0000
0000
0000
0000
0000
0M00
00M0
0M00
00M0
000M
M000
000M
0000
,
0000
0000
0000
0000
,
0000
0000
0000
0000
0000
0000
0000
0000
M000
00M0
0M00
00M0
M000
000M
00M0
0000
,
0000
0000
0000
0000
,
0000
0000
0000
0000
0000
0000
0000
0000
000M
00M0
000M
M000
000M
0M00
00M0
0000
,
0000
0000
0000
0000
,
0000
0000
0000
0000
0000
0000
0000
0000
00M0
M000
0M00
M000
00M0
0M00
000M
0000
,
0000
0000
0000
0000
,
0000
0000
0000
0000
0000
0000
0000
0000
000M
0M00
00M0
0M00
000M
M000
000M
0000
,
0000
0000
0000
0000
,
0000
0000
0000
0000
0000
0000
0000
0000
M000
000M
0M00
00M0
0M00
000M
00M0
0000
,
0000
0000
0000
0000
,
0000
0000
0000
0000
0000
0000
0000
0000
000M
0M00
00M0
0M00
000M
M000
000M
0000
,
0000
0000
0000
0000
,
0000
0000
0000
0000
0000
0000
0000
0000
M000
0M00
00M0
000M
M000
000M
M000
0000
,
0000
0000
0000
0000
,
0000
0000
0000
0000
0000
0000
0000
0000
00M0
000M
M000
000M
00M0
0M00
M000
0000
,
0000
0000
0000
0000
,
0000
0000
0000
0000
0000
0000
0000
0000
0M00
00M0
000M
0M00
00M0
M000
0M00
0000
,
0000
0000
0000
0000
,
0000
0000
0000
0000
0000
0000
0000
0000
M000
000M
0M00
00M0
M000
000M
M000
0000
,
0000
0000
0000
0000
,
0000
0000
0000
0000
0000
0000
0000
0000
00M0
0M00
000M
00M0
000M
M000
00M0
0000
,
0000
0000
0000
0000
,
0000
0000
0000
0000
0000
0000
0000
0000
000M
M000
00M0
M000
000M
00M0
000M
0000
,
0000
0000
0000
0000
,
0000
0000
0000
0000
0000
0000
0000
0000
0M00
M000
000M
00M0
000M
M000
00M0
0000
,
0000
0000
0000
0000
,
0000
0000
0000
0000
0000
0000
0000
0000
000M
00M0
0M00
00M0
000M
M000
00M0
0000
,
0000
0000
0000
0000
,
0000
0000
0000
0000
0000
0000
0000
0000
0M00
000M
00M0
000M
M000
0M00
M000
0000
,
0000
0000
0000
0000
,
0000
0000
0000
0000
0000
0000
0000
0000
000M
M000
00M0
M000
000M
00M0
000M
0000
,
0000
0000
0000
0000
,
0000
0000
0000
0000
0000
0000
0000
0000
M000
0M00
00M0
000M
0M00
00M0
0M00
0000
,
0000
0000
0000
0000
,
0000
0000
0000
0000
0000
0000
0000
0000
000M
M000
00M0
0M00
000M
00M0
0M00
0000
,
0000
0000
0000
0000
,
0000
0000
0000
0000
0000
0000
0000
0000
00M0
0M00
00M0
0M00
00M0
0M00
00M0
0000
,
0000
0000
0000
0000
,
0000
0000
0000
0000
0000
0000
0000
0000
0000
0000
0000
0000
M000
000M
0000
M000
,
0000
000M
0000
0M00
0000
00M0
0000
0M00
0000
00M0
0M00
00M0
0000
0000
0000
0000
,
0000
0000
0000
0000
0000
0000
0000
0000
0000
0000
0000
0000
1000
0001
0000
1000
,
0000
0001
0000
0100
0000
0010
0000
0100
0000
0010
0100
0010
0200
0000
0000
0000
,
0000
0000
0300
0000
0000
0000
0001
0100
,
0010
0000
1000
0100
0010
0001
0010
0100
1000
0000
0001
0100
0010
0100
0001
0010
,
0100
0000
1000
0000
0100
0000
0010
0000
0100
0000
1000
0000
0001
1000
0001
0000
0010
0000
0000
0000
0010
0000
0000
0000
0100
0000
0000
0000
1000
0000
0000
0000
,
0010
0000
1000
0010
0100
0001
0100
0010
1000
0000
0001
0010
0100
0000
1000
0010
,
0100
0000
0000
0000
0010
0000
0000
0000
1000
0001
1000
0000
0001
0000
0000
0000
0100
0010
0100
0010
0100
0010
0100
0000
0001
0000
0000
0000
1000
0000
0000
0000
,
0100
0000
0000
0000
0010
0000
0100
0000
1000
0000
0001
0000
0010
0000
0001
0000
1000
0000
0000
0000
0001
0000
0100
0000
0010
0100
0010
0100
0010
0000
1000
0000
,
0001
1000
0001
1000
0001
0000
0010
0000
0100
1000
0100
1000
0100
0000
0010
0000
0001
0000
0000
0000
0001
0000
0000
0000
1000
0000
0000
0000
0010
0000
0000
0000
,
0100
0000
0000
0000
0001
0000
0010
0000
0001
0000
1000
0000
0010
0000
0100
0000
0001
0000
0000
0000
1000
0000
0100
0000
1000
0001
1000
0000
0001
0000
0100
0010
,
0100
0000
0010
0000
0100
0001
0100
0000
0001
0000
1000
0010
1000
0000
0010
0000
0100
0010
0100
0000
0010
0100
0010
0000
1000
0000
0000
0000
0001
0000
0000
0000
,
0010
0000
0001
0100
0010
1000
0010
0100
0001
0000
0100
0010
1000
0000
0010
0000
,
0100
0000
0001
1000
0100
0010
0100
1000
0001
0000
1000
0010
0100
0000
0010
0000
,
1000
0000
0100
0010
0001
0010
0100
1000
0100
0000
1000
0001
0100
0000
0010
0000
,
0100
0000
0000
0000
0001
0000
0010
0000
0001
0000
0100
0000
0010
0000
1000
0000
0010
0000
0000
0000
0100
0000
0010
0000
1000
0001
1000
0001
1000
0000
0010
0000
,
0100
0000
0010
0000
0100
0000
0001
0000
1000
0100
1000
0100
1000
0000
0001
0000
0100
0000
0010
0000
0100
0000
0001
0000
0100
0010
0100
0010
0100
0000
0001
0000
,
1000
0000
0001
0000
0010
0000
0100
0000
0010
0100
0010
0100
0010
0000
0100
0000
1000
0000
0001
0000
0100
0000
0010
0000
0100
0001
0100
0001
0100
0000
0001
0000
,
1000
0001
1000
0001
1000
0000
0100
0000
0010
0001
0010
0001
0010
0000
0100
0000
0010
0100
0010
0100
0010
0000
0100
0000
4000
0004
0000
0000
0000
0000
0000
0000
,
0000
0000
0000
0000
0000
0000
0000
0000
0000
0000
3003
0000
0100
0010
0000
0100
,
0000
0001
0000
1000
0000
0001
0000
1000
0000
0100
0010
0001
2000
0000
0000
0000
,
0000
0000
0000
0000
0000
0000
0000
0000
0000
0000
0000
0000
3001
0100
0001
1000
,
0100
0000
1000
0000
0001
0000
0010
0000
0001
0000
1000
0000
0010
0000
1000
0000
0010
0100
0010
0000
0100
0010
0100
0000
0001
0000
0000
0000
1000
0000
0000
0000
,
0100
0000
1000
0100
0010
0001
0010
0100
1000
0000
0001
0100
0010
0100
0001
1000
,
0001
0010
0100
1000
0100
0010
0100
1000
0002
0000
0103
0000
0010
0000
0100
0000
,
0001
0000
1000
0010
0100
0001
0100
0010
1000
0000
0001
0010
0100
0000
1000
0001
,
1000
0010
0100
0010
1000
2001
3001
0100
,
0010
0000
1000
0100
0010
0001
0100
0010
1000
0000
0001
0010
0001
1000
0010
0100
,
0010
1000
0001
0010
0100
0010
0001
1000
0002
0000
1003
0000
0010
0000
0100
0000
,
0001
0000
0010
0100
0010
0001
1000
0010
0100
0000
0010
0100
0001
0100
0001
1000
,
0100
1000
0001
0010
0001
1000
0010
1000
0010
0000
0010
0000
0100
0000
0001
0000
,
1000
0000
0100
0010
0001
0100
0010
1000
0100
0000
1000
0001
0100
0010
0100
0001
,
0010
0100
0010
0001
1000
0010
0100
0010
0200
0000
0301
0000
1000
0000
0100
0000
,
1000
0000
0001
0100
0010
0100
0010
1000
0001
0000
0010
0100
1000
0000
0001
0100
,
0010
1000
0001
1000
0100
0210
0310
0001
,
1000
0000
0010
0100
0001
1000
0001
0010
0100
0000
1000
0001
1000
0010
0100
0001
,
1000
0000
0001
0000
0010
0000
0100
0000
0010
0000
0001
0000
1000
0000
0010
0000
0200
0000
0000
0000
0301
0000
0000
0000
1000
0001
1000
0001
1000
0000
0010
0000
,
0100
0000
0001
0000
1000
0000
0001
0000
0010
0100
0010
0100
0010
0000
0001
0000
1000
0000
0001
0000
0100
0000
0010
0000
1000
0000
0010
0000
1000
0000
0001
0000
,
0010
0000
0001
0000
1000
0000
0100
0000
1000
0000
0001
0000
0100
0000
0001
0000
1000
0100
1000
0000
0100
1000
0100
0000
0010
0000
0001
0000
1000
0000
0001
0000
,
0100
0010
0100
0001
1000
0001
0010
0100
1000
0100
0010
0001
1000
0010
0100
0010
,
1000
0001
1000
0010
0100
0001
1000
0001
0010
0100
1000
0001
1000
0001
1000
0010
,
0100
0010
0100
0001
1000
0001
0010
0100
0010
0001
1000
0001
1000
0010
0100
0010
,
1000
0001
1000
0100
0010
0001
0010
0001
1000
0010
0100
0010
1000
0001
1000
0001
,
0010
0100
1000
0100
0010
0001
1000
0001
1000
0010
0100
0010
1000
0001
1000
0100
,
0010
0100
1000
0001
1000
0010
0100
0010
1000
0001
1000
0001
0010
0100
1000
0001
,
1000
0100
0010
0100
1000
0001
0100
0010
0100
0010
1000
0001
1000
0100
1000
0100
,
0010
0000
0001
0000
0010
0000
0001
0000
1000
0000
0001
0000
1000
0000
0001
0000
0100
0010
0100
0000
0010
0100
0010
0000
2000
0000
0000
0000
0000
0000
0000
0000
,
0000
0000
0000
0000
0000
0000
0000
0000
0000
0000
0000
0000
3001
0010
0000
0001
,
0000
0000
1000
0000
0000
0000
0010
0000
0000
0000
0100
0000
0001
0000
1000
0000
0001
1000
0001
1000
0001
1000
0001
1000
0001
0000
0100
0000
0010
0000
0000
0000
,
1000
0000
0001
0000
0010
0100
1000
0001
0000
1000
0010
0100
0001
1000
0001
0000
,
0100
0000
0010
0000
1000
0100
1000
0001
0000
0100
0010
1000
0001
1000
0100
0000
,
0010
0000
0001
0000
0100
0010
0000
0100
0001
0000
1000
0001
0010
0100
1000
0001
,
1000
0010
0100
0010
0000
1000
0001
1000
0001
0010
0100
1000
0001
0010
0100
0000
,
1000
0010
0000
0100
0001
1000
0000
0001
0010
0100
1000
0001
1000
0010
0100
0000
,
0010
1000
0000
0001
1000
0001
0000
1000
0020
0000
0230
0000
0301
0010
0100
0000
,
1000
0010
0000
0100
0001
1000
0000
0100
1000
0001
1000
0001
0100
0010
0100
0010
,
1000
0001
1000
0001
0010
0100
1000
0001
1000
0010
0100
0001
1000
0000
0100
0000
,
0110
0000
0010
0001
1000
0000
0010
0000
0110
0000
0100
0001
1000
0000
0100
0000
,
1100
0000
1000
0000
0001
0000
0100
0000
0110
0000
0010
1000
0001
0000
1000
0000
,
1001
0000
0001
0010
0100
0000
0010
0000
1001
0000
1000
0010
0100
0000
0010
0000
,
1010
0000
1000
0000
0001
0000
0010
0000
0110
0000
0100
0000
1000
0001
1000
0001
,
0100
0010
0100
0010
1000
0010
1000
0010
0100
0001
0100
0001
1000
0100
1000
0100
,
0010
0001
0010
0001
0100
0010
0100
0010
1000
0010
1000
0010
0100
0001
1000
0001
,
0010
0100
0010
0001
1000
0010
0100
0010
1000
0001
1000
0001
0010
0100
0000
1000
,
0100
0000
0000
0000
0010
0000
0001
0000
0000
0000
1000
0000
0001
0000
0100
0000
0010
0100
0010
0000
1000
0010
1000
0000
0001
0000
1000
0100
1000
0000
0100
0000
,
0010
0001
0010
0000
0100
1000
0100
0000
0010
0000
0001
1000
0001
0000
0100
0000
0010
1000
0010
0000
0100
0010
0100
0000
0001
0000
1000
0100
1000
0000
0001
0000
,
1000
0000
0010
0100
0010
0000
1000
0000
0001
0000
0010
0100
0010
0000
0001
0000
1000
0000
0010
0100
0010
0000
1000
0000
0001
0010
0001
0000
0010
0100
0010
0000
,
0100
1000
0100
0000
1000
0001
1000
0000
0001
1000
0001
0000
0100
0010
0100
0000
0010
1000
0010
0000
0100
0001
0100
0000
0001
0000
1000
0000
0000
0000
0100
0000
,
0000
0010
0000
0100
0000
1000
0000
0001
0000
0100
0010
0100
0002
0000
0000
0000
,
0000
0000
0000
1003
;
