#TITLE:NullPoGa;
#SUBTITLE:;
#ARTIST:DJ Sharpnel;
#TITLETRANSLIT:;
#SUBTITLETRANSLIT:;
#ARTISTTRANSLIT:;
#CREDIT:;
#BANNER:nullpoga bn.png;
#BACKGROUND:nullpoga bg.png;
#LYRICSPATH:;
#CDTITLE:;
#MUSIC:NullPoGa.ogg;
#OFFSET:0.007;
#SAMPLESTART:136.182;
#SAMPLELENGTH:21.572;
#SELECTABLE:YES;
#DISPLAYBPM:178.000;
#BPMS:0.000=178.000;
#STOPS:;
#BGCHANGES:;
// cache tags:
#FIRSTBEAT:4.000;
#LASTBEAT:676.000;
#SONGFILENAME:Songs/SHARPNELSTREAMZ v2/NullPoGa/NullPoGa.sm;
#HASMUSIC:1;
#HASBANNER:1;
#MUSICLENGTH:229.230;
// end cache tags

//---------------dance-single - 15+ (@@)----------------
#NOTES:
     dance-single:
     15+ (@@):
     Challenge:
     15:
     1.000,1.000,0.009,0.087,1.000,2311.000,2.000,20.000,4.000,0.000:
0000
0000
0000
0000
,
1000
0100
0010
0100
1000
0001
1000
0001
0100
0010
1000
0001
0100
0001
1000
0100
,
0010
0100
1000
0001
0100
0010
0100
0010
1000
0001
0100
0010
0100
0001
1000
0100
,
0010
0100
1000
0001
0010
0100
0010
0100
1000
0001
0100
0001
1000
0010
1000
0001
,
0010
0100
0010
0001
1000
0010
1000
0010
0100
0001
1000
0010
1000
0001
0010
0100
,
1000
0001
0010
0001
1000
0100
1000
0100
1000
0001
0100
0010
0100
0001
1000
0100
,
1000
0001
0010
0001
1000
0010
1000
0010
0100
0001
1000
0010
1000
0001
1000
0100
,
0010
0001
0010
0100
1000
0001
1000
0001
0100
0010
1000
0001
0100
0001
1000
0100
,
0010
0100
1000
0001
0100
0010
0100
0010
1000
0001
0100
0001
1000
0100
0010
0001
,
0100
0010
1000
0010
0100
0001
0100
0001
1000
0100
0010
0001
1000
0001
0100
0010
,
1000
0010
0100
0001
1000
0100
1000
0100
0010
0001
0010
0100
0010
0001
1000
0010
,
0100
0010
1000
0001
0100
0010
0100
0010
1000
0001
0010
0001
1000
0100
1000
0001
,
0100
0010
0100
0001
1000
0100
1000
0100
0010
0001
1000
0100
1000
0001
0100
0010
,
1000
0001
0100
0001
1000
0010
1000
0010
1000
0001
0010
0100
0010
0001
1000
0010
,
1000
0001
0100
0001
1000
0100
1000
0100
0010
0001
1000
0001
0010
0100
1000
0001
,
0100
0010
1000
0010
0100
0001
0100
0001
1000
0100
1000
0001
0010
0001
1000
0010
,
0100
0010
1000
0001
0010
0100
0010
0100
1000
0001
0100
0001
1000
0010
0100
0001
,
0010
0100
0010
0001
0100
0010
0100
0010
1000
0001
0100
0001
0010
0100
1000
0001
,
1000
0010
0100
0010
1000
0100
1000
0100
1000
0001
0100
0010
1000
0100
1000
0001
,
0010
0100
0010
0001
0100
0010
0100
0010
1000
0001
0100
0001
0010
0100
1000
0001
,
0100
0010
0100
0001
0010
0100
0010
0100
1000
0001
0100
0010
1000
0100
0010
0001
,
1000
0001
0010
0100
1000
0010
1000
0010
0100
0001
1000
0010
1000
0100
1000
0001
,
0100
0010
0100
0001
0010
0100
0010
0100
1000
0001
0100
0001
0010
0100
1000
0001
,
0010
0100
0010
0001
0100
0010
0100
0010
1000
0001
0100
0001
0010
0100
1000
0001
,
1000
0010
0100
0001
0010
0100
0010
0100
1000
0001
0010
0001
0100
0010
1000
0100
,
1000
0010
0100
0001
0010
0100
0010
0100
1000
0001
0010
0001
0100
0010
1000
0001
,
1000
0100
0010
0100
1000
0010
1000
0010
1000
0001
0010
0100
1000
0010
1000
0001
,
0100
0010
0100
0001
0010
0100
0010
0100
1000
0001
0010
0001
0100
0010
1000
0001
,
0010
0100
0010
0001
0100
0010
0100
0010
1000
0001
0010
0100
1000
0010
0100
0001
,
1000
0001
0100
0010
1000
0100
1000
0100
0010
0001
1000
0100
1000
0010
1000
0001
,
0010
0100
0010
0001
0100
0010
0100
0010
1000
0001
0010
0001
0100
0010
1000
0001
,
0100
0010
0100
0001
1000
0100
1000
0100
0010
0001
1000
0001
0100
0010
1000
0001
,
1000
0100
0010
0001
0100
0010
1000
0001
0100
0010
0100
0001
0010
0100
1000
0010
,
0100
0001
1000
0010
1000
0100
0010
0001
1000
0010
1000
0001
1000
0100
0010
0001
,
1000
0100
1000
0001
0010
0001
1000
0010
1000
0100
0010
0100
1000
0001
0010
0001
,
0100
0010
0100
0001
0010
0100
1000
0100
0010
0001
1000
0001
0100
0001
1000
0010
,
0100
0010
1000
0001
0100
0001
1000
0010
1000
0100
0010
0001
0010
0100
1000
0010
,
1000
0001
0100
0010
0100
0001
0010
0001
1000
0010
1000
0001
1000
0100
0010
0100
,
1000
0001
0010
0100
1000
0001
0100
0001
0010
0100
1000
0001
0010
0100
0010
0001
,
0100
0001
1000
0010
1000
0100
0010
0100
1000
0001
0010
0001
1000
0001
0100
0010
,
1000
0001
0010
0001
1000
0001
0100
0001
1000
0100
1000
0001
1000
0010
0100
0001
,
0010
0001
1000
0100
1000
0010
0100
0001
1000
0100
1000
0001
1000
0010
0100
0001
,
1000
0010
1000
0001
0100
0001
1000
0100
1000
0010
0100
0010
1000
0001
0100
0001
,
0010
0100
0010
0001
0100
0010
1000
0010
0100
0001
1000
0001
0010
0001
1000
0100
,
0010
0100
1000
0001
0010
0001
1000
0100
1000
0010
0100
0001
0100
0010
1000
0100
,
1000
0001
0010
0100
0010
0001
0100
0001
1000
0100
1000
0001
1000
0010
0100
0010
,
1000
0001
0100
0010
1000
0001
0010
0001
0100
0010
1000
0001
0100
0010
0100
0001
,
0010
0001
1000
0100
1000
0010
0100
0010
1000
0001
0100
0001
1000
0001
0010
0100
,
1000
0001
0100
0001
1000
0001
0010
0001
1000
0010
1000
0001
1000
0100
0010
0001
,
0100
0001
1000
0010
1000
0100
0010
0100
1000
0001
0010
0001
1000
0001
0100
0010
,
1000
0001
1000
0100
0010
0001
1000
0010
1000
0100
0010
0100
1000
0001
0010
0001
,
0100
0010
0100
0001
0010
0100
0010
0001
1000
0100
1000
0001
1000
0010
0100
0001
,
0100
0010
1000
0001
0100
0001
1000
0010
1000
0100
0010
0001
0010
0100
1000
0010
,
1000
0001
0100
0010
0100
0001
0010
0100
1000
0001
0100
0001
1000
0001
0010
0100
,
0010
0001
1000
0100
1000
0001
0100
0001
0010
0100
1000
0001
0010
0100
0010
0001
,
0100
0001
1000
0010
1000
0100
0010
0100
1000
0001
1000
0010
1000
0001
0010
0100
,
1000
0001
1000
0010
1000
0001
1000
0100
0010
0001
1000
0001
0100
0001
0010
0100
,
0010
0001
1000
0100
1000
0010
0100
0010
1000
0001
0100
0001
1000
0001
0010
0100
,
1000
0001
1000
0010
0100
0001
1000
0100
1000
0010
0100
0010
1000
0001
0100
0001
,
0010
0100
0010
0001
0100
0010
0100
0001
1000
0010
1000
0001
1000
0100
0010
0001
,
0010
0100
1000
0001
0010
0001
1000
0100
1000
0010
0100
0001
0100
0010
1000
0100
,
1000
0001
0010
0100
0010
0001
0100
0010
1000
0001
0010
0001
1000
0001
0100
0010
,
0100
0001
1000
0010
1000
0001
0010
0001
0100
0010
1000
0001
0100
0010
0100
0001
,
0010
0001
1000
0100
1000
0010
0100
0010
1000
0001
1000
0100
1000
0001
0100
0010
,
1000
0001
1000
0100
1000
0001
1000
0010
0100
0001
1000
0001
0010
0100
1000
0010
,
0100
0000
0000
0000
,
0000
0000
0000
0000
,
0002
0003
0000
0000
0000
0000
0000
0000
0020
0030
0000
0000
0000
0000
0000
0000
,
0200
0300
0000
0000
0000
0000
0000
0000
0000
0000
0000
0000
0000
0000
0000
0000
,
1000
0001
2000
3000
0000
0000
0000
0000
0001
0010
0002
0003
0000
0000
0000
0000
,
0010
0100
0020
0030
0000
0000
0000
0000
0000
0000
0000
0000
0000
0000
0000
0000
,
0001
1000
0002
0003
0000
0000
0000
0000
0010
0001
0020
0030
0000
0000
0000
0000
,
0100
0010
0200
0300
0000
0000
0000
0000
1000
0010
2000
3000
0000
0000
0000
0000
,
0001
0100
0002
0003
0000
0000
0000
0000
0000
0000
0000
0000
0000
0000
0000
0000
,
0010
0100
0020
0030
0000
0000
0000
0000
0000
0000
0000
0000
0000
0000
0000
0000
,
2002
0000
0000
0000
,
0000
0000
0000
0000
,
0000
0000
0000
0000
,
3003
0000
0000
0000
,
0001
1000
0002
0003
0000
0000
0000
0000
0100
0001
0200
0300
0000
0000
0000
0000
,
0010
0100
0020
0030
0000
0000
0000
0000
1000
0100
2000
3000
0000
0000
0000
0000
,
0001
0010
0002
0003
0000
0000
0000
0000
0000
0000
0000
0000
0000
0000
0000
0000
,
1000
0100
0010
0001
0010
0100
1000
0010
0100
0001
0100
0010
1000
0010
0100
0001
,
0010
0000
0100
1000
0010
0100
0001
1000
,
0001
0001
0010
0100
1000
0010
0100
0001
,
1000
0100
1000
0000
0001
0000
0010
0000
0100
0010
0100
0000
1000
0000
0010
0000
,
0100
0001
0100
0000
0010
1000
0010
0000
0100
0001
0100
0000
0010
1000
0010
0000
,
1000
0100
1000
0000
0001
0010
0001
0000
1000
0010
1000
0000
0001
0100
0001
0000
,
1000
0100
1000
0000
0100
0010
0100
0000
1000
0010
1000
0000
0001
0100
0001
0000
,
0010
0100
0010
0000
0001
1000
0001
0000
0010
0001
0010
0000
0100
1000
0100
0000
,
1000
0010
1000
0000
0001
1000
0001
0000
0100
0010
0100
0000
0001
0100
0001
0000
,
0010
0100
0010
0000
0001
0010
0001
0000
1000
0010
1000
0000
0010
0100
0010
0000
,
1000
0001
1000
0000
0010
1000
0010
0000
0100
0001
0100
0000
0010
1000
0010
0000
,
1000
0100
1000
0000
0001
1000
0001
0000
0100
0010
0100
0000
0001
1000
0001
0000
,
0010
0001
0010
0000
0100
1000
0100
0000
0010
0001
0010
0000
0100
1000
0100
0000
,
1000
0010
1000
0000
0001
0100
0001
0000
1000
0100
1000
0000
0001
0010
0001
0000
,
1000
0010
1000
0000
0010
0100
0010
0000
1000
0100
1000
0000
0001
0010
0001
0000
,
1000
0100
0010
0100
1000
0001
0010
0100
1000
0001
0010
0001
1000
0100
0010
0001
,
0100
0010
1000
0001
0100
0001
1000
0010
1000
0001
0100
0001
0020
0000
0030
0000
,
1001
0000
0000
0000
,
0000
0000
0000
0000
0001
0010
0100
0010
0001
0100
0010
1000
0100
0010
0100
1000
,
0010
0100
0010
0100
0001
1000
0100
1000
0010
0100
0001
1000
0001
0010
0100
0010
,
0001
0100
0001
0100
0001
1000
0100
0010
0001
0100
0001
1000
0010
0100
0001
0010
,
0100
1000
0100
1000
0001
0100
0010
1000
0100
0010
0100
1000
0001
0100
0010
1000
,
0100
0010
0100
0010
0001
1000
0010
1000
0100
0010
0001
0010
0100
1000
0010
0100
,
0010
1000
0010
1000
0001
0010
0100
1000
0010
0100
0001
1000
0001
0010
0100
1000
,
0010
0100
0010
0100
0001
1000
0100
1000
0010
0100
0001
0100
0010
1000
0100
1000
,
0001
0010
0001
0010
0001
1000
0010
0100
0001
0010
0100
1000
0001
0100
0010
1000
,
0100
0010
0100
0010
0001
1000
0100
1000
0010
0100
0010
1000
0001
0010
0001
1000
,
0100
0010
0100
0010
0001
1000
0010
1000
0100
0010
0001
1000
0001
0100
0010
0100
,
0001
0010
0001
0010
0001
1000
0010
0100
0001
0010
0001
1000
0100
0010
0001
0100
,
0010
1000
0010
1000
0001
0010
0100
1000
0010
0100
0010
1000
0001
0010
0100
1000
,
0010
0100
0010
0100
0001
1000
0100
1000
0010
0100
0001
0100
0010
1000
0100
0010
,
0100
1000
0100
1000
0001
0100
0010
1000
0100
0010
0001
1000
0001
0100
0010
1000
,
0100
0010
0100
0010
0001
1000
0010
1000
0100
0010
0001
0010
0100
1000
0010
1000
,
0001
0100
0001
0100
0001
1000
0100
0010
0001
0100
0010
1000
0001
0010
0100
1000
,
0010
0100
0010
0100
0001
1000
0010
1000
0100
0010
0100
1000
0001
0100
0001
1000
,
0100
0010
0100
0010
0001
1000
0010
1000
0100
0010
0100
1000
0001
0100
0010
0100
,
0001
0010
0001
0010
0001
1000
0010
0100
0001
0010
0100
1000
0001
0010
0001
0100
,
0010
1000
0010
1000
0001
0010
0001
0100
0010
1000
0001
1000
0100
0010
0100
1000
,
0010
0100
0010
0100
0001
1000
0100
1000
0010
0100
0010
1000
0001
0100
0001
0010
,
0100
1000
0100
1000
0001
0100
0010
1000
0100
0010
0001
1000
0010
0100
0010
1000
,
0100
0010
0100
0010
0001
1000
0010
1000
0100
0010
0001
1000
0100
1000
0010
1000
,
0001
0100
0001
0100
0001
1000
0100
1000
0010
0100
0001
1000
0100
0010
0100
1000
,
0010
0100
0010
0100
0001
1000
0100
1000
0010
0100
0001
1000
0100
0010
0001
1000
,
0010
0100
0010
0100
0001
1000
0100
1000
0010
0100
0010
1000
0001
0010
0100
0010
,
0001
0100
0001
0100
0001
1000
0100
0010
0001
0100
0010
1000
0001
0100
0001
0010
,
0100
1000
0100
1000
0001
0100
0001
0010
0100
1000
0001
1000
0010
0100
0010
1000
,
0100
0010
0100
0010
0001
1000
0010
1000
0100
0010
0100
1000
0001
0010
0001
0100
,
0010
1000
0010
1000
0001
0010
0100
1000
0010
0100
0001
1000
0100
0010
0100
1000
,
0010
0100
0010
0100
0001
1000
0100
1000
0010
0100
0001
0100
0010
1000
0100
1000
,
0001
0010
0001
0010
0001
1000
0010
1000
0100
0010
0001
1000
0010
0100
0010
1000
,
0100
0010
0001
0100
0010
0100
0001
0010
0100
1000
0010
1000
0001
1000
0100
0010
,
0001
0010
0100
0010
0001
1000
0001
1000
0010
0100
0001
1000
0010
1000
0001
0010
,
0100
0010
0001
1000
0010
0100
0010
0100
0001
1000
0010
0100
0010
1000
0001
0010
,
0100
0010
0001
1000
0100
0010
0100
0010
0001
1000
0010
1000
0001
0100
0001
1000
,
0100
0010
0100
1000
0001
0100
0001
0100
0010
1000
0001
0100
0001
1000
0100
0010
,
0001
1000
0100
1000
0001
0010
0001
0010
0001
1000
0010
0100
0010
1000
0001
0010
,
0001
1000
0100
1000
0001
0100
0001
0100
0010
1000
0001
0100
0001
1000
0001
0010
,
0100
1000
0100
0010
0001
1000
0001
1000
0010
0100
0001
1000
0010
1000
0001
0010
,
0100
0010
0001
1000
0010
0100
0010
0100
0001
1000
0010
1000
0001
0010
0100
1000
,
0010
0100
0001
0100
0010
1000
0010
1000
0001
0010
0100
1000
0001
1000
0010
0100
,
0001
0100
0010
1000
0001
0010
0001
0010
0100
1000
0100
0010
0100
1000
0001
0100
,
0010
0100
0001
1000
0010
0100
0010
0100
0001
1000
0100
1000
0001
0010
0001
1000
,
0010
0100
0010
1000
0001
0010
0001
0010
0100
1000
0001
0010
0001
1000
0010
0100
,
0001
1000
0010
1000
0001
0100
0001
0100
0001
1000
0100
0010
0100
1000
0001
0100
,
0001
1000
0010
1000
0001
0010
0001
0010
0100
1000
0001
1000
0100
0010
0001
1000
,
0010
0100
0001
0100
0010
1000
0010
1000
0001
0010
0001
1000
0100
1000
0001
0100
,
0010
0100
0001
1000
0100
0010
0100
0010
0001
1000
0010
1000
0001
0100
0010
1000
,
0100
0010
0100
1000
0010
0100
0010
0100
0001
1000
0010
1000
0100
0010
0001
1000
,
0001
0100
0010
0100
0001
0010
0001
0010
0001
1000
0010
0100
0001
0010
0001
1000
,
0100
0010
0100
1000
0010
0100
0010
0100
0001
1000
0010
1000
0100
0010
0001
1000
,
0010
0100
0010
1000
0100
0010
0100
0010
0001
1000
0010
0100
0001
0010
0100
1000
,
0001
1000
0100
0010
0001
0100
0001
0100
0010
1000
0001
0100
0001
0010
0001
1000
,
0010
0100
0010
1000
0100
0010
0100
0010
0001
1000
0010
1000
0100
0010
0001
1000
,
0100
0010
0100
1000
0010
0100
0010
0100
0001
1000
0010
1000
0100
0010
0001
1000
,
0001
0100
0010
1000
0100
0010
0100
0010
0001
1000
0100
1000
0010
0100
0001
0010
,
0001
0100
0010
1000
0100
0010
0100
0010
0001
1000
0100
1000
0010
0100
0001
1000
,
0001
0010
0100
0010
0001
0100
0001
0100
0001
1000
0100
0010
0001
0100
0001
1000
,
0010
0100
0010
1000
0100
0010
0100
0010
0001
1000
0100
1000
0010
0100
0001
1000
,
0100
0010
0100
1000
0010
0100
0010
0100
0001
1000
0100
0010
0001
0100
0010
1000
,
0001
1000
0010
0100
0001
0010
0001
0010
0100
1000
0001
0010
0001
0100
0001
1000
,
0100
0010
0100
1000
0010
0100
0010
0100
0001
1000
0100
1000
0010
0100
0010
1000
,
0001
0100
0001
0010
0100
1000
0100
1000
0001
0010
0100
1000
0010
0100
0001
1000
,
0001
0010
0100
1000
0010
0100
0001
1000
0010
0100
0010
1000
0100
0010
0001
0100
,
0010
0000
0000
0000
,
0000
0000
0000
0000
,
0000
0000
0000
0000
,
0000
0000
0000
0000
,
MMMM
0000
0000
0000
;

//---------------dance-single - 14+ (@@TYLR)----------------
#NOTES:
     dance-single:
     14+ (@@TYLR):
     Hard:
     14:
     1.000,1.000,0.183,0.100,1.000,2089.000,42.000,23.000,11.000,0.000:
0000
0000
0000
0000
,
0001
0000
1000
0000
1100
0000
0100
1000
0001
1000
0001
0000
0100
0000
0010
0000
,
1000
0000
0001
0000
1001
0000
1000
0001
0010
0100
0010
0000
0001
0000
1000
0000
,
0010
0000
0100
0000
0101
0000
0001
0100
0010
1000
0001
0000
1000
0000
1100
0000
,
1000
0000
0001
0000
0101
0000
0100
0010
0100
0001
M010
0000
0100
0000
1000
0000
,
0001
0000
0001
0000
0101
0000
0100
0001
1000
0001
1000
0000
0100
0000
0010
0000
,
0001
0000
1000
0000
1001
0000
0001
1000
0010
0100
0010
0000
1000
0000
0001
0000
,
0010
0000
0100
0000
1100
0000
1000
0100
0010
0001
1000
0000
0001
0000
0101
0000
,
0001
0000
1000
0000
1100
0000
0100
0010
0100
1000
001M
0000
0100
0000
0001
0000
,
1MM1
0000
1000
0000
1010
0000
0010
0100
0001
1000
0001
0000
0100
0010
1000
0000
,
0001
0000
0010
0000
0110
0000
0100
0010
0001
1000
0001
0000
0100
0000
0001
1000
,
0010
0000
0100
0000
0101
0000
0001
0100
0010
1000
0001
0000
1000
0000
1100
0000
,
0100
0010
0100
0000
1100
0000
1000
0100
1000
0010
010M
0000
0010
0000
1000
0000
,
0001
0000
0001
0000
0011
0000
0010
0100
1000
0001
1000
0000
0100
0010
0001
0000
,
1000
0000
0010
0000
0110
0000
0100
0010
1000
0001
1000
0000
0100
0000
1000
0001
,
0010
0000
0100
0000
1100
0000
1000
0100
0010
0001
1000
0000
0001
0000
0101
0000
,
0100
0010
0100
0000
0101
0000
0001
0100
0001
0010
M100
0000
0010
0000
0001
0000
,
1MM1
0000
1000
0000
1010
0000
0010
0100
0001
0100
0010
0000
1010
0000
1000
0001
,
0010
0000
0100
0000
1100
0000
1000
0100
0010
0001
1000
0000
1001
0000
0001
1000
,
0010
0000
0100
0000
0101
0000
0001
0100
0010
1000
0001
0000
1001
0000
1000
0100
,
0010
0000
0001
0000
1001
0000
1000
0001
0010
0100
1000
0000
1001
0000
0001
1000
,
0010
0000
0100
0000
0101
0000
0001
0100
0010
1000
0001
0000
1001
0000
1000
0001
,
0010
0000
0100
0000
1100
0000
1000
0100
0010
0001
0010
0000
1001
0000
0001
1000
,
0010
0000
0100
0000
0101
0000
0001
0100
0010
1000
0001
0000
1001
0000
1000
0001
,
0010
0000
0100
0000
1100
0000
1000
0100
0010
0001
1000
0000
1001
0000
0001
0000
,
10M0
0001
0100
0001
1000
0010
0100
0000
0001
1000
0100
0000
1000
0001
0010
0001
,
1000
0010
0100
0001
1000
0001
0100
0000
0010
1000
0100
0000
1000
0001
0010
0001
,
1000
0010
0100
0001
1000
0010
1000
0000
0001
0010
0100
0000
1000
0100
0010
0001
,
1000
0001
0100
0001
1000
0010
0100
0000
0001
1000
0100
0000
0010
0100
1000
0001
,
0010
0100
0010
0001
1000
0001
0100
0000
0010
1000
0001
0000
1000
0010
0100
0001
,
0010
0100
1000
0100
0010
0001
0100
0000
0010
1000
0100
0000
0010
0100
1000
0001
,
0100
0010
1000
0001
0100
0001
1000
0000
0100
0010
0001
0000
1000
0001
0010
0100
,
1000
0001
0100
0001
1000
0010
0100
0001
0010
0100
1000
0100
0010
0000
M00M
0000
,
0010
1000
0001
1000
0001
0010
0100
1000
0001
0100
0001
1000
0001
0010
0100
1000
,
0001
0010
0001
1000
0100
1000
0001
0100
0001
0010
0100
0010
0001
1000
0100
1000
,
0010
0100
0010
1000
0100
0010
0001
0010
0100
1000
0001
1000
0010
1000
0001
0100
,
0010
0100
0001
1000
0010
1000
0001
0100
0001
0010
0100
1000
0100
0010
0001
0100
,
0001
1000
0010
0100
0010
1000
0100
1000
0001
0100
0001
1000
0001
0010
0100
0010
,
0001
1000
0100
0010
0001
1000
0010
1000
0100
0010
0001
1000
0100
0010
0100
1000
,
0010
1000
0001
0100
0001
0010
0100
0010
0001
1000
0100
1000
0001
1000
0010
0100
,
0001
1000
0100
1000
0001
1000
0010
1000
0001
0010
0001
1000
0001
0100
0010
1000
,
0100
1000
0001
0010
0001
0100
0010
1000
0001
0010
0001
1000
0001
0100
0010
1000
,
0001
0100
0001
1000
0010
1000
0001
0010
0001
0100
0010
0100
0001
1000
0010
1000
,
0100
0010
0100
1000
0010
0100
0001
0100
0010
1000
0001
1000
0100
1000
0001
0010
,
0100
0010
0001
1000
0100
1000
0001
0010
0001
0100
0010
1000
0010
0100
0001
0010
,
0001
1000
0100
0010
0100
1000
0010
1000
0001
0010
0001
1000
0001
0100
0010
0100
,
0001
1000
0010
0100
0001
1000
0100
1000
0010
0100
0001
1000
0010
0100
0010
1000
,
0100
1000
0001
0010
0001
0100
0010
0100
0001
1000
0010
1000
0001
1000
0100
0010
,
0001
1000
0010
1000
0001
1000
0100
1000
0001
0100
0001
1000
0001
0010
0100
1000
,
0010
1000
0001
0100
0001
0010
0100
0010
0001
1000
0100
1000
0001
1000
0010
0100
,
0001
1000
0001
0010
0100
1000
0001
0100
0001
0010
0100
0010
0001
1000
0100
1000
,
0010
0100
0010
1000
0100
0010
0100
1000
0001
0010
0001
1000
0001
0100
0010
1000
,
0010
0100
0001
1000
0010
1000
0001
0100
0001
0010
0100
1000
0100
0010
0001
0100
,
0001
1000
0010
0100
0010
1000
0100
0010
0001
1000
0010
1000
0001
1000
0100
0010
,
0100
1000
0001
0010
0001
1000
0010
1000
0100
0010
0001
1000
0100
0010
0100
1000
,
0010
1000
0001
0100
0001
0010
0100
0010
0001
1000
0001
0100
0001
1000
0100
0010
,
0001
1000
0001
0100
0001
1000
0001
0010
0100
1000
0001
1000
0010
1000
0100
0010
,
0100
1000
0001
0010
0001
0100
0010
0100
0001
1000
0010
1000
0001
1000
0100
0010
,
0001
1000
0001
0100
0010
1000
0001
0010
0001
0100
0010
0100
0001
1000
0010
1000
,
0100
0010
0100
1000
0010
0100
0010
1000
0001
0100
0001
1000
0001
0010
0100
1000
,
0100
0010
0001
1000
0100
1000
0001
0010
0001
0100
0010
1000
0010
0100
0001
0010
,
0001
1000
0100
0010
0100
1000
0010
0100
0001
1000
0100
1000
0001
1000
0010
0100
,
0010
1000
0001
0100
0001
1000
0100
1000
0010
0100
0001
1000
0010
0100
0010
1000
,
0100
1000
0001
0010
0001
0100
0010
0100
0001
1000
0001
0010
0001
1000
0010
0100
,
0001
1000
0001
0010
0001
1000
0001
0100
0010
1000
0001
1000
0100
0010
0001
0100
,
0010
0000
0000
0000
,
0000
0000
0000
0000
,
2000
3000
0000
0000
0000
0000
0000
0000
0200
0300
0000
0000
0000
0000
0000
0000
,
0020
0030
0000
0000
0000
0000
0000
0000
0000
0000
0000
0000
0000
0000
0000
0000
,
0001
1000
0002
0003
0000
0000
0000
0000
1000
0100
2000
3000
0000
0000
0000
0000
,
0100
0010
0200
0300
0000
0000
0000
0000
0000
0000
0000
0000
0000
0000
0000
0000
,
1000
0001
2000
3000
0000
0000
0000
0000
0100
1000
0200
0300
0000
0000
0000
0000
,
0010
0100
0020
0030
0000
0000
0000
0000
0001
0100
0002
0003
0000
0000
0000
0000
,
1000
0010
2000
3000
0000
0000
0000
0000
0000
0000
0000
0000
0000
0000
0000
0000
,
0100
0010
0200
0300
0000
0000
0000
0000
0000
0000
0000
0000
0000
0000
0000
0000
,
2002
0000
0000
0000
,
0000
0000
0000
0000
,
0000
0000
0000
0000
,
0000
0000
3003
0000
,
1000
0001
2000
3000
0000
0000
0000
0000
0010
1000
0020
0030
0000
0000
0000
0000
,
0100
0010
0200
0300
0000
0000
0000
0000
0001
0010
0002
0003
0000
0000
0000
0000
,
1000
0100
2000
3000
0000
0000
0000
0000
0000
0000
0000
0000
0000
0000
0000
0000
,
0001
0010
0100
1000
0100
0010
0001
0100
0010
1000
0010
0100
0001
0100
0010
1000
,
0100
0000
0010
0001
0100
0010
1000
0001
,
1000
1000
0100
0010
0001
0100
0010
1000
,
0001
0010
0001
0000
1000
0000
0100
0000
0010
0100
0010
0000
0001
0000
0100
0000
,
0010
1000
0010
0000
0100
0001
0100
0000
0010
1000
0010
0000
0100
0001
0100
0000
,
0001
0010
0001
0000
1000
0100
1000
0000
0001
0100
0001
0000
1000
0010
1000
0000
,
0001
0010
0001
0000
0010
0100
0010
0000
0001
0100
0001
0000
1000
0010
1000
0000
,
0100
0010
0100
0000
1000
0001
1000
0000
0100
1000
0100
0000
0010
0001
0010
0000
,
0001
0100
0001
1000
0010
0100
0010
1000
0001
1000
0100
0010
0001
1000
0001
0010
,
0100
1000
0100
0000
1000
0001
1000
0000
0001
0100
0001
0000
0100
0010
0100
0000
,
0001
1000
0001
0000
0100
0001
0100
0000
0010
1000
0010
0000
0100
0001
0100
0000
,
0001
0010
0001
0000
1000
0001
1000
0000
0010
0100
0010
0000
1000
0001
1000
0000
,
0100
1000
0100
0000
0010
0001
0010
0000
0100
1000
0100
0000
0010
0001
0010
0000
,
0001
0100
0001
0000
1000
0010
1000
0000
0001
0010
0001
0000
1000
0100
1000
0000
,
0001
0100
0001
0000
0100
0010
0100
0000
0001
0010
0001
0000
1000
0100
1000
0000
,
0001
0010
0100
0010
0001
1000
0100
0010
0001
1000
0100
1000
0001
0010
0100
1000
,
0010
0100
0001
1000
0010
1000
0001
0100
0001
1000
0010
1000
0200
0000
0300
0000
,
1001
0000
0000
0000
,
0000
0004
4003
3040
,
0130
0001
0100
0010
1000
0001
0010
0001
0100
0010
1000
0001
1000
0100
0010
0100
,
1000
0010
1000
0010
1000
0001
0010
0100
1000
0010
1000
0001
0100
0010
1000
0100
,
0010
0001
0010
0001
1000
0010
0100
0001
0010
0100
0010
0001
1000
0010
0100
0001
,
0010
0100
0010
0100
1000
0001
0100
0001
0010
0100
1000
0100
0010
0001
0100
0010
,
0100
0001
0100
0001
1000
0100
0010
0001
0100
0010
1000
0001
1000
0100
0010
0001
,
0100
0010
0100
0010
1000
0001
0010
0001
0100
0010
1000
0010
0100
0001
0010
0001
,
1000
0100
1000
0100
1000
0001
0100
0010
1000
0100
0010
0001
1000
0010
0100
0001
,
0010
0100
0010
0100
1000
0001
0010
0001
0100
0010
0100
0001
1000
0100
1000
0001
,
0010
0100
0010
0100
1000
0001
0100
0001
0010
0100
1000
0001
1000
0010
0100
0010
,
1000
0100
1000
0100
1000
0001
0100
0010
1000
0100
1000
0001
0010
0100
1000
0010
,
0100
0001
0100
0001
1000
0100
0010
0001
0100
0010
0100
0001
1000
0100
0010
0001
,
0100
0010
0100
0010
1000
0001
0010
0001
0100
0010
1000
0010
0100
0001
0010
0100
,
0010
0001
0010
0001
1000
0010
0100
0001
0010
0100
1000
0001
1000
0010
0100
0001
,
0010
0100
0010
0100
1000
0001
0100
0001
0010
0100
1000
0100
0010
0001
0100
0001
,
1000
0010
1000
0010
1000
0001
0010
0100
1000
0010
0100
0001
1000
0100
0010
0001
,
0100
0010
0100
0010
1000
0001
0100
0001
0010
0100
0010
0001
1000
0010
1000
0001
,
0010
0100
0010
0100
1000
0001
0100
0001
0010
0100
0010
0001
1000
0010
0100
0010
,
1000
0100
1000
0100
1000
0001
0100
0010
1000
0100
0010
0001
1000
0100
1000
0010
,
0100
0001
0100
0001
1000
0100
1000
0010
0100
0001
1000
0001
0010
0100
0010
0001
,
0100
0010
0100
0010
1000
0001
0010
0001
0100
0010
0100
0001
1000
0010
1000
0100
,
0010
0001
0010
0001
1000
0010
0100
0001
0010
0100
1000
0001
0100
0010
0100
0001
,
0010
0100
0010
0100
1000
0001
0100
0001
0010
0100
1000
0001
0010
0001
0100
0001
,
1000
0010
1000
0010
1000
0001
0010
0001
0100
0010
1000
0001
0010
0100
0010
0001
,
0100
0010
0100
0010
1000
0001
0010
0001
0100
0010
1000
0001
0010
0100
1000
0001
,
0100
0010
0100
0010
1000
0001
0010
0001
0100
0010
0100
0001
1000
0100
0010
0100
,
1000
0010
1000
0010
1000
0001
0010
0100
1000
0010
0100
0001
1000
0010
1000
0100
,
0010
0001
0010
0001
1000
0010
1000
0100
0010
0001
1000
0001
0100
0010
0100
0001
,
0010
0100
0010
0100
1000
0001
0100
0001
0010
0100
0010
0001
1000
0100
1000
0010
,
0100
0001
0100
0001
1000
0100
0010
0001
0100
0010
1000
0001
0010
0100
0010
0001
,
0100
0010
0100
0010
1000
0001
0010
0001
0100
0010
1000
0010
0100
0001
0010
0001
,
1000
0100
1000
0100
1000
0001
0100
0001
0010
0100
1000
0001
0100
0010
0100
0001
,
0010
0100
1000
0010
0100
0010
1000
0100
0010
0001
0100
0001
2000
0000
0000
0000
,
3001
0010
0100
1000
0001
0100
0001
0000
1000
0010
1000
0000
0010
0100
0001
0100
,
0010
1000
0001
1000
0100
0010
0001
0000
1000
0010
1000
0000
0001
0010
0100
0010
,
0001
1000
0001
0100
0010
1000
0001
0000
1000
0100
1000
0000
0001
0010
0100
1000
,
0001
0010
0001
1000
0010
1000
0001
0000
1000
0010
1000
0000
0010
0100
0001
0100
,
0010
1000
0001
1000
0100
0010
0001
0000
1000
0001
1000
0000
0001
0100
0001
1000
,
0001
0010
0100
1000
0001
1000
0001
0000
0100
0001
0100
0000
0010
1000
0001
1000
,
0001
0010
0100
0010
0001
1000
0001
0000
1000
0010
1000
0000
0001
0100
0001
0100
,
0010
1000
0001
1000
0001
0010
0100
0000
1000
0001
1000
0000
0001
1000
0100
1000
,
0010
0100
0001
1000
0001
0100
0010
0000
1000
0001
0010
0000
0001
1000
0100
1000
,
0001
0100
0010
1000
0001
1000
0001
0000
0010
0100
1000
0000
0001
1000
0100
0010
,
0001
1000
0001
1000
0010
0100
0001
0000
0100
0010
1000
0000
0010
0100
0001
1000
,
0001
0010
0100
1000
0010
0100
0001
0000
0100
0010
1000
0000
0100
1000
0001
0010
,
0100
0010
0001
1000
0010
0100
0001
0000
0010
0100
1000
0000
0010
1000
0100
0010
,
0001
1000
0010
0100
0001
1000
0001
0000
0100
0010
1000
0000
0001
0010
0100
1000
,
0010
0100
0010
1000
0100
0010
0001
0000
1000
0001
0010
0000
0100
1000
0010
0100
,
0001
0100
0010
1000
0001
1000
0001
0000
0010
0001
1000
0000
0001
0100
0010
1000
,
0001
0010
0100
1000
0001
0100
0001
0000
1000
0010
1000
0000
0010
0100
0001
0100
,
0010
1000
0001
1000
0100
0010
0001
0000
1000
0010
1000
0000
0001
0010
0100
0010
,
0001
1000
0001
0100
0010
1000
0001
0000
1000
0100
1000
0000
0001
0010
0100
1000
,
0001
0010
0001
1000
0010
1000
0001
0000
1000
0010
1000
0000
0010
0100
0001
0100
,
0010
1000
0010
0100
0001
0010
0100
0000
1000
0001
1000
0000
0001
0100
0001
1000
,
0001
0010
0100
1000
0001
1000
0001
0000
0100
0001
0100
0000
0010
1000
0001
1000
,
0001
0010
0100
0010
0001
1000
0001
0000
1000
0010
1000
0000
0001
0100
0001
0100
,
0010
1000
0001
1000
0001
0010
0100
0000
1000
0001
1000
0000
0001
1000
0100
1000
,
0010
0100
0001
1000
0001
0100
0010
0000
1000
0001
0010
0000
0001
1000
0100
1000
,
0001
0100
0010
1000
0001
1000
0001
0000
0010
0100
1000
0000
0001
1000
0100
0010
,
0001
1000
0001
1000
0010
0100
0001
0000
0100
0010
1000
0000
0010
0100
0001
1000
,
0001
0010
0100
1000
0010
0100
0001
0000
0100
0010
1000
0000
0100
1000
0001
0010
,
0100
0010
0001
1000
0010
0100
0001
0000
0010
0100
1000
0000
0010
1000
0100
0010
,
0001
1000
0010
0100
0001
1000
0001
0000
0100
0010
1000
0000
0001
0010
0100
1000
,
0010
0100
0010
1000
0100
0010
0001
1000
0001
0100
0010
1000
0100
0010
0100
1000
,
0010
0100
0001
1000
0100
0010
0001
1000
0001
0100
0010
1000
0001
0000
0000
0000
,
2002
0000
0000
0000
,
3003
0000
0000
0000
;
