#TITLE:Division 4;
#SUBTITLE:;
#ARTIST:Betwixt & Between;
#TITLETRANSLIT:;
#SUBTITLETRANSLIT:;
#ARTISTTRANSLIT:;
#CREDIT:;
#BANNER:../banner.png;
#BACKGROUND:../bg.png;
#LYRICSPATH:;
#CDTITLE:;
#MUSIC:division 4.ogg;
#OFFSET:0.100;
#SAMPLESTART:217.732;
#SAMPLELENGTH:21.740;
#SELECTABLE:YES;
#DISPLAYBPM:180.000;
#BPMS:0.000=179.998,617.000=185.000,618.000=190.000,620.000=195.000,621.000=197.500,622.000=200.000,622.500=202.500,623.000=205.000,623.500=207.500,624.000=210.000,624.500=215.000,625.000=220.000,625.500=225.000,626.000=230.000,626.500=235.000,627.000=240.000,627.500=245.000,628.000=250.000,629.000=270.000,630.000=290.000,631.000=310.000,632.000=330.000,633.000=360.000,634.000=390.000,635.000=420.000,636.000=450.000,637.000=490.000,638.000=520.000,639.000=550.000,640.000=640.000,641.000=680.000,642.000=720.000,643.000=760.000,644.000=880.000,646.000=1000.000,648.000=1120.000,650.000=1220.000,652.000=1440.000,654.000=1600.000,656.000=4444.000,664.000=666.000,666.000=444.000,667.000=222.000,667.500=180.000,680.000=165.000,683.500=180.000;
#STOPS:;
#BGCHANGES:;
// cache tags:
#FIRSTBEAT:4.000;
#LASTBEAT:943.500;
#SONGFILENAME:Songs/Cirque du Lykan/Division 4 - [Zaia]/Division 4.sm;
#HASMUSIC:1;
#HASBANNER:1;
#MUSICLENGTH:311.484;
// end cache tags

//---------------dance-single - Zaia - 16(low-mid)----------------
#NOTES:
     dance-single:
     Zaia - 16(low-mid):
     Challenge:
     16:
     1.000,1.000,0.006,0.003,1.000,3098.000,2.000,1.000,119.000,0.000:
0000
0000
0000
0000
,
0001
1000
0010
0100
0010
1000
0001
0100
0001
1000
0100
0010
0001
1000
0001
1000
,
0010
0100
0001
1000
0100
0010
0001
1000
0010
0100
0010
1000
0001
0100
0001
0100
,
0010
1000
0001
0010
0100
0010
0001
1000
0010
1000
0001
0100
0001
1000
0100
1000
,
0100
0010
0001
1000
0010
1000
0001
0100
0010
0100
0001
1000
0010
1000
0100
0010
,
0100
1000
0010
0100
0010
1000
0001
0100
0001
1000
0100
0010
0001
1000
0001
1000
,
0010
0100
0001
1000
0100
0010
0001
1000
0010
0100
0010
1000
0001
0100
0001
0100
,
0010
1000
0001
0010
0100
0010
0001
1000
0010
1000
0001
0100
0001
1000
0100
1000
,
0100
0010
0001
1000
0010
1000
0001
0100
0010
0100
0001
1000
0100
1000
0010
0100
,
0010
1000
0100
0010
0100
1000
0001
0010
0001
1000
0010
0100
0001
1000
0001
1000
,
0100
0010
0001
1000
0010
0100
0001
1000
0100
0010
0100
1000
0001
0010
0001
0010
,
0100
1000
0001
0100
0010
0100
0001
1000
0100
1000
0001
0010
0001
1000
0010
1000
,
0010
0100
0001
1000
0100
1000
0001
0010
0100
0010
0001
1000
0100
1000
0010
0100
,
0010
1000
0100
0010
0100
1000
0001
0010
0001
1000
0010
0100
0001
1000
0001
1000
,
0100
0010
0001
1000
0010
0100
0001
1000
0100
0010
0100
1000
0001
0010
0001
0010
,
0100
1000
0001
0100
0010
0100
0001
1000
0100
1000
0001
0010
0001
1000
0001
1000
,
0001
0000
0100
0000
0010
1000
0000
0001
1000
0000
0001
0010
0001
0000
1000
0000
,
0001
0100
0001
0010
0001
1000
0001
0100
0001
1000
0100
0010
0001
0010
0100
1000
,
0001
0010
0001
0100
0001
1000
0001
0010
0001
1000
0010
0100
0001
0100
0010
1000
,
0001
0100
0001
0010
0001
1000
0001
0100
0001
1000
0100
0010
0001
0010
0100
1000
,
0001
0010
0001
0100
0001
1000
0001
0010
0001
1000
0010
0100
0001
0100
0010
1000
,
0100
0010
0001
1000
0010
1000
0001
1000
0100
1000
0001
0010
0100
1000
0100
0010
,
0001
1000
0100
1000
0010
1000
0001
1000
0010
1000
0001
0100
0010
1000
0010
0100
,
0001
1000
0010
1000
0100
1000
0001
1000
0010
1000
0001
0010
0100
1000
0100
0010
,
0001
1000
0100
1000
0010
1000
0001
1000
0100
1000
0001
0100
0010
1000
0010
0100
,
0001
0010
0100
1000
0001
0010
0001
0100
0001
1000
0100
0010
0001
0010
0100
1000
,
0001
0100
0001
0010
0001
1000
0001
0010
0001
1000
0010
0100
0001
0100
0010
1000
,
0001
0010
0001
0100
0001
1000
0001
0100
0001
1000
0100
0010
0001
0010
0100
1000
,
0001
0100
0001
0010
0001
1000
0001
0100
0001
1000
0010
0100
0001
0100
0010
1000
,
0100
0010
0001
1000
0100
1000
0001
1000
0010
1000
0001
0010
0100
1000
0100
0010
,
0001
1000
0010
1000
0100
1000
0001
1000
0010
1000
0001
0100
0010
1000
0010
0100
,
0001
1000
0100
1000
0010
1000
0001
1000
0100
1000
0001
0010
0100
1000
0100
0010
,
0001
0000
1000
0000
0010
0100
0000
0001
0100
0000
0001
1000
0001
0000
0010
0000
,
0001
1000
0100
1000
0001
0010
0001
1000
0010
0100
0001
0010
0001
1000
0100
1000
,
0001
0100
0010
1000
0001
0010
0001
1000
0100
0010
0001
0100
0001
1000
0010
1000
,
0001
0010
0100
1000
0001
0010
0001
1000
0010
0100
0001
0010
0001
1000
0100
1000
,
0001
0100
0010
1000
0001
0010
0001
1000
0010
1000
0001
0010
0100
1000
0010
1000
,
0100
0010
0100
1000
0001
0100
0001
1000
0010
0100
0001
0010
0001
1000
0100
1000
,
0001
0100
0010
1000
0001
0010
0001
1000
0100
0010
0001
0100
0001
1000
0010
1000
,
0001
0010
0100
1000
0001
0010
0001
1000
0010
0100
0001
0010
0001
1000
0100
1000
,
0001
0100
0010
1000
0001
0010
0001
1000
0100
1000
0001
0100
0010
1000
0100
0010
,
0100
1000
0100
1000
0001
0100
0001
1000
0100
0010
0001
1000
0001
1000
0010
0100
,
0010
1000
0010
1000
0001
0010
0001
1000
0001
1000
0100
1000
0001
0010
0100
1000
,
0001
0100
0001
0100
0010
1000
0001
1000
0100
0010
0001
1000
0001
0100
0001
1000
,
0100
0010
0100
0010
0001
1000
0001
0100
0010
0100
0001
1000
0100
1000
0010
0100
,
0001
0010
0001
0010
0100
1000
0001
0100
0010
1000
0010
1000
0001
1000
0001
0010
,
0100
1000
0100
1000
0001
0010
0001
1000
0010
0100
0001
1000
0001
1000
0100
0010
,
0100
1000
0100
1000
0001
0100
0001
1000
0001
1000
0010
1000
0001
0100
0010
1000
,
0001
0010
0001
0010
0100
1000
0001
1000
0001
0100
0010
1000
0010
1000
0100
0010
,
0100
1000
0010
1000
0001
0100
0001
1000
0100
0010
0001
0100
0001
1000
0010
1000
,
0001
0010
0100
1000
0001
0100
0001
1000
0010
0100
0001
0010
0001
1000
0100
1000
,
0001
0100
0010
1000
0001
0100
0001
1000
0100
0010
0001
0100
0001
1000
0010
1000
,
0001
0010
0100
1000
0001
0100
0001
1000
0100
1000
0010
0100
0001
1000
0100
1000
,
0001
0100
0010
1000
0001
0010
0001
1000
0100
0010
0001
0100
0001
1000
0010
1000
,
0001
0010
0100
1000
0001
0100
0001
1000
0010
0100
0001
0010
0001
1000
0100
1000
,
0001
0100
0010
1000
0001
0100
0001
1000
0100
0010
0001
0100
0001
1000
0010
1000
,
0001
0100
0010
1000
0001
0010
0001
1000
0100
1000
0010
0100
0001
1000
0100
1000
,
0001
0100
0001
0010
0001
1000
0100
1000
0001
0100
0010
1000
0100
1000
0001
0010
,
0001
1000
0010
0100
0001
1000
0100
1000
0001
0010
0100
1000
0010
1000
0001
0100
,
0001
1000
0100
0010
0001
1000
0100
1000
0001
0100
0010
1000
0100
1000
0001
0010
,
0001
1000
0010
0100
0001
1000
0100
1000
0001
0100
0001
0010
0100
1000
0001
0100
,
0001
1000
0100
0010
0001
1000
0010
1000
0001
0100
0010
1000
0100
1000
0001
0010
,
0001
1000
0010
0100
0001
1000
0100
1000
0001
0010
0100
1000
0010
1000
0001
0100
,
0010
1000
0001
0100
0001
1000
0100
1000
0001
0010
0100
1000
0001
0010
0001
1000
,
0001
0010
0100
1000
0001
0100
0001
0100
0010
1000
0001
0010
0100
1000
0100
1000
,
0001
0000
0100
0000
0010
0000
1000
0000
0010
0000
0100
0001
1000
0000
0100
0000
,
0010
0000
0001
0000
0100
0000
0001
0000
0010
0000
0100
1000
0010
0000
0100
0000
,
0001
0000
0010
0000
0001
0000
0100
0000
0010
0000
1000
0001
0100
0000
0010
0000
,
1000
0000
0001
0000
0010
0000
0001
0000
1000
0000
0010
1000
0100
0000
0010
0000
,
0001
0000
0100
0000
0001
0000
1000
0000
0100
0000
1000
0010
0100
0000
0001
0000
,
0010
0000
0001
0000
0100
0000
0001
0000
1000
0000
0100
0010
0001
0000
1000
0000
,
0010
0000
0100
0000
0001
0000
1000
0000
0100
0000
0010
0001
1000
0000
0010
0000
,
0100
0000
0010
0000
1000
0000
0001
0000
0010
0000
0100
0000
1000
0010
0000
0100
,
0001
0000
0010
0000
0100
0000
1000
0000
0100
0000
0010
0001
1000
0000
0010
0000
,
0100
0000
0001
0000
0010
0000
0001
0000
0100
0000
0010
1000
0100
0000
0010
0000
,
0001
0000
0100
0000
0001
0000
0010
0000
0100
0000
1000
0001
0010
0000
0100
0000
,
1000
0000
0001
0000
0100
0000
0001
0000
1000
0000
0100
1000
0010
0000
0100
0000
,
0001
0000
0010
0000
0001
0000
1000
0000
0010
0000
1000
0100
0010
0000
0001
0000
,
0100
0000
0001
0000
0010
0000
0001
0000
1000
0000
0010
0100
0001
0000
1000
0000
,
0100
0000
0010
0000
0001
0000
1000
0000
0010
0000
0100
0001
1000
0000
0100
0000
,
0010
0001
1000
0001
1000
0001
1000
0001
1000
0001
1000
0001
1000
0000
0000
0000
,
0001
1000
0010
1000
0001
1000
0001
0010
0100
0010
0001
1000
0010
0100
0001
1000
,
0001
1000
0010
1000
0001
0010
0100
0010
0001
1000
0010
1000
0100
0010
0001
1000
,
0001
0100
0010
0100
0001
1000
0001
0010
0100
0010
0001
1000
0010
0100
0001
1000
,
0001
1000
0010
1000
0001
0010
0100
0010
0001
1000
0010
1000
0100
0010
0001
0100
,
0001
1000
0010
1000
0001
1000
0001
0010
0100
0010
0001
1000
0010
0100
0001
1000
,
0001
1000
0010
1000
0001
0010
0100
0010
0001
1000
0010
1000
0100
0010
0001
1000
,
0001
0100
0010
0100
0001
1000
0001
0010
0100
1000
0100
0010
0001
1000
0001
1000
,
0001
1000
0010
1000
0001
0010
0100
1000
0001
0100
0001
1000
0100
1000
0001
1000
,
0010
0100
0010
1000
0001
1000
0001
0100
0010
0100
0001
1000
0100
0010
0001
1000
,
0001
1000
0100
1000
0001
0100
0010
0100
0001
1000
0100
1000
0010
0100
0001
1000
,
0001
0010
0100
0010
0001
1000
0001
0100
0010
0100
0001
1000
0100
0010
0001
1000
,
0001
1000
0100
1000
0001
0100
0010
0100
0001
1000
0100
1000
0010
0100
0001
0010
,
0001
1000
0100
1000
0001
1000
0001
0100
0010
0100
0001
1000
0100
0010
0001
1000
,
0001
1000
0100
1000
0001
0100
0010
0100
0001
1000
0100
1000
0010
0100
0001
1000
,
0001
0010
0100
0010
0001
1000
0001
0100
0010
1000
0010
0100
0001
1000
0001
1000
,
0001
1000
0100
1000
0001
0100
0010
1000
0001
0010
0001
1000
0010
1000
0001
1000
,
0100
0000
0010
0000
0001
0000
1000
0001
0100
0001
1000
0000
0100
0000
0010
0000
,
0001
0000
0001
0000
1000
0000
0010
0100
0000
0010
1000
0000
0001
0000
1000
0000
,
0100
0000
0010
0000
0001
0000
1000
0001
0010
0001
1000
0000
0010
0000
0100
0000
,
0001
0000
0001
0000
1000
0000
0010
0100
0000
0001
0100
0000
0010
0000
1000
0100
,
0010
0000
0100
0000
1000
0000
0001
0010
0100
0010
0001
0000
1000
0000
0001
0000
,
0100
0000
0100
0000
0010
0000
1000
0001
0000
1000
0100
0000
0010
0000
0001
0000
,
0100
0000
0001
0000
1000
0000
0010
0100
0001
0100
0010
0000
1000
0000
0010
0000
,
0100
0000
0100
0000
0001
0000
1000
0000
0100
0000
1000
0000
0001
0010
0000
0001
,
1000
0000
0010
0000
1000
0000
0001
1000
0100
1000
0001
0000
0100
0000
0010
0000
,
1000
0000
1000
0000
0001
0000
0010
0100
0000
0010
0001
0000
1000
0000
0001
0000
,
0100
0000
0010
0000
1000
0000
0001
1000
0010
1000
0001
0000
0010
0000
0100
0000
,
1000
0000
1000
0000
0001
0000
0010
0100
0000
1000
0100
0000
0010
0000
0001
0100
,
0010
0000
0100
0000
0001
0000
1000
0010
0100
0010
1000
0000
0001
0000
1000
0000
,
0100
0000
0100
0000
0010
0000
0001
1000
0000
0001
0100
0000
0010
0000
1000
0000
,
0100
0000
1000
0000
0001
0000
0010
0100
1000
0100
0010
0000
0001
0000
1000
0000
,
0010
0000
0100
0000
0001
0100
0001
0100
0001
0000
1000
0100
1000
0001
0000
0100
,
0010
0000
1000
0100
1000
0001
0000
0100
0010
0000
1000
0100
1000
0001
0000
0100
,
0010
0000
1000
0100
1000
0001
0000
0100
0010
0000
1000
0100
1000
0001
0000
0100
,
0010
0000
1000
0100
1000
0001
0000
0100
0010
0000
1000
0100
1000
0001
0000
0100
,
0010
0000
1000
0100
1000
0001
0000
0100
0010
0000
1000
0100
1000
0001
0000
0010
,
0100
0000
1000
0010
1000
0001
0000
0010
0100
0000
1000
0010
1000
0001
0000
0010
,
0100
0000
1000
0010
1000
0001
0000
0010
0100
0000
1000
0010
1000
0001
0000
0010
,
0100
0000
1000
0010
1000
0001
0000
0010
0100
0000
1000
0010
1000
0001
0000
0010
,
0100
0000
1000
0010
1000
0001
0000
0010
0100
0000
1000
0010
1000
0001
0000
0010
,
0100
0000
0010
0001
1000
0010
0000
1000
0100
0000
0010
0001
1000
0010
0000
1000
,
0100
0000
0010
0001
1000
0010
0000
1000
0100
0000
0010
0001
1000
0010
0000
1000
,
0100
0000
0010
0001
1000
0010
0000
1000
0100
0000
0010
0001
1000
0010
0000
1000
,
0100
0000
0010
0001
1000
0010
0000
1000
0100
0000
0010
0001
1000
0010
0000
1000
,
0001
0000
0100
0001
1000
0100
0000
1000
0010
0000
0100
0001
1000
0100
0000
1000
,
0010
0000
0100
0001
1000
0100
0000
1000
0010
0000
0100
0001
1000
0100
0000
1000
,
0010
0000
0100
0001
1000
0100
0000
1000
0010
0000
0100
0001
1000
0100
0000
1000
,
0010
0100
0001
1000
,
0001
0100
0010
1000
0010
1000
0100
0010
0100
1000
0001
0010
0001
0010
0100
0010
,
0001
0100
0010
1000
0010
1000
0100
0010
0100
1000
0001
0010
0001
0010
0100
0010
,
0001
0100
0010
1000
0010
1000
0100
0010
0100
1000
0001
0010
0001
0010
0100
0010
,
0001
0100
0010
1000
0010
1000
0100
0010
0100
1000
0001
0010
0001
0010
0100
1000
,
0010
1000
0001
0100
0001
0100
0010
0100
0001
0010
0100
1000
0100
1000
0010
0100
,
0010
1000
0001
0100
0001
0100
0010
0100
0001
0010
0100
1000
0100
1000
0010
0100
,
0010
1000
0001
0100
0001
0100
0010
0100
0001
0010
0100
1000
0100
1000
0010
0100
,
0010
1000
0001
0100
0001
0100
0010
0100
0001
0010
0100
1000
0001
0100
0010
1000
,
0001
0100
0001
0010
0001
1000
0010
1000
0010
0100
0001
0010
0001
1000
0010
1000
,
0010
0100
0001
0010
0001
1000
0010
1000
0010
0100
0001
0010
0001
1000
0010
1000
,
0010
0100
0001
0010
0001
1000
0010
1000
0010
0100
0001
0010
0001
1000
0010
1000
,
0010
0100
0001
0010
0001
1000
0010
1000
0010
0100
0001
0010
0001
1000
0010
1000
,
0001
0010
0001
0100
0001
1000
0100
1000
0100
0010
0001
0100
0001
1000
0100
1000
,
0100
0010
0001
0100
0001
1000
0100
1000
0100
0010
0001
0100
0001
1000
0100
1000
,
0100
0010
0001
0100
0001
1000
0100
1000
0100
0010
0001
0100
0001
1000
0100
1000
,
0100
0010
0001
1000
0001
0100
0010
0100
0001
1000
0001
0010
0100
1000
0001
1000
,
0010
0000
0000
0000
0000
0100
0000
0000
,
0001
1000
0000
0100
0000
0010
0000
0000
,
0001
0000
0000
1000
0000
0001
0000
0000
,
0100
0010
0000
1000
0000
0001
0000
0000
,
1000
0000
0000
0010
0000
0000
0000
0000
,
0100
0001
0000
1000
0000
0100
0000
0000
,
0010
0000
0000
0001
0000
1000
0000
0000
,
0010
0100
0000
0001
0000
1000
0000
0000
,
0100
0010
0000
0001
0000
0000
1000
0000
0010
0000
0000
0100
0000
0000
0004
0000
,
4000
0000
0000
0M00
00M0
0M00
00M0
0M00
,
00M0
0M00
00M0
0M00
00M0
0M00
00M0
0M00
,
00M0
0M00
00M0
0M00
00M0
0M00
00M0
0M00
,
00M0
0M00
00M0
0M00
00M0
0M00
00M0
0M00
,
00M0
0M00
00M0
0M00
00M0
0M00
00M0
0M00
,
00M0
0M00
00M0
0M00
00M0
0M00
00M0
0M00
,
00M0
0000
0000
0M00
0000
0000
00M0
0000
0000
0M00
0000
0000
00M0
0000
0000
0M00
0000
0000
00M0
0000
0M00
0000
00M0
0000
,
0M00
00M0
0M00
00M0
0M00
00M0
0M00
00M0
0M00
00M0
0M00
00M0
,
0M00
00M0
0M00
00M0
0M00
00M0
0M00
00M0
0M00
00M0
0M00
00M0
,
0M00
00M0
0M00
00M0
0M00
00M0
0M00
00M0
0M00
00M0
0M00
00M0
,
0M00
00M0
0M00
00M0
0M00
00M0
0M00
00M0
0M00
00M0
0M00
00M0
,
0M00
00M0
0M00
00M0
0M00
00M0
0M00
00M0
0M00
00M0
0M00
00M0
,
3M03
00M0
0M00
00M0
0M00
0000
0000
0001
,
1001
0000
1000
0000
0010
0000
0100
0000
0001
1000
0001
0000
0010
0000
0100
0000
,
1000
0000
1000
0000
0100
0000
0010
0000
0001
1000
0001
0000
1000
0000
0010
0000
,
0100
0000
0001
0000
1000
0000
0010
0100
0001
0100
0001
0000
1000
0000
0001
0000
,
0000
0000
0000
0000
0000
0000
0000
1000
,
0001
0100
0010
0100
0001
1000
0100
1000
0001
0010
0100
0010
0001
1000
0010
0100
,
0001
0010
0001
1000
0100
1000
0010
1000
0001
0010
0001
1000
0010
1000
0100
1000
,
0001
0010
0100
0010
0001
1000
0010
1000
0001
0100
0010
0100
0001
1000
0100
0010
,
0001
0100
0001
1000
0010
1000
0100
1000
0001
0100
0001
1000
0100
1000
0010
1000
,
0001
0100
0010
0100
0001
1000
0100
1000
0001
0010
0100
0010
0001
1000
0010
0100
,
0001
0010
0001
1000
0100
1000
0010
1000
0001
0010
0001
1000
0010
1000
0100
1000
,
0001
0010
0100
0010
0001
1000
0010
1000
0001
0100
0010
0100
0001
1000
0100
0010
,
0001
0100
0001
1000
0010
1000
0100
1000
0001
0100
0001
1000
0100
1000
0010
1000
,
0001
1000
0100
0010
0100
1000
0001
0010
0001
1000
0010
0100
0010
1000
0001
0010
,
0100
1000
0010
1000
0001
0100
0001
0010
0001
1000
0010
1000
0001
0010
0001
0100
,
0001
1000
0010
0100
0010
1000
0001
0100
0001
1000
0100
0010
0100
1000
0001
0100
,
0010
1000
0100
1000
0001
0010
0001
0100
0001
1000
0100
1000
0001
0100
0001
0010
,
0001
1000
0100
0010
0100
1000
0001
0010
0001
1000
0010
0100
0010
1000
0001
0010
,
0100
1000
0010
1000
0001
0100
0001
0010
0001
1000
0010
1000
0001
0010
0001
0100
,
0001
1000
0010
0100
0010
1000
0001
0100
0001
1000
0100
0010
0100
1000
0001
0100
,
0010
1000
0100
1000
0001
0010
0001
0100
0001
1000
0100
1000
0001
0100
0001
1000
,
0001
0100
0010
0100
0001
1000
0100
1000
0001
0010
0100
0010
0001
1000
0010
0100
,
0001
0010
0001
1000
0100
1000
0010
1000
0001
0010
0001
1000
0010
1000
0100
1000
,
0001
0010
0100
0010
0001
1000
0010
1000
0001
0100
0010
0100
0001
1000
0100
0010
,
0001
0100
0010
1000
0001
0010
0001
1000
0010
0100
0001
1000
0001
0010
0100
1000
,
0001
0100
0010
0100
0001
1000
0100
1000
0001
0010
0100
0010
0001
1000
0010
0100
,
0001
0010
0001
1000
0100
1000
0010
1000
0001
0010
0001
1000
0010
1000
0100
1000
,
0001
0010
0100
0010
0001
1000
0010
1000
0001
0100
0010
0100
0001
1000
0100
0010
,
0001
0100
0010
1000
0001
0010
0001
1000
0010
0100
0010
1000
0001
1000
0001
0010
,
0001
1000
0100
0010
0100
1000
0001
0100
0001
1000
0010
0100
0010
1000
0001
0010
,
0100
1000
0010
1000
0001
0100
0001
0010
0001
1000
0010
1000
0001
0010
0001
0100
,
0001
1000
0010
0100
0010
1000
0001
0010
0001
1000
0100
0010
0100
1000
0001
0100
,
0010
1000
0100
0010
0001
1000
0010
1000
0001
0010
0100
1000
0001
1000
0010
0100
,
0001
1000
0100
1000
0001
0100
0010
0100
0001
1000
0100
0010
0001
1000
0001
1000
,
0010
0100
0010
1000
0001
1000
0100
0010
0001
1000
0001
0100
0001
1000
0010
1000
,
0001
0010
0100
0010
0001
1000
0100
1000
0001
0100
0010
0100
0001
1000
0001
1000
,
0010
0100
0001
1000
0001
0010
0100
0010
0001
1000
0001
0100
0010
1000
0001
1000
,
0100
1000
0010
0100
0010
1000
0001
0100
0001
1000
0100
0010
0001
1000
0001
1000
,
0010
0100
0001
1000
0100
0010
0001
1000
0010
0100
0010
1000
0001
0100
0001
0100
,
0010
1000
0001
0010
0100
0010
0001
1000
0010
1000
0001
0100
0001
1000
0100
1000
,
0100
0010
0001
1000
0010
1000
0001
0100
0010
0100
0001
1000
0010
1000
0100
0010
,
0100
1000
0010
0100
0010
1000
0001
0100
0001
1000
0100
0010
0001
1000
0001
1000
,
0010
0100
0001
1000
0100
0010
0001
1000
0010
0100
0010
1000
0001
0100
0001
0100
,
0010
1000
0001
0010
0100
0010
0001
1000
0010
1000
0001
0100
0001
1000
0100
1000
,
0100
0010
0001
1000
0010
1000
0001
0100
0010
0100
0001
1000
0100
1000
0010
0100
,
0010
1000
0100
0010
0100
1000
0001
0010
0001
1000
0010
0100
0001
1000
0001
1000
,
0100
0010
0001
1000
0010
0100
0001
1000
0100
0010
0100
1000
0001
0010
0001
0010
,
0100
1000
0001
0100
0010
0100
0001
1000
0100
1000
0001
0010
0001
1000
0010
1000
,
0010
0100
0001
1000
0100
1000
0001
0010
0100
0010
0001
1000
0100
1000
0010
0100
,
0010
1000
0100
0010
0100
1000
0001
0010
0001
1000
0010
0100
0001
1000
0001
1000
,
0100
0010
0001
1000
0010
0100
0001
1000
0100
0010
0100
1000
0001
0010
0001
0010
,
0100
1000
0001
0100
0010
0100
0001
1000
0100
1000
0001
0010
0001
1000
0001
1000
,
0001
0010
0100
0010
0001
1000
0010
1000
0001
1000
0100
0010
0001
0100
0001
1000
,
0010
1000
0100
0010
0100
1000
0001
0010
0001
1000
0010
0100
0001
1000
0001
1000
,
0100
0010
0001
1000
0010
0100
0001
1000
0100
0010
0100
1000
0001
0010
0001
0010
,
0100
1000
0001
0100
0010
0100
0001
1000
0100
1000
0001
0010
0001
1000
0010
1000
,
0010
0100
0001
1000
0100
1000
0001
0010
0100
0010
0001
1000
0100
1000
0010
0100
,
0010
1000
0100
0010
0100
1000
0001
0010
0001
1000
0010
0100
0001
1000
0001
1000
,
0100
0010
0001
1000
0010
0100
0001
1000
0100
0010
0100
1000
0001
0010
0001
0010
,
0100
1000
0001
0100
0010
0100
0001
1000
0100
1000
0001
0010
0001
1000
0010
1000
,
0010
0100
0001
1000
0100
1000
0001
0010
0100
0010
0001
1000
0010
1000
0100
0010
,
0100
1000
0010
0100
0010
1000
0001
0100
0001
1000
0100
0010
0001
1000
0001
1000
,
0010
0100
0001
1000
0100
0010
0001
1000
0010
0100
0010
1000
0001
0100
0001
0100
,
0010
1000
0001
0010
0100
0010
0001
1000
0010
1000
0001
0100
0001
1000
0100
1000
,
0100
0010
0001
1000
0010
1000
0001
0100
0010
0100
0001
1000
0010
1000
0100
0010
,
0100
1000
0010
0100
0010
1000
0001
0100
0001
1000
0100
0010
0001
1000
0001
1000
,
0010
0100
0001
1000
0100
0010
0001
1000
0010
0100
0010
1000
0001
0100
0001
0100
,
0010
1000
0001
0010
0100
0010
0001
1000
0010
1000
0001
0100
0001
1000
0001
1000
,
0001
0100
0010
0100
0001
1000
0100
1000
0001
1000
0010
0100
0001
1000
0200
0000
,
0000
0000
0000
0000
0000
0000
0000
0300
;
