#TITLE:Champion Cynthia Battle Remix;
#SUBTITLE:youtube.com/GlitchxCity;
#ARTIST:GlitchxCity;
#TITLETRANSLIT:;
#SUBTITLETRANSLIT:;
#ARTISTTRANSLIT:;
#CREDIT:Owem;
#BANNER:../banner.png;
#BACKGROUND:../bg.png;
#LYRICSPATH:;
#CDTITLE:../cdtitleowem.png;
#MUSIC:GlitchxCity - Champion Cynthia Battle Remix.ogg;
#OFFSET:-0.026;
#SAMPLESTART:211.810;
#SAMPLELENGTH:29.999;
#SELECTABLE:YES;
#BPMS:0.000=185.000;
#STOPS:;
#BGCHANGES:;
// cache tags:
#FIRSTBEAT:0.000;
#LASTBEAT:1180.000;
#SONGFILENAME:Songs/Owem's Simfiles 08 - 1.2/Champion Cynthia Battle Remix - [Owem]/Champion Cynthia Battle Remix.sm;
#HASMUSIC:1;
#HASBANNER:1;
#MUSICLENGTH:385.280;
// end cache tags

//---------------dance-single - 17 (Owem)----------------
#NOTES:
     dance-single:
     17 (Owem):
     Challenge:
     17:
     1.000,1.000,0.140,0.140,1.000,4157.000,54.000,54.000,11.000,20.000:
1000
0100
1000
0010
0100
0001
1000
0001
0010
0100
1000
0001
0100
0001
1000
0010
,
0100
0001
0100
0010
1000
0100
1000
0001
0010
0100
0010
0001
1000
0010
1000
0001
,
0000
0000
0000
0000
,
0000
0000
0000
0000
1000
0100
0010
0001
1000
0001
0100
0010
1000
0001
0010
0001
,
1000
0100
1000
0001
1000
0010
0100
0001
0100
0010
1000
0001
0010
0001
1000
0100
,
1000
0001
1000
0010
0100
0001
1000
0010
1000
0001
0100
0010
0100
0001
1000
0100
,
0010
0100
1000
0001
0010
0001
1000
0100
1000
0001
1000
0010
0100
0001
1000
0100
,
0010
0100
1000
0001
0020
0031
1000
0010
1000
0001
0100
0010
1000
0001
0010
0100
,
2000
3100
0010
0001
2000
3001
0100
0010
0100
0001
0100
0010
1000
0001
0100
0010
,
2000
3001
0100
0001
0020
0130
1000
0001
0010
0001
0100
0010
1000
0001
0100
0010
,
0200
0301
1000
0010
2000
3001
0100
0001
0010
0100
1000
0001
0010
0001
1000
0100
,
1000
0001
1000
0010
0400
0301
0100
0010
1000
0100
1000
0001
0010
0001
1000
0100
,
0040
0031
1000
0100
4000
3001
0100
0001
0010
0100
1000
0001
1000
0010
0100
0001
,
4000
3100
1000
0010
2000
3001
0100
0001
0010
0100
1000
0001
0010
0001
0100
0010
,
2000
3001
0100
0010
0200
0301
1000
0100
1000
0001
0010
0001
0100
0010
1000
0001
,
0100
0010
0100
0001
4000
3100
0010
0001
1000
0100
1000
0001
0010
0001
0100
0010
,
0400
0301
1000
0100
4000
3001
0010
0100
1000
0001
0010
0001
0100
0010
1000
0001
,
0400
0301
1000
0010
2000
3001
0100
0010
0100
0001
1000
0100
0010
0001
1000
0100
,
2000
3001
0010
0100
2000
3001
1000
0010
0100
0001
1000
0100
1000
0001
0100
0001
,
1000
0010
0100
0010
100M
0000
0000
0000
0010
0000
0100
0000
M1M1
0000
0001
0000
,
1000
0100
M11M
0000
0010
0001
M1M1
0100
,
0010
1000
1MM1
0001
1000
0001
0100
0010
,
1000
0000
0010
0000
0100
0000
0001
0000
1000
0000
0100
0000
0010
0001
1000
0010
,
0100
0000
0000
0000
0000
0000
0000
0000
0000
0000
0010
0000
0000
0000
0000
0000
0000
0000
0000
1000
0000
0000
0000
0000
0000
0000
0000
0000
0000
0001
0000
0000
0000
0000
0000
0000
0000
0000
1000
0000
0000
0000
0000
0000
0000
0000
0000
0000
0100
0000
0000
0000
0000
0000
0000
0000
0000
0000
0000
0000
0010
0000
0000
0000
0000
0000
0000
0000
0000
0000
0000
0000
0001
0000
0000
0000
0000
0000
0000
0000
0000
0000
0000
0000
1000
0000
0000
0000
0000
0000
0000
0000
0000
0000
0000
0000
0100
0000
0000
0000
0000
0000
0000
0000
0000
0000
0000
0000
1000
0000
0000
0000
0000
0000
0000
0000
0000
0000
0000
0000
0001
0000
0000
0000
0000
0000
0000
0000
0000
0000
0000
0000
0100
0000
0000
0000
0000
0000
0000
0000
0000
0000
0000
0000
0010
0000
0000
0000
0000
0000
0000
0000
0000
0000
0000
0000
1000
0000
0000
0000
0000
0000
0000
0000
0000
0000
0000
0000
0001
0000
0000
0000
0000
0000
0000
0000
0000
0000
0000
0000
0100
0000
0000
0000
0000
0000
0000
0000
0000
0000
0000
0000
,
0001
1000
0001
0100
0010
0100
0001
1000
0100
1000
0010
1000
0001
0100
0010
1000
,
0001
0010
0001
0100
0010
1000
0001
0100
0001
0010
0100
1000
0100
0010
0001
1000
,
0100
1000
0001
1000
0010
0100
0001
1000
0010
1000
0001
0100
0001
0010
0100
1000
,
0001
0010
0001
1000
0100
1000
0001
0100
0010
0100
0001
1000
0010
1000
0001
0100
,
0010
0100
0001
1000
0100
0010
0001
1000
0100
1000
0001
0010
0001
1000
0010
1000
,
0001
0100
0001
0010
0100
1000
0001
0010
0001
0100
0010
1000
0001
0100
0010
0100
,
0001
1000
0010
1000
0100
0010
0001
1000
0100
1000
0001
0010
0001
0100
0010
1000
,
0001
0100
0010
0100
0001
1000
0010
1000
0001
0100
0001
0010
0100
1000
0001
0010
,
0001
1000
0010
1000
0001
1000
0010
0100
0001
0100
0010
1000
0100
1000
0001
0100
,
0001
0010
0100
1000
0100
0010
0100
1000
0001
0010
0001
0100
0001
1000
0010
0100
,
0001
1000
0100
1000
0001
0010
0100
1000
0001
1000
0010
0100
0001
0100
0010
1000
,
0100
1000
0001
0010
0001
1000
0010
1000
0001
1000
0010
0100
0001
0100
0010
1000
,
0100
1000
0001
0010
0001
0100
0010
1000
0001
0100
0010
0100
0001
1000
0010
1000
,
0001
0100
0010
1000
0100
1000
0001
0010
0001
0100
0010
1000
0001
0100
0010
0100
,
0001
1000
0100
0010
0100
1000
0001
0010
0001
1000
0001
0100
0010
1000
0001
0100
,
0001
1000
0010
0100
0001
0000
0000
0000
0000
0000
0000
0000
1000
0000
0000
0000
,
0000
0000
0100
0000
0000
0000
0010
0001
,
0100
0000
0001
0000
1000
0100
0010
0001
1000
0001
0100
0010
0100
0001
1000
0010
,
1000
0001
0100
0001
0010
0100
1000
0001
0010
0001
1000
0100
1000
0001
0100
0010
,
0100
0001
1000
0010
1000
0001
0010
0001
0100
0010
1000
0001
0100
0010
0100
0001
,
1000
0010
1000
0100
0010
0001
1000
0100
1000
0001
0100
0010
1000
0001
0010
0001
,
1000
0001
0100
0010
0100
0001
0100
0010
1000
0100
1000
0001
0010
0001
1000
0100
,
0010
0001
1000
0001
0100
0010
1000
0001
0100
0001
1000
0010
0100
0001
0100
0010
,
1000
0001
1000
0001
0100
0010
1000
0001
0010
0001
1000
0100
1000
0001
0100
0010
,
1000
0001
0100
0001
0010
0100
1000
0100
0010
0001
1000
0010
1000
0001
0100
0010
,
0100
0001
1000
0010
0100
0001
0100
0010
1000
0100
1000
0001
0010
0001
1000
0010
,
0100
0001
1000
0001
0010
0100
1000
0001
0010
0001
1000
0001
0100
0010
1000
0001
,
0100
0010
0100
0001
1000
0010
1000
0001
1000
0010
0100
0001
1000
0100
1000
0001
,
0100
0001
0010
0100
1000
0001
0010
0001
0100
0010
1000
0001
0100
0010
0100
0001
,
1000
0010
1000
0100
0010
0001
1000
0100
1000
0001
0010
0100
0010
0001
1000
0010
,
1000
0001
0100
0010
0100
0001
1000
0100
1000
0001
0100
0010
1000
0001
0100
0010
,
0100
0001
1000
0010
1000
0100
1000
0001
0100
0010
0100
0001
1000
0010
1000
0001
,
0100
0010
0100
0001
0010
0001
1000
0100
0010
0100
1000
0001
1000
0010
0100
0001
,
1000
0001
0010
0100
1000
0100
0010
0001
1000
0001
0100
0010
0100
0001
1000
0010
,
1000
0001
1000
0100
0010
0001
0100
0001
0010
0100
1000
0001
0010
0001
0100
0010
,
1000
0001
0100
0010
0100
0001
1000
0010
1000
0001
0100
0010
0100
0001
1000
0100
,
0010
0001
1000
0100
1000
0001
0010
0001
0100
0010
1000
0001
0100
0010
0100
0001
,
1000
0010
1000
0001
0100
0010
0100
0001
1000
0100
0010
0001
1000
0100
1000
0001
,
0010
0001
0100
0010
1000
0001
0100
0001
1000
0010
1000
0001
0100
0010
0100
0001
,
1000
0100
1000
0010
1000
0001
0100
0010
0100
0001
1000
0100
1000
0001
0010
0001
,
1000
0100
0010
0001
1000
0001
0100
0010
0100
0001
1000
0100
1000
0010
0100
0001
,
0100
0010
1000
0001
0010
0001
1000
0100
1000
0001
0100
0001
0010
0100
1000
0001
,
0010
0001
0100
0010
1000
0001
0100
0010
0100
0001
1000
0010
1000
0001
0100
0010
,
0100
0001
1000
0100
0010
0100
1000
0001
0010
0001
0100
0010
1000
0001
0100
0010
,
0100
0001
1000
0100
1000
0100
0010
0001
1000
0100
0010
0100
1000
0001
0010
0001
,
0100
0010
1000
0001
0100
0001
0010
0100
1000
0001
0010
0001
0100
0010
1000
0001
,
0100
0010
0100
0001
1000
0010
1000
0001
1000
0010
0100
0001
1000
0100
1000
0001
,
0010
0001
0100
0010
1000
0001
0100
0010
0100
0001
1000
0100
0010
0001
1000
0100
,
1000
0001
0010
0001
0100
0010
1000
0001
0100
0010
0100
0001
1000
0010
1000
0001
,
0100
0010
0100
0001
1000
0100
0010
0100
1000
0001
0010
0001
0100
0010
1000
0001
,
0100
0001
1000
0100
1000
0001
0100
0010
0100
0001
1000
0100
0010
0001
1000
0001
,
0100
0010
1000
0001
1000
0000
0100
0000
0010
0000
0001
0000
2000
0000
0000
0000
,
3020
0000
0000
0000
0130
0000
0001
0000
0100
0000
0010
0000
2000
0000
3002
0003
,
0102
0003
0200
0300
0210
0300
0010
0000
1000
0000
0001
0000
0201
0000
0000
0000
,
0320
0000
1030
0100
1000
0001
0100
0010
,
0100
0000
0001
0000
1000
0010
1000
0001
0100
0010
1000
0001
0010
0001
0100
0010
,
1000
0001
0100
0010
0100
0001
1000
0100
0010
0100
1000
0001
0010
0001
0100
0001
,
1000
0010
1000
0001
0100
0010
0100
0001
1000
0100
0010
0001
1000
0100
1000
0001
,
0100
0010
1000
0001
0010
0001
0100
0010
1000
0001
0100
0001
1000
0100
0010
0100
,
1000
0001
0010
0001
1000
0100
1000
0001
0100
0010
1000
0001
0100
0001
1000
0010
,
0100
0001
0100
0010
1000
0001
0100
0001
0010
0100
1000
0001
0010
0001
1000
0010
,
1000
0001
0100
0010
0100
0001
1000
0010
0100
0010
1000
0001
0100
0001
0010
0100
,
1000
0001
0010
0001
1000
0010
0100
0001
1000
0100
1000
0001
1000
0010
0100
0001
,
0100
0010
1000
0001
1000
0100
0010
0001
1000
0100
1000
0001
0100
0001
0010
0100
,
1000
0001
0010
0001
0100
0010
1000
0001
0100
0010
0100
0001
1000
0010
1000
0001
,
0100
0010
0100
0001
1000
0100
1000
0010
1000
0001
0100
0001
0010
0100
1000
0001
,
0010
0001
1000
0100
1000
0001
0010
0001
0100
0010
1000
0001
0100
0010
0100
0001
,
1000
0100
1000
0010
0100
0001
1000
0100
1000
0001
0010
0001
0100
0010
1000
0001
,
0100
0001
0010
0100
1000
0001
0010
0001
0100
0010
1000
0001
0100
0001
1000
0100
,
0010
0001
1000
0100
1000
0001
0010
0100
0010
0001
1000
0100
1000
0001
0100
0001
,
1000
0010
0100
0001
1000
0100
1000
0001
0100
0001
0010
0100
1000
0001
0010
0001
,
0100
0010
0100
0001
1000
0010
1000
0001
0100
0010
0100
0001
1000
0100
0010
0100
,
1000
0001
0010
0001
0100
0010
1000
0001
0010
0001
1000
0100
1000
0001
0010
0001
,
1000
0010
1000
0001
0100
0010
1000
0001
0100
0001
1000
0010
0100
0001
0100
0010
,
1000
0001
0010
0001
1000
0100
0010
0001
1000
0001
0100
0010
0100
0001
1000
0100
,
1000
0001
0010
0100
2000
0000
3020
0000
0000
0000
0000
0000
0000
0000
0000
0000
,
0000
0000
0130
0001
1000
0100
1000
0001
,
0010
0100
1100
1000
0010
0100
0101
0001
,
1000
0010
0110
0100
0001
1000
0010
0100
,
0001
1000
0001
1000
0010
0100
0001
0010
0001
1000
0010
1000
0100
0010
0001
1000
,
0100
1000
0001
0010
0100
0010
0001
1000
0010
1000
0001
0100
0010
0100
0001
1000
,
0100
1000
0001
0100
0010
1000
0001
0100
0010
0100
0001
1000
0010
1000
0100
1000
,
0001
0100
0010
0100
0001
1000
0010
1000
0001
0100
0010
0100
0001
0010
0001
1000
,
0100
0010
0100
1000
0001
1000
0010
0100
0001
1000
0001
0010
0100
1000
0100
0010
,
0001
1000
0001
0100
0010
0100
0001
1000
0010
1000
0001
1000
0100
0010
0001
0100
,
0001
0010
0100
1000
0001
0010
0001
0100
0010
1000
0001
0100
0010
0100
0001
1000
,
0010
1000
0001
0100
0010
0100
0001
1000
0100
0010
0001
1000
0100
1000
0001
0010
,
0001
0100
0010
1000
0001
0100
0010
0100
0001
1000
0010
1000
0001
0100
0010
0100
,
0001
1000
0100
0010
0001
1000
0100
1000
0001
0010
0001
0100
0010
1000
0001
0100
,
0001
1000
0010
1000
0001
0100
0010
0100
0001
1000
0100
1000
0010
1000
0001
0100
,
0010
0100
0001
1000
0100
1000
0001
0010
0001
1000
0100
0010
0001
1000
0001
0100
,
0010
0100
0001
1000
0100
1000
0010
0100
0001
0100
0010
1000
0001
0010
0001
1000
,
0100
1000
0001
0100
0001
0010
0100
1000
0001
0010
0001
0100
0010
1000
0001
0100
,
0010
0100
0001
1000
0010
1000
0001
0100
0010
0100
0001
1000
0100
0010
0100
1000
,
0001
0010
0001
0100
0010
1000
0001
0100
0010
0100
0001
1000
0100
1000
0100
0010
,
0001
1000
0010
0100
0001
0000
0000
0000
0000
0000
0000
0000
1000
0000
0000
0000
,
0000
0000
0010
0000
0000
0000
0100
0001
,
1000
0000
0001
0000
1000
0100
0010
0001
1000
0001
0100
0010
1000
0001
0100
0010
,
0100
0001
0010
0001
1000
0100
0010
0100
1000
0001
0100
0001
0010
0100
1000
0001
,
1000
0010
0100
0010
0100
0001
1000
0010
1000
0001
0100
0010
0100
0001
1000
0100
,
0010
0001
1000
0010
1000
0100
0010
0001
1000
0100
1000
0001
0010
0001
0100
0010
,
1000
0001
0100
0010
0100
0001
1000
0010
1000
0001
0100
0010
0100
0001
1000
0100
,
0010
0001
1000
0100
1000
0001
0010
0001
0100
0010
1000
0001
0100
0001
1000
0010
,
1000
0001
0100
0010
0100
0001
1000
0100
1000
0010
1000
0001
0100
0010
0100
0001
,
1000
0100
1000
0001
0010
0001
1000
0100
0010
0001
1000
0001
0100
0010
0100
0001
,
1000
0100
1000
0010
0100
0001
0100
0010
1000
0001
0010
0001
1000
0100
1000
0001
,
0100
0001
0010
0100
1000
0001
0010
0001
0100
0010
1000
0001
0100
0010
0100
0001
,
1000
0010
1000
0001
0100
0010
0100
0001
1000
0100
0010
0100
1000
0001
0010
0001
,
0100
0010
1000
0001
0100
0010
0100
0001
1000
0100
1000
0100
0010
0001
1000
0100
,
0010
0100
1000
0001
0010
0001
0100
0010
1000
0001
0100
0001
0010
0100
1000
0001
,
0010
0001
0100
0010
1000
0001
0100
0010
0100
0001
1000
0010
1000
0001
1000
0010
,
0100
0001
1000
0100
1000
0001
0010
0001
0100
0010
1000
0001
0100
0010
0100
0001
,
1000
0100
0010
0001
1000
0100
1000
0001
0010
0001
0100
0010
1000
0001
0100
0010
,
0100
0001
1000
0010
1000
0001
0100
0010
0100
0001
1000
0100
0010
0100
1000
0001
,
0010
0001
0100
0010
1000
0001
0100
0001
1000
0100
1000
0001
0100
0010
0100
0001
,
1000
0100
0010
0001
1000
0001
0100
0010
1000
0100
0010
0001
1000
0100
1000
0001
,
0010
0001
0100
0010
1000
0001
0100
0010
0100
0001
1000
0010
1000
0001
0100
0010
,
0100
0001
1000
0100
0010
0001
1000
0100
1000
0001
0010
0001
0100
0010
1000
0001
,
0100
0001
1000
0010
1000
0001
0100
0010
0100
0001
1000
0100
1000
0010
1000
0001
,
0100
0010
0100
0001
1000
0100
1000
0001
0010
0001
1000
0100
0010
0001
1000
0001
,
0100
0010
0100
0001
1000
0100
1000
0010
0100
0001
0100
0010
1000
0001
0010
0001
,
1000
0100
1000
0001
0100
0001
0010
0100
1000
0001
0010
0001
0100
0010
1000
0001
,
0100
0010
0100
0001
1000
0010
1000
0001
0100
0010
0100
0001
1000
0100
0010
0100
,
1000
0001
0010
0001
0100
0010
1000
0001
0100
0010
0100
0001
1000
0100
1000
0100
,
0010
0001
1000
0100
0010
0100
1000
0001
0010
0001
0100
0010
1000
0001
0100
0001
,
0010
0100
1000
0001
0010
0001
0100
0010
1000
0001
0100
0010
0100
0001
1000
0010
,
1000
0001
1000
0010
0100
0001
1000
0100
1000
0001
0010
0001
0100
0010
1000
0001
,
0100
0010
0100
0001
1000
0100
0010
0001
1000
0100
1000
0001
0010
0001
0100
0010
,
1000
0001
0100
0010
0100
0001
1000
0010
1000
0001
0100
0010
0100
0001
1000
0100
,
0010
0100
1000
0001
0010
0001
0100
0010
1000
0001
0100
0001
1000
0100
1000
0001
,
0100
0010
0100
0001
1000
0100
0010
0001
1000
0001
0100
0010
1000
0001
0010
0001
,
0100
0010
0100
0001
1000
0000
0010
0000
0100
0000
0001
0000
2000
0000
0000
0000
,
3020
0000
0000
0000
0130
0000
0001
0000
0100
0000
0010
0000
2000
0000
3002
0003
,
1002
0003
2000
3000
2010
3000
0010
0000
1000
0000
0001
0000
0201
0000
0000
0000
,
0302
0000
0013
0100
1000
0001
0100
0010
,
1000
0000
0001
0000
1000
0100
0010
0001
0100
0010
1000
0001
0010
0001
0100
0010
,
1000
0001
0100
0010
0100
0001
1000
0100
0010
0100
1000
0001
0010
0001
0100
0001
,
1000
0010
1000
0001
0100
0010
0100
0001
1000
0100
0010
0001
1000
0100
1000
0001
,
0100
0010
1000
0001
0010
0001
0100
0010
1000
0001
0100
0001
1000
0100
0010
0100
,
1000
0001
0010
0001
1000
0100
1000
0001
0100
0010
1000
0001
0100
0001
1000
0010
,
0100
0001
0100
0010
1000
0001
0100
0001
0010
0100
1000
0001
0010
0001
0100
0010
,
1000
0001
0100
0010
0100
0001
1000
0010
0100
0010
1000
0001
0100
0001
0010
0100
,
1000
0001
0010
0001
1000
0010
0100
0001
1000
0100
1000
0001
1000
0010
0100
0001
,
0100
0010
1000
0001
1000
0100
0010
0001
1000
0100
1000
0001
0100
0001
0010
0100
,
1000
0001
0010
0001
0100
0010
1000
0001
0100
0010
0100
0001
1000
0010
1000
0001
,
0100
0010
0100
0001
1000
0100
1000
0010
1000
0001
0100
0001
0010
0100
1000
0001
,
0010
0001
1000
0100
1000
0001
0010
0001
0100
0010
1000
0001
0100
0010
0100
0001
,
1000
0100
1000
0010
0100
0001
1000
0100
1000
0001
0010
0001
0100
0010
1000
0001
,
0100
0001
0010
0100
1000
0001
0010
0001
0100
0010
1000
0001
0100
0001
1000
0100
,
0010
0001
1000
0100
1000
0001
0010
0100
0010
0001
1000
0100
1000
0001
0100
0001
,
1000
0010
0100
0001
1000
0100
1000
0001
0100
0001
0010
0100
1000
0001
0010
0001
,
0100
0010
0100
0001
1000
0010
1000
0001
0100
0010
0100
0001
1000
0100
0010
0100
,
1000
0001
0010
0001
0100
0010
1000
0001
0010
0001
1000
0100
1000
0001
0010
0001
,
0100
0010
1000
0001
0100
0010
1000
0001
0100
0001
1000
0010
0100
0001
0100
0010
,
1000
0001
0010
0001
1000
0100
0010
0001
1000
0001
0100
0010
0100
0001
1000
0100
,
1000
0001
0010
0100
2000
0000
3020
0000
0000
0000
0000
0000
0000
0000
0000
0000
,
0000
0000
0130
0001
1000
0100
1000
0001
,
0010
0100
1100
1000
0010
0100
0101
0001
,
1000
0010
0110
0100
0001
1000
0010
0100
,
0001
1000
0010
0100
0020
0000
0000
0000
2030
0000
0000
0000
0000
0000
0000
0000
,
0000
0000
0000
0000
,
3000
1001
0110
0000
0020
0000
0000
0000
,
0000
0000
0000
0230
0000
0000
0000
0000
,
0000
0300
0101
0000
1001
0000
0000
0000
2000
0000
0000
0000
0000
0000
3020
0000
,
0000
0000
0000
0000
,
0000
1100
1100
0000
0000
0000
1100
0000
,
0000
1100
0000
1100
,
2030
3M1M
0100
0111
,
0001
1011
1000
1110
,
0010
0111
0001
1101
,
1000
1110
0010
0111
,
0001
1011
1000
1101
,
0001
0111
0010
1011
,
1000
1110
0010
0111
,
0001
1101
1000
1111
,
0002
0000
0000
0000
1003
0100
1000
0010
0100
0001
1000
0001
0100
0010
0100
0001
,
1000
0010
1000
0001
0100
0001
0010
0100
1000
0001
0010
0001
1000
0100
0010
0001
,
1000
0100
1000
0001
0100
0001
0010
0100
1000
0001
0010
0001
0100
0010
1000
0001
,
0100
0010
0100
0001
1000
0010
1000
0001
0100
0001
1000
0100
0010
0100
1000
0001
,
0010
0001
1000
0100
0010
0001
1000
0100
1000
0001
0100
0010
1000
0001
0010
0001
,
1000
0100
1000
0001
1000
0010
0100
0001
0100
0010
1000
0100
1000
0001
1000
0001
,
0100
0010
0100
0001
1000
0100
0010
0001
1000
0100
1000
0001
0010
0001
0100
0010
,
1000
0001
0100
0001
1000
0010
0100
0001
1000
0100
0010
0001
1000
0001
0010
0100
,
1000
0001
0100
0001
1000
0010
1000
0001
0010
0100
1000
0100
0010
0001
1000
0010
,
1000
0001
0100
0001
1000
0100
1000
0010
0100
0001
1000
0010
1000
0100
0010
0001
,
1000
0100
0010
0100
1000
0001
0010
0001
1000
0100
0010
0100
1000
0001
0100
0010
,
0100
0001
1000
0010
1000
0100
0010
0001
1000
0100
0010
0100
1000
0001
0100
0001
,
0100
0010
1000
0001
0100
0010
0100
0001
1000
0010
1000
0100
0010
0001
1000
0100
,
1000
0010
0100
0001
1000
0010
1000
0100
0010
0001
1000
0100
0010
0100
1000
0001
,
0010
0001
1000
0001
0010
0100
1000
0001
0100
0001
1000
0010
1000
0100
0010
0001
,
1000
0100
0010
0100
1000
0001
0100
0010
1000
0001
0100
0001
1000
0010
1000
0100
,
0010
0001
1000
0100
0010
0100
1000
0001
0010
0001
1000
0100
0010
0100
1000
0001
,
0100
0010
0100
0001
1000
0010
1000
0100
0010
0001
1000
0100
1000
0001
0100
0001
,
1000
0100
0010
0100
1000
0001
0100
0010
1000
0001
1000
0100
0010
0001
0100
0010
,
1000
0001
0100
0001
1000
0010
1000
0100
0010
0001
1000
0100
0010
0100
1000
0001
,
0010
0001
1000
0100
0010
0100
1000
0001
0100
0010
1000
0001
0100
0001
1000
0010
,
1000
0100
0010
0001
1000
0100
1000
0001
0010
0001
1000
0100
0010
0100
1000
0001
,
0100
0001
0010
0001
1000
0100
0010
0100
1000
0001
0100
0001
1000
0010
1000
0001
,
0100
0010
1000
0001
1000
0100
0010
0100
1000
0001
0100
0001
0010
0100
1000
0100
,
0010
0001
1000
0010
1000
0000
0000
0000
0000
0000
0000
0000
0001
0000
0000
0000
,
0000
0000
0010
0000
0000
0000
0100
1000
,
0001
0000
1000
0000
0001
0100
0010
1000
0001
1000
0100
0010
0001
1000
0100
0010
,
0100
1000
0010
1000
0001
0100
0010
0100
0001
1000
0100
1000
0010
0100
0001
1000
,
0001
0010
0100
0010
0100
1000
0001
0010
0001
1000
0100
0010
0100
1000
0001
0100
,
0010
1000
0001
0010
0001
0100
0010
1000
0001
0100
0001
1000
0010
1000
0100
0010
,
0001
1000
0100
0010
0100
1000
0001
0010
0001
1000
0100
0010
0100
1000
0001
0100
,
0010
1000
0001
0100
0001
1000
0010
1000
0100
0010
0001
1000
0100
1000
0001
0010
,
0001
1000
0100
0010
0100
1000
0001
0100
0001
0010
0001
1000
0100
0010
0100
1000
,
0001
0100
0001
1000
0010
1000
0001
0100
0010
1000
0001
1000
0100
0010
0100
1000
,
0001
0100
0001
0010
0100
1000
0100
0010
0001
1000
0010
1000
0001
0100
0001
1000
,
0100
1000
0010
0100
0001
1000
0010
1000
0100
0010
0001
1000
0100
0010
0100
1000
,
0001
0010
0001
1000
0100
0010
0100
1000
0001
0100
0010
0100
0001
1000
0010
1000
,
0100
0010
0001
1000
0100
0010
0100
1000
0001
0100
0001
0100
0010
1000
0001
0100
,
0010
0100
0001
1000
0010
1000
0100
0010
0001
1000
0100
1000
0010
0100
0001
1000
,
0010
1000
0100
0010
0001
1000
0100
0010
0100
1000
0001
0010
0001
1000
0001
0010
,
0100
1000
0001
0100
0001
1000
0010
1000
0100
0010
0001
1000
0100
0010
0100
1000
,
0001
0100
0010
1000
0001
0100
0001
1000
0010
1000
0100
0010
0001
1000
0100
0010
,
0100
1000
0001
0010
0001
1000
0100
0010
0100
1000
0001
0100
0010
0100
0001
1000
,
0010
1000
0100
0010
0001
1000
0100
1000
0001
0100
0001
1000
0100
0010
0100
1000
,
0001
0100
0010
1000
0001
1000
0100
0010
0001
0100
0010
1000
0001
0100
0001
1000
,
0010
1000
0100
0010
0001
1000
0100
0010
0100
1000
0001
0010
0001
1000
0100
0010
,
0100
1000
0001
0100
0010
1000
0001
0100
0001
1000
0010
1000
0100
0010
0001
1000
,
0100
1000
0001
0010
0001
1000
0100
0010
0100
1000
0001
0100
0001
0010
0001
1000
,
0100
0010
0100
1000
0001
0100
0001
1000
0010
1000
0001
0100
0010
1000
0001
1000
,
0100
0010
0100
1000
0001
0100
0001
0010
0100
1000
0100
0010
0001
1000
0010
1000
,
0001
0100
0001
1000
0100
1000
0010
0100
0001
1000
0010
1000
0100
0010
0001
1000
,
0100
0010
0100
1000
0001
0010
0001
1000
0100
0010
0100
1000
0001
0100
0010
0100
,
0001
1000
0010
1000
0100
0010
0001
1000
0100
0010
0100
1000
0001
0100
0001
0100
,
0010
1000
0001
0100
0010
0100
0001
1000
0010
1000
0100
0010
0001
1000
0100
1000
,
0010
0100
0001
1000
0010
1000
0100
0010
0001
1000
0100
0010
0100
1000
0001
0010
,
0001
1000
0001
0010
0100
1000
0001
0100
0001
1000
0010
1000
0100
0010
0001
1000
,
0100
0010
0100
1000
0001
0100
0010
1000
0001
0100
0001
1000
0010
1000
0100
0010
,
0001
1000
0100
0010
0100
1000
0001
0010
0001
1000
0100
0010
0100
1000
0001
0100
,
0010
0100
0001
1000
0010
1000
0100
0010
0001
1000
0100
1000
0001
0100
0001
1000
,
0100
0010
0100
1000
0001
0100
0010
1000
0001
1000
0100
0010
0001
1000
0010
1000
,
0100
0010
0100
1000
0001
0000
0010
0000
0100
0000
1000
0000
0002
0000
0000
0000
,
0023
0000
0000
0000
0130
0000
1000
0000
0100
0000
0010
0000
0002
0000
2003
3000
,
2001
3000
0002
0003
0012
0003
0010
0000
0001
0000
1000
0000
1200
0000
0000
0000
,
2300
0000
3010
0100
0001
1000
0100
0010
,
0001
0000
1000
0000
0001
0100
0010
1000
0100
0010
0001
1000
0010
1000
0100
0010
,
0001
1000
0100
0010
0100
1000
0001
0100
0010
0100
0001
1000
0010
1000
0100
1000
,
0001
0010
0001
1000
0100
0010
0100
1000
0001
0100
0010
1000
0001
0100
0001
1000
,
0100
0010
0001
1000
0010
1000
0100
0010
0001
1000
0100
1000
0001
0100
0010
0100
,
0001
1000
0010
1000
0001
0100
0001
1000
0100
0010
0001
1000
0100
1000
0001
0010
,
0100
1000
0100
0010
0001
1000
0100
1000
0010
0100
0001
1000
0010
1000
0100
0010
,
0001
1000
0100
0010
0100
1000
0001
0010
0100
0010
0001
1000
0100
1000
0010
0100
,
0001
1000
0010
1000
0001
0010
0100
1000
0001
0100
0001
1000
0001
0010
0100
1000
,
0100
0010
0001
1000
0001
0100
0010
1000
0001
0100
0001
1000
0100
1000
0010
0100
,
0001
1000
0010
1000
0100
0010
0001
1000
0100
0010
0100
1000
0001
0010
0001
1000
,
0100
0010
0100
1000
0001
0100
0001
0010
0001
1000
0100
1000
0010
0100
0001
1000
,
0010
1000
0001
0100
0001
1000
0010
1000
0100
0010
0001
1000
0100
0010
0100
1000
,
0001
0100
0001
0010
0100
1000
0001
0100
0001
1000
0010
1000
0100
0010
0001
1000
,
0100
1000
0010
0100
0001
1000
0010
1000
0100
0010
0001
1000
0100
1000
0001
0100
,
0010
1000
0001
0100
0001
1000
0010
0100
0010
1000
0001
0100
0001
1000
0100
1000
,
0001
0010
0100
1000
0001
0100
0001
1000
0100
1000
0010
0100
0001
1000
0010
1000
,
0100
0010
0100
1000
0001
0010
0001
1000
0100
0010
0100
1000
0001
0100
0010
0100
,
0001
1000
0010
1000
0100
0010
0001
1000
0010
1000
0001
0100
0001
1000
0010
1000
,
0100
0010
0001
1000
0100
0010
0001
1000
0100
1000
0001
0010
0100
1000
0100
0010
,
0001
1000
0010
1000
0001
0100
0010
1000
0001
1000
0100
0010
0100
1000
0001
0100
,
0001
1000
0010
0100
0002
0000
0203
0000
0000
0000
0000
0000
0000
0000
0000
0000
,
0000
0000
0310
1000
0001
0010
0001
1000
,
0100
0010
0011
0001
0100
0010
1010
1000
,
0001
0100
0110
0010
1000
0001
0100
0010
,
1000
0001
1000
0001
0100
0010
1000
0100
1000
0001
0100
0001
0010
0100
1000
0001
,
0010
0001
1000
0100
0010
0100
1000
0001
0100
0001
1000
0010
0100
0010
1000
0001
,
0010
0001
1000
0010
0100
0001
1000
0010
0100
0010
1000
0001
0100
0001
0010
0001
,
1000
0010
0100
0010
1000
0001
0100
0001
1000
0010
0100
0010
1000
0100
1000
0001
,
0010
0100
0010
0001
1000
0001
0100
0010
1000
0001
1000
0100
0010
0001
0010
0100
,
1000
0001
1000
0010
0100
0010
1000
0001
0100
0001
1000
0001
0010
0100
1000
0010
,
1000
0100
0010
0001
1000
0100
1000
0010
0100
0001
1000
0010
0100
0010
1000
0001
,
0100
0001
1000
0010
0100
0000
0000
0000
0001
0000
1000
0000
0010
0000
0000
0000
,
0100
0000
0000
0000
;
