#TITLE:trim;
#SUBTITLE:;
#ARTIST:nu feat.jeli;
#TITLETRANSLIT:;
#SUBTITLETRANSLIT:;
#ARTISTTRANSLIT:;
#CREDIT:;
#BANNER:trim.png;
#BACKGROUND:trim-bg.png;
#LYRICSPATH:;
#CDTITLE:cdtitle.png;
#MUSIC:trim.ogg;
#OFFSET:-0.001;
#SAMPLESTART:14.949;
#SAMPLELENGTH:12.000;
#SELECTABLE:YES;
#BPMS:0.000=315.000;
#STOPS:;
#BGCHANGES:;
// cache tags:
#FIRSTBEAT:16.000;
#LASTBEAT:567.000;
#SONGFILENAME:Songs/Japanese Collaboration Mix/trim/trim.sm;
#HASMUSIC:1;
#HASBANNER:1;
#MUSICLENGTH:114.285;
// end cache tags

//---------------dance-single - ----------------
#NOTES:
     dance-single:
     :
     Challenge:
     11:
     0.791,1.000,0.166,0.131,0.000,599.000,19.000,15.000,0.000,0.000:
0000
0000
0000
0000
,
0000
0000
0000
0000
,
0000
0000
0000
0000
,
0000
0000
0000
0000
,
0001
0010
0100
1000
,
0010
0100
0001
0010
,
0100
0001
0100
1000
,
0100
1100
0000
0000
,
0010
0100
0001
0100
,
0010
0001
0010
0001
,
0010
0000
0100
0000
0000
0100
0010
0000
,
1001
0000
0010
0000
,
1000
0100
0010
0001
,
0010
0100
1000
0001
,
0100
0010
1000
0010
,
0100
0101
0000
0000
,
0001
0010
0100
1000
,
0010
0001
0010
1000
,
0001
0000
0101
0000
0000
0000
0100
0001
,
1000
0000
0100
0000
0000
1000
0100
0010
,
0001
0010
0001
1000
,
1001
0000
0000
0000
0000
0100
0001
1000
,
0200
0010
0320
0001
,
0031
1000
0010
0000
,
0100
0001
1000
0100
,
0010
0000
0000
0000
0000
0000
1000
0100
,
2000
0000
3200
0010
,
0310
0001
1001
0000
,
1000
0010
1000
0100
,
1100
0000
0000
0000
0000
0100
1000
0001
,
0020
0100
0230
1000
,
1300
0001
0100
0000
,
0010
1000
0010
0100
,
0001
0000
0100
0000
,
2000
0000
0100
0000
3100
0000
1000
0100
,
0010
0110
0000
0000
,
0001
0000
0000
0001
0100
0000
0000
0100
,
0010
0000
0000
0010
0100
0000
0000
0100
,
0010
0000
0000
0010
1000
0000
0000
1000
,
0010
0000
0000
0010
1000
0000
0001
1000
,
0100
0000
0000
0100
0010
0000
0000
0010
,
0001
0000
0000
0001
1000
0000
0000
1000
,
0100
0000
0000
0100
0010
0100
1000
0000
,
1000
0001
1000
0001
1000
0000
1000
0000
,
0001
0000
0010
0001
0100
0000
0000
0000
,
0001
0000
0100
0001
1000
0000
0010
1000
,
0001
0000
0100
0010
1000
0000
0010
0100
,
0010
0110
1010
1001
,
0000
0000
0100
0001
1000
0000
0100
1000
,
0001
0000
0100
0001
1000
0000
0100
0010
,
0001
0000
0010
0001
1000
0000
0010
1000
,
0001
1000
1000
0000
,
1000
0000
0010
1000
0100
0000
0000
0000
,
1000
0000
0100
1000
0001
0000
0010
0001
,
1000
0000
0010
1000
0001
0000
0010
0100
,
1000
1001
1010
0101
,
0000
0000
0100
0001
1000
0000
0100
1000
,
0001
0000
0010
0001
1000
0000
0010
1000
,
0100
0000
0010
0000
0001
0010
0100
0000
,
0010
0100
0010
0100
0010
0100
0010
0000
,
0001
0000
0010
0001
0000
1000
0010
0000
,
0001
0100
0001
1000
0000
0010
1000
0000
,
0010
0000
0010
0100
0000
0001
0100
0000
,
1000
0010
1000
0001
0000
0010
0100
0000
,
0000
0100
1000
0100
0000
0010
0100
0000
,
1000
0100
0000
0001
0000
0100
0010
0000
,
1000
0000
0001
0010
0000
0001
0100
0000
,
0010
1000
0001
0010
0000
0100
0001
0000
,
0000
1000
0100
0010
0000
0010
0000
0001
,
0000
1000
0001
1000
0000
0001
0010
0100
,
0000
0001
1000
0100
0000
1000
0000
0001
,
0100
0000
0100
0000
1000
0000
0001
0010
,
0000
0000
1000
0001
0100
0000
1000
0010
,
0100
0000
0010
0000
0010
0100
0001
1000
,
0001
1000
0001
1000
,
0001
0000
1000
0000
0000
0001
1000
0000
,
1100
0000
0100
0000
,
1000
0000
0001
0000
,
0100
0000
0001
1000
,
0010
0000
0100
0010
,
0100
0000
0001
0000
,
1000
0000
0001
0010
,
0100
0000
0100
0000
,
1000
0100
0001
0100
,
1000
0000
1000
0000
,
0100
0000
0010
0100
,
0001
0000
0100
0000
,
0010
0000
0100
1000
,
0001
0000
1000
0000
,
0001
0000
0010
0001
,
1000
0000
1001
0000
,
0001
0000
1001
0000
,
0000
0000
0000
0010
,
0020
0000
0000
0000
,
0100
0000
0000
0000
,
2030
0000
0000
0000
,
3002
0000
0000
0000
,
2000
0000
0003
0000
,
0001
0000
0000
0000
,
3200
0000
0000
0000
,
0010
0000
0001
0000
,
0302
0000
0000
0000
,
0100
0000
0000
0000
,
0100
0000
0000
0000
,
0203
0000
0000
0000
,
0010
0000
0000
0000
,
1000
0000
0000
1300
,
0100
0000
0010
0001
1000
0010
1000
0000
,
1000
0100
0010
0000
,
1000
0000
1000
0100
0000
0100
1000
0001
,
0010
0001
1000
0100
0010
0000
0001
0000
,
0001
0010
0100
0010
0001
1000
0001
0000
,
0001
0010
0100
0010
0100
1000
0000
0000
,
0010
0100
1000
0001
0010
0001
1000
0010
,
0000
0010
1000
0001
0010
0100
0000
0000
,
0001
0010
0001
1000
0100
0000
0110
0000
,
0001
0000
1000
0010
0000
1000
0100
0000
,
1000
0000
1000
0010
0000
0010
1000
0010
,
1000
0001
1000
0001
1000
0001
0000
0000
,
0001
0000
0001
0100
0000
0100
0001
0100
,
0001
1000
0001
1000
0001
1000
0000
0100
,
1000
0001
1000
0010
0100
0001
1000
0000
,
0010
0000
1000
0001
0100
0001
0000
0000
,
1000
0001
1000
0100
0010
0000
0011
0000
,
0000
0001
0010
0100
0000
1000
0001
0000
,
1000
0100
0010
0100
1000
0100
0010
0001
,
0010
0100
1000
0100
0010
0100
1000
0001
,
0010
0100
0010
0001
0010
0100
1000
0100
,
0010
0100
1000
0001
0010
0100
1000
0000
,
0001
0010
0001
0010
0001
0010
0001
0010
,
0100
0010
0100
0010
0100
0010
0100
0010
,
0100
1000
0100
1000
0100
1000
0100
1000
,
0100
0000
1000
0010
0000
1000
0001
0000
,
1000
0100
0010
0001
0010
0100
1000
0100
,
0010
0100
1000
0100
0010
0001
0010
0100
,
0010
0001
0010
0100
1000
0001
0100
0000
,
0001
0100
0010
0100
0001
1000
0010
1000
,
0100
0000
0100
0010
0001
0010
0100
1000
,
0100
0010
1000
0010
0100
0001
0100
0010
,
0001
0010
0100
1000
0001
1000
0010
0100
,
0001
0000
1000
0001
1000
0000
0002
0000
,
0000
0000
0000
0003
;
