#TITLE:Dub Junglizt;
#SUBTITLE:;
#ARTIST:Selector Catalogue;
#TITLETRANSLIT:;
#SUBTITLETRANSLIT:;
#ARTISTTRANSLIT:;
#CREDIT:;
#BANNER:../ban - Jawn2.png;
#BACKGROUND:../Jawn2 - bg.png;
#LYRICSPATH:;
#CDTITLE:CDa.png;
#MUSIC:Dub Junglizt.ogg;
#OFFSET:0.009;
#SAMPLESTART:84.969;
#SAMPLELENGTH:12.000;
#SELECTABLE:YES;
#BPMS:0.000=220.000;
#STOPS:;
#BGCHANGES:;
// cache tags:
#FIRSTBEAT:8.000;
#LASTBEAT:428.000;
#SONGFILENAME:Songs/Jimmy Jawns 2/Dub Junglizt - [Aoreo]/Dub Junglizt.sm;
#HASMUSIC:1;
#HASBANNER:1;
#MUSICLENGTH:117.903;
// end cache tags

//---------------dance-single - J. Nero----------------
#NOTES:
     dance-single:
     J. Nero:
     Challenge:
     16:
     1.000,1.000,0.144,0.517,1.000,1162.000,17.000,61.000,0.000,0.000:
0000
0000
0000
0000
,
0000
0000
0000
0000
,
1002
0003
1000
0010
0100
0001
1000
0100
0010
0000
0001
0000
1000
0000
0100
0000
,
1200
0300
1000
0000
0100
0010
0001
1000
0001
0000
1000
0000
0001
0000
0010
0000
,
0120
0030
0100
0000
1000
0010
1000
0001
0100
0000
0001
0000
0010
0000
0001
0000
,
0100
0010
1000
0001
1000
0100
0010
0001
0100
0001
1000
0010
0100
0001
0100
0010
,
2000
3000
0001
0100
0001
1000
0100
0010
0001
0000
0001
0000
1000
0000
0010
0000
,
0100
0000
0001
1000
0100
0000
1000
0000
1000
0000
0001
0100
0001
0010
0100
1000
,
0010
1000
0001
0010
0001
0100
0010
1000
0100
0000
0010
0000
0004
0000
0003
0000
,
1000
0000
0001
0000
0100
0001
1000
0100
0010
0000
0010
0000
0004
0000
0003
0000
,
1001
0000
1000
0010
0100
0001
1000
1000
0001
0000
0100
0000
0010
0000
1000
0000
,
0000
0100
0000
0000
0000
0000
0000
0000
0010
0000
0000
0000
0000
0000
0000
0000
0001
0000
0000
0000
0000
0000
0000
0000
0100
0000
0000
0000
0000
0000
0000
0000
0010
0000
0000
0000
1000
0000
0000
0000
0010
0000
0000
0000
0100
0000
0000
0000
0001
0000
0000
0000
0010
0000
0000
0000
0100
0000
0000
0000
1000
0000
0000
0000
,
0002
0013
0002
0103
0010
0010
0010
0010
,
1000
0001
1000
0100
0010
0001
0100
0001
1000
0100
1000
0010
0100
0001
0100
0010
,
1000
0001
1000
0100
0010
0001
0100
0001
0010
0100
1000
0001
1000
0010
0100
0001
,
1000
0000
0001
0000
0101
0000
0100
0010
1000
0001
1000
0100
0010
0001
0100
0001
,
1000
0100
1000
0010
0100
0001
0100
0010
1000
0000
0001
0000
0100
0000
0100
0000
,
0001
1000
0100
1000
0010
0100
0001
1000
0001
0010
0100
1000
0020
0030
0000
0000
,
1000
0000
1000
0000
0001
0100
0010
1000
0001
0000
0001
0000
0100
0000
0100
0000
,
0010
1000
0100
0010
0001
0000
0001
0000
1000
0000
0010
0000
0100
0010
0100
0001
,
0010
0000
0100
0000
1000
0010
1000
0100
0010
0000
0001
0000
0100
0000
0001
0000
,
0010
0100
1000
0010
1000
0001
0100
0010
1000
0010
0100
0001
1000
0100
0010
0001
,
0100
0000
0001
1000
0001
0010
0100
0000
1000
0000
0010
0000
1000
0000
0100
0000
,
0010
0001
1000
0100
1000
0000
0040
0030
1000
0000
0100
0000
0040
0030
0001
0000
,
1000
0010
1000
0100
0010
0001
0100
0001
1000
0010
0100
0001
1000
0000
0100
0000
,
1000
0010
1000
0000
0100
0010
0001
0000
1000
0001
1000
0100
0010
0001
0100
0010
,
1000
0000
0001
0100
0001
0010
0100
0000
1000
0000
0010
0000
0100
0000
0100
0000
,
0001
1000
0001
0010
0100
0000
1000
0000
2200
3300
0000
0000
2002
3003
0000
0000
,
0001
0100
0001
0010
0200
0300
1000
0010
1000
0100
0020
0030
0001
1000
0200
0300
,
1000
0000
0000
0000
0000
0000
0000
0000
2020
3030
0000
0000
0000
0000
0000
0000
0110
0000
0000
0000
0000
0000
0000
0000
0100
0000
0001
0000
1000
0000
0001
0000
,
0010
0000
0100
0000
1000
0100
1000
0001
0100
0010
1000
0001
0010
0100
1000
0001
,
0100
0010
1000
0010
0100
0000
0001
0000
0011
0000
0010
0000
0100
1000
0001
1000
,
0010
0000
0100
0001
1000
0001
0010
0000
0100
0000
0100
0000
1000
0000
1000
0000
,
0001
0100
0010
1000
0010
0100
0001
1000
0100
0010
0001
0100
0010
1000
0010
0100
,
0001
0000
1000
0100
1000
0010
0100
0001
1000
0000
1000
0000
0010
0000
0010
0000
,
0100
0000
0001
0000
1000
0010
1000
0100
0010
0000
0001
0000
0001
0000
1000
0000
,
0010
0000
0100
0000
0001
1000
0001
0010
0100
0000
1000
0000
0001
0000
0100
0000
,
0010
1000
0001
1000
0100
0010
0001
0100
0001
1000
0100
0010
0001
0100
0001
1000
,
0020
0030
0000
0000
2020
3030
0000
0000
1000
0000
0100
0000
1000
0000
1000
0000
,
0001
1000
0001
0010
0100
0000
1000
0000
0010
0000
0010
0000
0100
0001
0000
1000
,
0001
0000
0010
0100
0000
1000
0001
0000
1000
0000
0100
0000
0100
0000
0100
0000
,
1000
0010
1000
0001
0010
0100
1000
0001
0100
0010
1000
0010
0100
0001
0010
0100
,
1000
0001
1000
0010
0100
0000
0001
0000
0010
0000
0001
0000
0010
0000
0010
0000
,
0100
0000
1000
0001
1000
0010
0100
0000
0000
0001
1000
0000
0000
0000
0001
0000
,
0000
1000
0000
0000
0000
0000
0000
0000
0000
0100
0000
0000
0000
0000
0000
0000
0000
1000
0000
0000
0000
0000
0000
0000
0000
0010
0000
0000
0000
0000
0000
0000
0000
0100
0000
0000
0000
0001
0000
0000
0000
1000
0000
0000
0000
0001
0000
0000
0000
0010
0000
0000
0000
0000
0000
0000
0000
0100
0000
0000
0000
0000
0000
0000
,
1000
0001
1000
0100
0010
0001
0100
0001
1000
0010
1000
0001
0100
0001
0010
0100
,
1000
0000
0001
0000
0100
0010
1000
0001
1000
0000
1001
0000
0101
0000
0110
0000
,
0010
0000
1000
0000
0100
0010
0001
0100
0001
0000
1001
0000
1100
0000
0100
1000
,
0001
0000
0100
0000
0010
1000
0010
0100
0001
0010
0100
1000
0010
1000
0001
0100
,
0010
0000
1000
0000
0100
0000
1000
0001
0100
0000
0001
0000
1000
0000
1000
0000
,
0010
0000
0010
0000
1000
0001
1000
0010
0100
0000
0001
0000
0010
0000
0010
0000
,
0100
1000
0001
1000
0010
0000
0010
0000
1000
0000
1000
0000
0100
0010
0001
1000
,
0001
0000
1000
0010
0100
0000
0001
0010
0100
0000
1000
0000
0010
0000
0100
0000
,
0001
0100
0001
0010
0100
0000
0100
0000
1000
0000
1000
0000
0010
1000
0001
1000
,
0100
0000
0010
0000
0001
1000
0001
0010
0100
0000
1000
0000
0010
0000
0100
0001
,
1000
0001
0010
0000
0010
0000
0100
0000
0100
0000
1000
0000
0001
0100
0001
0010
,
0100
1000
0010
0100
0001
0001
1000
0100
,
1000
0000
0001
0100
0001
1000
0100
0000
0100
0000
0010
0000
0010
0000
0001
1000
,
0001
0010
0100
0000
1000
0000
0010
1000
0010
0100
0001
0000
0001
0000
1000
0000
,
0100
0000
0010
0001
1000
0001
0100
0000
0100
0000
0001
0000
0001
0000
1000
0100
,
1000
0001
0100
0000
0001
0000
0010
0100
1000
0001
0000
0001
0000
0100
0000
0010
,
0000
0000
1000
0001
1000
0010
0100
0000
0001
0000
0010
0000
0100
0000
1000
0001
,
1000
0000
0001
0100
0001
0010
0100
0000
1000
0000
0010
0000
0010
0000
0100
0001
,
1000
0001
0010
0000
0010
0000
0100
0000
1000
0100
1000
0010
0100
0001
1000
0001
,
0010
0000
0100
1000
0001
1000
0010
0000
1000
0001
1000
0010
0100
0000
0001
1000
,
0001
0010
0100
0000
0100
0000
1000
0000
0000
0000
0001
0000
0100
0000
0001
0000
,
0010
0000
0000
0000
0000
0000
0000
0000
0100
0000
0000
0000
0000
0000
0000
0000
2000
3000
0000
0000
0000
0000
0000
0000
0010
0000
0000
0000
0000
0000
0000
0000
0200
0300
0000
0000
0000
0000
0000
0000
0001
0000
0000
0000
0000
0000
0000
0000
0010
0000
0000
0000
0000
0000
0000
0000
0001
0000
0000
0000
0000
0000
0000
0000
,
2000
3000
0000
0000
0000
0000
0000
0000
0100
0000
0000
0000
0000
0000
0000
0000
2000
3000
0000
0000
0000
0000
0000
0000
0001
0000
0000
0000
0000
0000
0000
0000
0020
0030
0000
0000
0000
0000
0000
0000
0001
0000
0000
0000
0000
0000
0000
0000
0100
0000
0000
0000
0000
0000
0000
0000
0010
0000
0000
0000
0000
0000
0000
0000
,
2000
3000
0000
0000
0000
0000
0000
0000
0100
0000
0000
0000
0000
0000
0000
0000
0020
0030
0000
0000
0000
0000
0000
0000
0200
0300
0000
0000
0000
0000
0000
0000
0002
0003
0000
0000
0000
0000
0000
0000
1000
0000
0000
0000
0000
0000
0000
0000
0010
0000
0000
0000
0000
0000
0000
0000
0001
0000
0000
0000
0000
0000
0000
0000
,
1000
0000
0000
0000
0000
0000
0000
0000
0010
0000
0000
0000
0000
0000
0000
0000
2000
3000
0000
0000
0000
0000
0000
0000
0100
0000
0000
0000
0000
0000
0000
0000
2000
3000
0000
0000
0000
0000
0000
0000
0001
0000
0000
0000
0000
0000
0000
0000
0010
0000
0000
0000
0000
0000
0000
0000
0001
0000
0000
0000
0000
0000
0000
0000
,
0100
0000
0000
0000
0000
0000
0000
0000
0010
0000
0000
0000
0000
0000
0000
0000
2000
3000
0000
0000
0000
0000
0000
0000
0100
0000
0000
0000
0000
0000
0000
0000
0020
0030
0000
0000
0000
0000
0000
0000
0001
0000
0000
0000
0000
0000
0000
0000
0100
0000
0000
0000
0000
0000
0000
0000
0010
0000
0000
0000
0000
0000
0000
0000
,
2000
3000
0000
0000
0000
0000
0000
0000
0100
0000
0000
0000
0000
0000
0000
0000
2000
3000
0000
0000
0000
0000
0000
0000
0001
0000
0000
0000
0000
0000
0000
0000
0020
0030
0000
0000
0000
0000
0000
0000
0001
0000
0000
0000
0000
0000
0000
0000
0100
0000
0000
0000
0000
0000
0000
0000
0010
0000
0000
0000
0000
0000
0000
0000
,
2000
3000
0000
0000
0000
0000
0000
0000
0100
0000
0000
0000
0000
0000
0000
0000
0020
0030
0000
0000
0000
0000
0000
0000
2000
3000
0000
0000
0000
0000
0000
0000
0002
0003
0000
0000
0000
0000
0000
0000
0100
0000
0000
0000
0000
0000
0000
0000
1000
0000
0000
0000
0000
0000
0000
0000
0010
0000
0000
0000
0000
0000
0000
0000
,
0100
0000
0000
0000
0000
0000
0000
0000
0001
0000
0000
0000
0000
0000
0000
0000
0020
0030
0000
0000
0000
0000
0000
0000
0001
0000
0000
0000
0000
0000
0000
0000
0200
0300
0000
0000
0000
0000
0000
0000
0010
0000
0000
0000
0000
0000
0000
0000
1000
0000
0000
0000
0000
0000
0000
0000
0100
0000
0000
0000
0000
0000
0000
0000
,
1000
0000
0000
0000
0000
0000
0000
0000
0010
0000
0000
0000
0000
0000
0000
0000
0200
0300
0000
0000
0000
0000
0000
0000
0001
0000
0000
0000
0000
0000
0000
0000
0020
0030
0000
0000
0000
0000
0000
0000
0001
0000
0000
0000
0000
0000
0000
0000
0100
0000
0000
0000
0000
0000
0000
0000
0010
0000
0000
0000
0000
0000
0000
0000
,
2000
3000
0000
0000
0000
0000
0000
0000
0100
0000
0000
0000
0000
0000
0000
0000
0020
0030
0000
0000
0000
0000
0000
0000
0100
0000
0000
0000
0000
0000
0000
0000
2000
3000
0000
0000
0000
0000
0000
0000
0010
0000
0000
0000
0000
0000
0000
0000
0100
0000
0000
0000
0000
0000
0000
0000
0001
0000
0000
0000
0000
0000
0000
0000
,
2000
3000
0000
0000
0000
0000
0000
0000
0010
0000
0000
0000
0000
0000
0000
0000
0200
0300
0000
0000
0000
0000
0000
0000
0020
0030
0000
0000
0000
0000
0000
0000
0002
0003
0000
0000
0000
0000
0000
0000
1000
0000
0000
0000
0000
0000
0000
0000
0100
0000
0000
0000
0000
0000
0000
0000
0001
0000
0000
0000
0000
0000
0000
0000
,
1000
0000
0000
0000
0000
0000
0000
0000
0100
0000
0000
0000
0000
0000
0000
0000
2000
3000
0000
0000
0000
0000
0000
0000
0010
0000
0000
0000
0000
0000
0000
0000
0200
0300
0000
0000
0000
0000
0000
0000
0001
0000
0000
0000
0000
0000
0000
0000
0010
0000
0000
0000
0000
0000
0000
0000
0100
0000
0000
0000
0000
0000
0000
0000
,
1000
0000
0000
0000
0000
0000
0000
0000
0010
0000
0000
0000
0000
0000
0000
0000
0200
0300
0000
0000
0000
0000
0000
0000
0001
0000
0000
0000
0000
0000
0000
0000
0020
0030
0000
0000
0000
0000
0000
0000
0001
0000
0000
0000
0000
0000
0000
0000
0100
0000
0000
0000
0000
0000
0000
0000
0010
0000
0000
0000
0000
0000
0000
0000
,
2000
3000
0000
0000
0000
0000
0000
0000
0100
0000
0000
0000
0000
0000
0000
0000
0020
0030
0000
0000
0000
0000
0000
0000
0100
0000
0000
0000
0000
0000
0000
0000
2000
3000
0000
0000
0000
0000
0000
0000
0010
0000
0000
0000
0000
0000
0000
0000
0100
0000
0000
0000
0000
0000
0000
0000
0001
0000
0000
0000
0000
0000
0000
0000
,
2000
3000
0000
0000
0000
0000
0000
0000
0100
0000
0000
0000
0000
0000
0000
0000
0020
0030
0000
0000
0000
0000
0000
0000
2000
3000
0000
0000
0000
0000
0000
0000
0002
0003
0000
0000
0000
0000
0000
0000
0100
0000
0000
0000
0000
0000
0000
0000
1000
0000
0000
0000
0000
0000
0000
0000
0010
0000
0000
0000
0000
0000
0000
0000
,
1000
0001
1000
0100
0010
0001
0100
0001
1000
0010
0100
0010
1000
0001
0010
0100
,
1000
0000
1000
0000
0010
0100
0010
1000
0001
0000
0001
0000
0010
0000
0100
0000
,
1000
0010
1000
0001
0100
0000
0100
0000
0001
0000
0001
0000
0010
0100
1000
0001
,
1000
0000
0010
0000
0100
0010
0100
0001
0010
0000
0010
0000
0100
0000
1000
0000
,
0001
1000
0001
0100
0010
1000
0001
1000
0100
0010
0001
1000
0001
0100
0010
1000
,
0001
0100
0001
0010
0100
1000
0001
0000
1000
0100
1000
0001
0100
0010
0100
0001
,
1000
0100
0010
0000
0001
0100
0010
0000
1000
0000
1000
0000
0001
1000
0001
0010
,
0100
0000
0100
0000
1000
0010
1000
0001
0100
0000
0100
0000
0001
0000
0001
0000
,
0010
0000
0010
0000
0100
0000
0100
0000
1000
0000
1000
0000
0001
0100
0001
1000
,
0100
0010
0001
0100
0001
1000
0010
1000
0100
0010
0001
0100
0001
0010
0100
0000
,
1100
0000
1000
0000
0001
1000
0001
0010
0100
0000
1000
0000
1000
0000
0001
0000
,
0001
0000
0100
0000
0001
0010
0001
1000
0010
0000
0100
0000
0100
0000
0001
0000
,
1000
0100
1000
0010
0100
0001
1000
0001
0010
0100
1000
0010
0100
0001
1000
0100
,
0010
0000
0010
0000
0001
0000
1000
0100
0010
0000
0010
0000
0001
0000
0001
0000
,
0100
0000
0010
1000
0001
1000
0100
0010
0001
0000
1000
0001
0100
0000
0004
0003
,
0040
0030
0100
1000
0010
1000
0001
0100
0001
0000
0001
0000
0010
0000
0100
0000
,
0100
0000
1000
0000
0001
0100
0001
1000
0100
0000
0100
0000
0010
0000
0010
0000
,
0001
1000
0001
0010
0100
1000
0001
0100
0010
1000
0100
0010
0001
1000
0001
0100
,
0010
0000
0000
1000
0100
0000
1000
0000
1000
0000
0001
0000
0100
0010
0100
0001
,
0010
0000
0100
0000
1000
0001
1000
0010
0100
0000
0001
0000
0001
0000
0010
0000
,
0100
1000
0010
0100
0010
1000
0001
0010
0100
0000
0100
0000
1000
0000
1000
0000
,
0001
0100
0001
1000
0100
0010
0001
1000
0001
0100
0010
1000
0010
0100
0001
0010
,
0100
1000
0000
0001
0100
0001
1000
0000
0010
0000
1000
0001
1000
0100
0010
0001
,
1000
0001
0100
0010
1000
0010
0100
0001
1000
0000
0100
0000
0100
0000
1000
0000
,
0001
0000
0100
0000
0010
1000
0100
0010
0001
0000
1000
0000
1000
0000
0001
0000
,
0100
0010
0100
0001
1000
0100
0010
0001
0100
0001
1000
0100
0010
0100
1000
0010
,
0100
0000
0000
0000
;
