#TITLE:4 18 Na LSD;
#SUBTITLE:;
#ARTIST:Loffciamcore;
#TITLETRANSLIT:;
#SUBTITLETRANSLIT:;
#ARTISTTRANSLIT:;
#CREDIT:The Cosmic Pope;
#BANNER:Bn-LSD.png;
#BACKGROUND:Bg-LSD.png;
#LYRICSPATH:;
#CDTITLE:;
#MUSIC:04. Loffciamcore - 4 18 Na LSD.ogg;
#OFFSET:-0.051;
#SAMPLESTART:16.021;
#SAMPLELENGTH:16.000;
#SELECTABLE:YES;
#DISPLAYBPM:240.000;
#BPMS:0.000=240.000,384.000=120.000,400.000=240.000;
#STOPS:;
#BGCHANGES:;
// cache tags:
#FIRSTBEAT:32.000;
#LASTBEAT:524.000;
#SONGFILENAME:Songs/SPEEEDCOOOORE 2/4 18 Na LSD - [CosmicPope]/4 18 Na LSD.sm;
#HASMUSIC:1;
#HASBANNER:1;
#MUSICLENGTH:135.105;
// end cache tags

//---------------dance-single - B. Abear----------------
#NOTES:
     dance-single:
     B. Abear:
     Challenge:
     16:
     1.000,1.000,0.370,0.207,1.000,905.000,50.000,28.000,10.000,0.000:

0000
0000
0000
0000
,
0000
0000
0000
0000
,
0000
0000
0000
0000
,
0000
0000
0000
0000
,
0000
0000
0000
0000
,
0000
0000
0000
0000
,
0000
0000
0000
0000
,
0000
0000
0000
0000
,
2002
0000
0000
0000
0000
0000
0000
3003
,
0000
0000
0000
0000
,
0000
0000
0000
0000
,
0000
0000
0000
0000
,
0000
0000
0000
0000
,
0000
0000
0000
0000
,
0000
0000
0000
0000
0M00
00M0
0000
0000
,
0000
0000
0004
0000
,
1003
0010
1000
0001
0100
0010
1000
0001
0100
0001
1000
0010
1000
0001
1000
0100
,
0010
0001
1000
0001
0010
0001
1000
0100
0010
0000
0000
0000
0001
1000
0001
1000
,
0010
0100
0001
0100
0010
1000
0001
0100
0001
1000
0100
1000
0001
0010
0100
1000
,
0001
0010
0001
1000
0100
0010
0001
1000
0040
0000
0130
0000
0020
0000
0130
0000
,
0001
0010
0100
1000
0001
0010
0001
1000
0100
0010
0001
1000
0001
0100
0001
1000
,
0010
0100
0010
1000
0001
0100
0010
1000
0001
0000
1000
0000
0001
0000
1000
0000
,
1010
0110
0101
1001
,
1100
0000
0000
0000
0200
0000
0000
0000
0310
0001
0010
0001
1000
0001
1000
0000
,
00M0
0000
0M00
0000
00M0
0000
0M00
0000
0001
1000
0010
0100
0001
0100
0001
1000
,
0100
0000
0000
0000
1000
0000
0000
0000
0001
0000
0000
0000
0010
0000
0000
0000
0100
0000
0000
0000
1000
0000
0000
0000
0001
0000
0000
0000
0010
0000
0000
0000
0001
0000
0000
0000
1000
0000
0000
0000
0004
0000
0000
0000
0000
0000
0000
0000
0103
0000
0000
0000
0000
0000
0000
0000
0004
0000
0000
0000
0000
0000
0000
0003
,
1001
0000
0000
0000
1100
0000
0000
0000
0110
0000
0100
1000
0001
0000
0000
0000
,
0100
0010
0010
0100
,
0001
0100
0001
0100
0010
1000
0001
0100
0010
1000
0001
1000
0100
0010
0001
1000
,
0100
1000
0001
0100
0010
0100
0001
1000
0001
0000
0000
0000
4000
0000
0000
0000
,
3001
0010
0100
1000
0001
1000
0001
0010
0001
1000
0001
0100
0010
1000
0010
0100
,
0001
0000
0000
0000
,
1000
0100
0010
0001
1000
0001
0100
0001
,
1000
0000
0010
0000
0100
0000
0001
0000
1000
0001
1000
0001
1000
0000
0001
1000
,
0001
0100
0010
1000
0001
0010
0100
0010
,
0001
1000
0100
1000
0001
0000
0200
0000
,
0310
0001
0010
1000
0001
0010
0100
1000
,
0000
0000
0000
0000
0000
0000
0000
0000
0000
0000
0000
0000
0000
0000
0000
0000
0000
0000
0000
0000
0000
0000
0000
0000
0001
0000
0000
0000
0000
0000
0000
0000
0000
0000
0000
0000
0000
0000
0000
0000
0000
0000
0000
0000
0000
0000
0000
0000
0001
0000
0000
0000
0000
0000
0000
0000
0000
0000
0000
0000
0000
0000
0000
0000
0000
0000
0000
0000
0000
0000
0000
0000
1000
0000
0000
0000
0000
0000
0000
0000
0000
0000
0000
0000
0000
0000
0000
0000
0000
0000
0000
0000
0000
0000
0000
0000
0000
0010
0000
0000
0000
0000
0000
0000
0000
0000
0000
0000
0000
0000
0000
0000
0000
0000
0000
0000
0000
0000
0000
0000
0000
0000
0100
0000
0000
0000
0000
0000
0000
0000
0000
0000
0000
0000
0000
0000
0000
0000
0000
0000
0000
0000
0000
0000
0000
0000
0000
0000
0000
0001
0000
0000
0000
0000
0000
0000
0000
0000
0000
0000
0000
0000
0000
0000
0000
0000
0000
0000
0000
0000
0000
1000
0000
0000
0000
0000
0000
0000
0000
0000
0000
0000
0000
0000
0000
0000
0000
0000
0000
0000
0000
0000
,
0001
0010
0100
1000
0002
0000
0000
0000
,
1003
0000
0010
0000
0100
0000
0001
0000
2000
0000
0000
0000
3001
0100
0001
0100
,
0010
1000
0001
0100
0001
1000
0010
0100
0010
0100
0001
1000
0001
0010
0100
1000
,
0001
1000
0100
0010
0001
1000
0001
0010
0400
0000
1300
0000
0004
0000
1003
0000
,
0100
1000
0100
1000
0001
0010
0100
1000
0001
0100
0001
1000
0010
0100
0001
1000
,
0002
0000
0003
0000
,
1000
0001
0100
0001
1000
0001
0100
0010
1000
0010
0100
0001
1000
0001
1000
0100
,
0010
0001
1000
0001
0010
0100
1000
0001
0100
0001
1000
0001
0100
0010
1000
0010
,
0100
0001
1000
0100
0010
0001
1000
0001
0010
0100
1000
0001
0100
0010
1000
0001
,
1000
0010
0100
0010
1000
0001
1000
0001
0020
0000
0030
0000
0001
1000
0001
1000
,
0010
0100
0001
1000
0100
1000
0001
0010
,
0100
1000
0000
1000
0000
1000
1000
1000
,
0001
0100
0010
0100
0001
0000
0000
1000
,
0000
0001
0000
0010
0200
1000
0300
1000
,
0001
0100
0010
1000
0010
0100
0000
0001
,
0000
0010
0100
1000
0000
0100
0010
0001
,
1000
0010
1000
0001
1000
0010
1000
0001
,
0200
0300
0020
0030
2000
0000
0000
0000
,
3001
0010
0001
1000
0001
0010
0100
1000
0100
0010
0001
1000
0001
0100
0001
1000
,
0010
0100
0010
1000
0001
0100
0001
1000
0004
0000
0000
0000
4003
0000
3100
0000
,
1000
0010
0100
0001
1000
0010
0100
0001
1000
0001
0100
0001
1000
0100
0010
0001
,
1000
0000
0002
0000
,
4003
0000
0000
0000
0000
0000
0000
0000
3010
0100
0001
0100
0010
0100
0001
1000
,
0100
1000
0001
0010
0100
1000
0001
1000
0100
0000
1000
0000
0100
0000
1000
0000
,
1001
1100
0110
0011
,
2002
0000
3003
0000
,
1000
0001
1000
0001
1000
0001
1000
0001
0100
0010
1000
0001
1000
0010
0100
0001
,
1000
0001
0010
0100
1000
0001
1000
0100
0010
0000
0001
0000
0010
0000
0001
0000
,
1000
0001
1000
0001
1000
0001
1000
0001
1000
0000
0000
0000
1000
0000
0000
0000
,
0001
0000
0200
0000
,
0310
0000
1000
0000
0001
0000
0010
0000
0001
1000
0001
0100
0001
1000
0010
0100
,
0010
1000
0001
0100
0001
1000
0001
1000
0100
0000
0000
0000
1000
0001
1000
0001
,
0010
0100
1000
0001
0100
0001
1000
0010
,
0100
0000
0000
0000
,
0001
0010
0100
1000
0001
0010
0001
1000
,
0100
0000
0010
0000
0100
0000
1000
0000
0001
0100
0001
1000
0004
0000
0000
0000
,
1003
0000
0000
0000
0000
0000
0000
0000
0000
0000
0000
0000
0000
0000
0000
0000
0000
0000
0000
0000
0000
0000
0000
0000
0100
0000
0000
0000
0000
0000
0000
0000
0000
0000
0000
0000
0000
0000
0000
0000
0000
0000
0000
0000
0000
0000
0000
0000
0000
0010
0000
0000
0000
0000
0000
0000
0000
0000
0000
0000
0000
0000
0000
0000
0000
0000
0000
0000
0000
0000
0000
0000
0000
0001
0000
0000
0000
0000
0000
0000
0000
0000
0000
0000
0000
0000
0000
0000
0000
0000
0000
0000
0000
0000
0000
0000
0000
1000
0000
0000
0000
0000
0000
0000
0000
0000
0000
0000
0000
0000
0000
0000
0000
0000
0000
0000
0000
0000
0000
0000
0000
0010
0000
0000
0000
0000
0000
0000
0000
0000
0000
0000
0000
0000
0000
0000
0000
0000
0000
0000
0000
0000
0000
0000
0000
0100
0000
0000
0000
0000
0000
0000
0000
0000
0000
0000
0000
0000
0000
0000
0000
0000
0000
0000
0000
0000
0000
0000
0000
0001
0000
0000
0000
0000
0000
0000
0000
0000
0000
0000
0000
0000
0000
0000
0000
0000
0000
0000
0000
0000
0000
0000
,
0000
4000
3000
0004
0003
0000
2000
0000
,
3001
0010
0001
0010
0100
1000
0001
0100
,
0010
0000
0100
0000
0001
0000
1000
0000
0001
0100
0001
0100
0040
0000
0000
0000
,
1030
0001
0010
0100
1000
0100
0010
0001
,
1001
1001
2000
0000
,
3004
0403
0340
0430
0301
0010
0100
1000
,
1001
0101
0110
1010
,
1001
0000
0000
0000
,
0000
0000
0000
0000
0001
1000
0001
1000
0001
1000
0001
1000
0001
1000
0001
1000
,
0001
1000
0001
1000
0001
1000
0004
0000
0103
0010
1000
0001
0100
0010
0100
0001
,
1000
0001
0100
0010
1000
0001
1000
0001
0010
0000
0100
0000
1000
0000
0001
0000
,
0400
0000
0340
0000
1030
0001
1000
0100
0010
0001
1000
0001
0010
0001
1000
0001
,
4000
0000
0000
0000
3040
0000
0000
0000
0130
0000
0001
0000
1000
0000
0001
0000
0400
0000
0000
0000
0000
0000
0000
0000
0000
0000
0000
0000
0000
0000
0000
0300
,
1001
0001
0010
0100
1000
0001
1000
0010
,
0100
0000
0001
0100
0001
0000
1000
0100
1000
0000
0001
0010
0001
0000
1000
0010
,
1000
0001
0100
0001
1000
0001
0100
0001
,
2000
3200
0340
0000
,
0031
1000
0100
0010
0001
1000
0010
0100
,
0001
0000
1000
0100
1000
0000
0001
0100
0001
0000
1000
0010
1000
0000
0001
0010
,
0001
1000
0001
0010
0100
1000
0001
0100
,
0020
0230
0304
0000
,
1003
0100
0010
0100
1000
0001
0100
0010
0000
0100
0010
0100
0001
0010
0100
0010
,
0001
0100
0010
0100
0001
1000
0100
0010
0000
0100
0000
0010
0000
0100
1000
0001
,
0100
0010
0100
0001
1000
0000
0001
0010
0000
0001
0000
1000
0000
0100
0010
0001
,
1000
0010
0100
0001
1000
0010
0100
0010
1000
0001
0010
0200
0000
0000
0000
0000
,
4300
0000
0000
0000
3004
0000
0000
0000
1003
0010
1000
0010
0400
0000
0000
0000
,
0304
0000
0000
0000
0043
0000
0000
0000
0430
0000
0000
0000
1300
0001
1000
0001
,
0400
0000
0301
1000
0400
0000
0340
0000
,
0034
0000
0000
0000
0000
0000
0000
0000
4003
0000
0000
0000
0000
0000
0000
0000
3040
0000
0000
0000
0000
0000
0000
0000
0430
0000
0000
0000
0000
0000
0000
0300
,
0101
1001
0004
4003
,
3400
0340
0430
4300
,
3004
0000
0000
0000
0000
0000
0000
0000
0403
0000
0000
0000
0000
0000
0000
0000
0340
0000
0000
0000
0000
0000
0000
0030
1010
0000
0000
0000
0000
0000
0000
0000
,
4000
0000
0000
0000
0000
0000
0000
0000
3004
0000
0000
0000
0000
0000
0000
0003
2002
0000
0000
0000
0000
0000
0000
0000
0000
0000
0000
0000
3000
0000
0000
0000
,
1003
0100
0010
0001
1000
0000
1000
0000
,
1000
0000
1000
0000
0001
0100
0010
1000
,
0001
0000
0000
0000
1000
0100
0010
0000
0001
0000
0000
0000
1000
0100
0010
0000
,
0001
4000
0000
3004
,
0003
1000
0000
0000
0000
0000
0000
0000
0000
0000
0000
0000
0000
0000
0000
0000
0000
0000
0000
0000
0000
0000
0000
0000
0000
0000
0000
0000
0000
0000
0000
0000
0000
0000
0000
0000
0000
0000
0000
0000
0000
0000
0000
0000
0000
0000
0000
0000
0000
0100
0000
0000
0000
0000
0000
0000
0000
0000
0000
0000
0000
0000
0000
0000
0000
0000
0000
0000
0000
0000
0000
0000
0000
0000
0000
0000
0000
0000
0000
0000
0000
0000
0000
0000
0000
0000
0000
0000
0000
0000
0000
0000
0000
0000
0000
0000
0000
0010
0000
0000
0000
0000
0000
0000
0000
0000
0000
0000
0000
0000
0000
0000
0000
0000
0000
0000
0000
0000
0000
0000
0000
0000
0000
0000
0000
0000
0000
0000
0000
0000
0000
0000
0000
0000
0000
0000
0000
0000
0000
0000
0000
0000
0000
0000
0000
0001
0000
0000
0000
0000
0000
0000
0000
0000
0000
0000
0000
0000
0000
0000
0000
0000
0000
0000
0000
0000
0000
0000
0000
0000
0000
0000
0000
0000
0000
0000
0000
0000
0000
0000
0000
0000
0000
0000
0000
0000
0000
0000
0000
0000
0000
0000
,
0000
1000
0000
0000
0000
0000
0000
0000
0000
0000
0000
0000
0000
0000
0000
0000
0000
0000
0000
0000
0000
0000
0000
0000
0000
0000
0000
0000
0000
0000
0000
0000
0000
0000
0000
0000
0000
0000
0000
0000
0000
0000
0000
0000
0000
0000
0000
0000
0000
0010
0000
0000
0000
0000
0000
0000
0000
0000
0000
0000
0000
0000
0000
0000
0000
0000
0000
0000
0000
0000
0000
0000
0000
0000
0000
0000
0000
0000
0000
0000
0000
0000
0000
0000
0000
0000
0000
0000
0000
0000
0000
0000
0000
0000
0000
0000
0000
0100
0000
0000
0000
0000
0000
0000
0000
0000
0000
0000
0000
0000
0000
0000
0000
0000
0000
0000
0000
0000
0000
0000
0000
0000
0000
0000
0000
0000
0000
0000
0000
0000
0000
0000
0000
0000
0000
0000
0000
0000
0000
0000
0000
0000
0000
0000
0000
0001
0000
0000
0000
0000
0000
0000
0000
0000
0000
0000
0000
0000
0000
0000
0000
0000
0000
0000
0000
0000
0000
0000
0000
0000
0000
0000
0000
0000
0000
0000
0000
0000
0000
0000
0000
0000
0000
0000
0000
0000
0000
0000
0000
0000
0000
0000
,
0000
1000
0000
0000
0000
0000
0000
0000
0000
0000
0000
0000
0000
0000
0000
0000
0000
0000
0000
0000
0000
0000
0000
0000
0000
0000
0000
0000
0000
0000
0000
0000
0000
0000
0000
0000
0000
0000
0000
0000
0000
0000
0000
0000
0000
0000
0000
0000
0000
0100
0000
0000
0000
0000
0000
0000
0000
0000
0000
0000
0000
0000
0000
0000
0000
0000
0000
0000
0000
0000
0000
0000
0000
0000
0000
0000
0000
0000
0000
0000
0000
0000
0000
0000
0000
0000
0000
0000
0000
0000
0000
0000
0000
0000
0000
0000
0000
0010
0000
0000
0000
0000
0000
0000
0000
0000
0000
0000
0000
0000
0000
0000
0000
0000
0000
0000
0000
0000
0000
0000
0000
0000
0000
0000
0000
0000
0000
0000
0000
0000
0000
0000
0000
0000
0000
0000
0000
0000
0000
0000
0000
0000
0000
0000
0000
0100
0000
0000
0000
0000
0000
0000
0000
0000
0000
0000
0000
0000
0000
0000
0000
0000
0000
0000
0000
0000
0000
0000
0000
0000
0000
0000
0000
0000
0000
0000
0000
0000
0000
0000
0000
0000
0000
0000
0000
0000
0000
0000
0000
0000
0000
0000
,
2000
0000
0000
3004
,
1003
0010
0100
0001
1000
0001
0100
0001
1000
0010
0100
0001
1000
0100
1000
0001
,
0010
0100
1000
0001
1000
0100
0010
0001
1000
0000
0000
0000
0004
0000
0000
0000
,
1003
0100
0010
0001
1000
0001
0100
0010
0100
0001
1000
0010
0100
0001
1000
0001
,
0100
0001
1000
0010
0100
0001
1000
0001
0010
0000
0400
0000
1300
0000
0004
0000
,
1003
0010
0100
0001
1000
0001
1000
0010
0100
0010
1000
0001
0100
0010
0100
0001
,
1000
0001
1000
0100
1000
0001
0100
0010
1000
0000
0100
0000
0010
0000
0001
0000
,
1000
0010
0100
0001
1000
0010
0100
0001
1000
0001
1000
0100
1000
0001
0100
0010
,
0400
0000
0304
0000
0403
0000
0340
0000
1030
0001
1000
0001
1000
0001
1000
0001
,
0200
0000
0000
0000
,
0300
0000
0000
0000
,
0000
0000
0000
0000
,
0000
0000
0000
0000
,
0000
0000
0000
0000
,
0000
0000
0000
0000
,
0000
0000
0000
0000
,
MMMM
0000
0000
0000
;
