#TITLE:E1M1;
#SUBTITLE:(Critical Hit Remix);
#ARTIST:m1dlet;
#TITLETRANSLIT:;
#SUBTITLETRANSLIT:;
#ARTISTTRANSLIT:;
#CREDIT:;
#BANNER:e1m1 critical bn.png;
#BACKGROUND:e1m1 critical bg.png;
#LYRICSPATH:;
#CDTITLE:;
#MUSIC:m1dlet - E1M1 (Critical Hit Remix).ogg;
#OFFSET:-0.148;
#SAMPLESTART:100.066;
#SAMPLELENGTH:12.000;
#SELECTABLE:YES;
#DISPLAYBPM:234.000;
#BPMS:0.000=120.200,6.000=115.000,6.500=115.000,7.000=111.000,8.000=117.000,9.000=119.000,11.000=119.000,14.000=117.000,14.500=117.000,15.000=103.000,16.000=118.000,31.000=102.000,32.000=233.820,312.000=116.910,352.000=233.820;
#STOPS:;
#BGCHANGES:;
// cache tags:
#FIRSTBEAT:0.000;
#LASTBEAT:396.000;
#SONGFILENAME:Songs/Speedcore Rejects/E1M1 (Critical Hit Remix) - [Garrett]/E1M1 Critical.sm;
#HASMUSIC:1;
#HASBANNER:1;
#MUSICLENGTH:121.991;
// end cache tags

//---------------dance-single - G. Moese----------------
#NOTES:
     dance-single:
     G. Moese:
     Challenge:
     17:
     1.000,1.000,0.631,0.525,1.000,862.000,77.000,64.000,61.000,0.000:

2000
3200
0320
0032
2003
3020
0130
0200
,
0302
0023
0230
2300
3002
2003
3020
0000
,
2030
3002
0023
0230
2300
3002
1003
2000
,
3002
2003
3020
2030
3002
0023
0230
0000
,
2300
3020
0230
0302
0023
0230
1300
2000
,
3020
0000
0000
0000
0000
0000
0000
0000
0000
0000
0000
0000
0000
0000
0000
0000
0000
0000
0000
0000
0000
0000
0000
0000
0230
0000
0000
0000
0000
0000
0000
0000
0000
0000
0000
0000
0000
0000
0000
0000
0000
0000
0000
0000
0000
0000
0000
0000
0302
0000
0000
0000
0000
0000
0000
0000
0000
0000
0000
0000
0000
0000
0000
0000
0000
0000
0000
0000
0000
0000
0000
0000
2003
0000
0000
0000
0000
0000
0000
0000
0000
0000
0000
0000
0000
0000
0000
0000
0000
0000
0000
0000
0000
0000
0000
0000
3200
0000
0000
0000
0000
0000
0000
0000
0000
0000
0000
0000
0000
0000
0000
0000
0000
0000
0000
0000
0000
0000
0000
0000
0320
0000
0000
0000
0000
0000
0000
0000
0000
0000
0000
0000
0000
0000
0000
0000
0000
0000
0000
0000
0000
0000
0000
0030
0012
0000
0000
0000
0000
0000
0000
0000
0000
0000
0000
0000
0000
0000
0000
0000
0000
0000
0000
0000
0000
0000
0000
0000
0000
0000
0000
0000
0000
0000
0000
0000
0000
0000
0000
0000
0000
0000
0000
0000
0000
0000
0000
0000
0000
0000
0000
0000
,
2003
3002
0023
0230
2300
3002
0103
0200
,
0320
0000
0000
0000
0000
0000
0000
0000
0000
0000
0000
0000
0000
0000
0000
0000
0000
0000
0000
0000
0000
0000
0000
0000
2030
0000
0000
0000
0000
0000
0000
0000
0000
0000
0000
0000
0000
0000
0000
0000
0000
0000
0000
0000
0000
0000
0000
0000
3002
0000
0000
0000
0000
0000
0000
0000
0000
0000
0000
0000
0000
0000
0000
0000
0000
0000
0000
0000
0000
0000
0000
0000
0023
0000
0000
0000
0000
0000
0000
0000
0000
0000
0000
0000
0000
0000
0000
0000
0000
0000
0000
0000
0000
0000
0000
0000
0230
0000
0000
0000
0000
0000
0000
0000
0000
0000
0000
0000
0000
0000
0000
0000
0000
0000
0000
0000
0000
0000
0000
0000
2300
0000
0000
0000
0000
0000
0000
0000
0000
0000
0000
0000
0000
0000
0000
0000
0000
0000
0000
0000
0000
0000
0000
3000
2002
0000
0000
0000
0000
0000
0000
0000
0000
0000
0000
0000
0000
0000
0000
0000
0000
0000
0000
0000
0000
0000
0000
0000
3003
0000
0000
0000
0000
0000
0000
0000
0000
0000
0000
0000
0000
0000
0000
0000
0000
0000
0000
0000
0000
0000
0000
0000
,
1000
0100
1000
0100
0010
0001
1000
0010
,
0100
0001
1000
0001
0100
0001
2001
0000
,
3001
0010
0100
1000
0001
0100
0010
1000
,
0001
0010
0001
1000
0010
0100
0102
0000
,
0203
0000
0310
1000
0001
0010
0100
1000
,
0001
1000
0010
0100
0001
1000
2010
0000
,
3001
0010
0100
1000
0001
0010
0001
1000
,
0100
1000
0010
0100
0001
1000
2100
3000
,
0100
1000
0100
1000
0100
1000
0100
1000
,
0100
1000
0100
1000
0100
1000
0002
0000
,
0103
0010
0100
0010
0100
0010
0100
0010
,
0100
0010
0100
0010
0100
0010
2000
0000
,
3001
1000
0010
0100
0001
1000
0100
0010
,
0001
1000
0010
0100
0001
0010
0100
1000
,
0001
0100
0010
1000
0001
1000
0001
0100
0010
1000
0001
0100
0010
1000
0001
0100
,
0001
1000
0001
1000
0100
0010
0001
0010
0100
1000
0001
1000
0100
0010
0001
1000
,
0000
0M00
000M
0M00
M00M
00M0
0M00
000M
,
M000
0M00
00M0
M000
000M
0M00
00M0
00M0
,
1000
0010
0100
0001
1000
0010
0100
0010
1000
0001
1000
0001
0100
0010
1000
0001
,
1000
0100
0010
0001
1000
0100
0010
0100
1000
0001
0010
0100
0010
0001
1000
0001
,
1000
0010
0100
0001
1000
0010
0100
0010
1000
0001
0100
0010
0100
0001
1000
0010
,
0100
0000
0000
0001
0000
0000
1000
0000
0000
0100
0000
0000
0010
0000
0000
0100
0000
0000
1000
0000
0000
0001
0000
0000
4000
0000
0000
0000
0000
0000
0000
0000
0000
0000
0000
0000
0000
0000
0000
0000
3000
0000
0000
0000
0000
0000
0000
0000
,
0001
1000
0010
0100
0001
0100
0010
1000
0001
1000
0010
0100
0010
1000
0001
0100
,
0001
1000
0100
1000
0100
0010
0001
1000
0001
0000
0100
0000
0010
0000
0100
0000
,
0001
0010
0100
0010
0001
1000
0100
0010
0001
1000
0100
1000
0001
0010
0100
1000
,
0001
0100
0010
0100
0001
1000
0010
0100
0004
0000
0000
0000
0000
0000
0000
0000
,
1003
0010
0100
0001
1000
0010
0100
0010
1000
0001
0100
0010
0100
0001
1000
0010
,
1000
0100
0010
0001
1000
0001
0010
0100
0010
0001
1000
0100
1000
0001
0010
0001
,
1000
0010
0100
0001
1000
0010
0100
0010
1000
0001
0100
0010
1000
0001
0100
0010
,
1000
0001
0100
0001
1000
0010
0100
0001
4000
0000
0000
0000
0000
0000
0000
0000
,
3010
0100
0001
1000
0010
1000
0001
0100
0010
0100
0001
1000
0010
0100
0010
1000
,
0001
1000
0001
0100
0001
1000
0001
0000
0100
0000
0010
0000
1000
0000
0001
0000
,
1000
0010
1000
0001
0100
0010
1000
0001
0100
0010
0100
0001
1000
0010
0100
0001
,
1000
0100
0010
0100
1000
0001
0010
0100
4000
0000
0000
0000
0000
0000
3000
0000
,
0001
0010
0100
1000
0001
0010
0100
0010
0001
1000
0100
0010
0001
1000
0001
0010
,
0100
1000
0001
0100
0010
0100
0001
1000
0010
0100
0001
1000
0010
0100
0010
1000
,
0001
0010
0100
1000
0001
0010
0100
0010
0001
1000
0100
1000
0001
0010
0001
1000
,
0010
0100
0001
0100
0010
1000
0001
0100
0001
0000
0000
0000
4000
0000
0000
0000
,
3100
0010
0001
1000
0100
0010
0100
1000
0001
0010
0100
0010
0001
1000
0100
0010
,
0001
1000
0000
0000
0000
0000
0010
0100
0001
0000
1000
0000
0010
0000
0100
0000
,
0001
0100
0001
0100
0010
1000
0001
0100
0010
0100
0010
1000
0001
1000
0001
1000
,
0010
0100
0001
1000
0010
1000
0010
0100
0001
0100
0001
1000
0010
0100
0001
1000
,
0001
0010
0100
1000
0001
0100
0010
1000
,
0001
0010
0100
1000
0001
0100
0010
1000
,
0001
0010
0100
1000
0001
0100
0010
1000
,
0001
0100
0010
1000
0001
1000
0001
0100
0004
0000
0000
0000
0000
0000
0003
0000
,
1000
0010
0100
0001
1000
0100
0010
0001
1000
0100
0010
0100
1000
0001
0010
0100
,
0010
0001
1000
0010
0100
0010
1000
0000
0001
0000
0100
0000
0010
0000
1000
0000
,
0001
0010
0100
1000
0001
0010
0100
0010
0001
1000
0100
0010
0001
1000
0010
0100
,
0001
1000
0010
0100
0001
1000
0001
0000
1001
0000
0000
0000
1001
0000
0000
0000
,
0110
0110
1010
1010
,
0101
0000
0101
0000
0011
0000
0001
0010
,
0100
1100
1010
0110
,
0101
0000
0000
0000
1001
0000
0000
0000
0011
0000
0000
0110
0000
0000
1010
0000
,
1001
1010
0110
0101
,
1001
0000
1100
0000
0110
0000
0001
0100
,
0010
1010
0110
0101
,
1001
0000
0000
0000
0000
0000
0110
0000
0000
0000
0000
0000
1010
0000
0000
0000
0010
0000
0000
0000
0000
1000
0000
0000
,
4000
3400
0340
0034
0403
0340
4030
3400
,
0340
0034
4003
3040
0430
0304
4003
3400
,
0340
0034
0403
0340
4030
3004
0043
0430
,
4300
0000
3004
0000
0403
0000
0310
0000
1010
0000
0000
0110
0000
0000
0101
0000
,
1001
0110
1010
0101
,
0011
0000
1001
0000
1100
0000
1000
0010
,
0100
1010
0101
1001
,
0011
0000
0110
0000
1100
0000
1000
0001
,
1000
0010
0100
0010
1000
0001
0100
0010
1000
0001
0100
0001
1000
0010
0100
0001
,
1000
0100
0010
0100
1000
0001
0010
0001
1000
0001
0100
0010
0000
0000
1000
0000
,
0001
0100
0010
1000
0001
0010
0100
1000
0001
0100
0010
1000
0001
1000
0010
0000
,
1000
0000
0010
0000
0100
0000
0001
0000
1000
0001
1000
0001
1000
0000
0000
0000
,
1001
0110
1010
0101
,
0110
1010
1100
1001
,
0101
0001
1001
0000
0110
0000
1010
0000
,
1001
0101
0110
1001
,
0001
0100
0001
0100
0010
0000
0000
0000
1010
0000
0000
0000
0101
0000
0000
0000
,
1001
0000
0000
0000
0000
0000
0000
0000
0110
0000
0000
0000
0000
0000
0000
0000
1010
0000
0000
0000
0000
0000
0000
0000
1000
0001
1000
0001
1000
0001
1000
0001
,
0000
0000
M000
0M00
00M0
000M
M000
00M0
,
0M00
000M
M000
0M00
00M0
000M
0M00
00M0
,
M000
0M00
00M0
000M
0M00
00M0
M000
000M
,
00M0
0M00
M000
000M
0M00
00M0
M000
0000
,
0001
0100
0010
1000
0010
0100
0001
1000
0100
0010
0001
1000
0010
0100
0001
1000
,
0100
0010
0001
1000
0100
0010
0100
1000
0001
1000
0001
0000
0000
0000
0001
0000
,
1000
0001
0100
0010
1000
0001
0100
0010
0100
0001
1000
0010
0100
0001
1000
0010
,
0100
0000
0010
0000
1000
0000
0001
0000
1000
0010
1000
0010
0100
0000
0000
0000
,
0001
1000
0010
0100
0001
1000
0010
0100
0001
1000
0010
0100
0010
1000
0001
0100
,
0010
0100
0001
1000
0100
0010
0001
1000
0010
0100
0001
0000
1000
0000
0001
0100
,
0010
1000
0001
0100
0010
1000
0001
0100
0010
1000
0001
0100
0001
1000
0100
0010
,
0001
0000
1000
0000
0100
0000
0010
0000
0001
0100
0010
0000
1MMM
0000
0000
0000
,
00M0
0M00
M000
000M
,
00M0
0M00
M000
000M
,
0M00
0M00
00M0
00M0
,
M000
0000
0000
0000
;
