#TITLE:Heart of A Dragon;
#SUBTITLE:- Valley of The Damned;
#ARTIST:-DragonForce;
#TITLETRANSLIT:;
#SUBTITLETRANSLIT:;
#ARTISTTRANSLIT:;
#CREDIT:;
#BANNER:;
#BACKGROUND:dragon_054.jpg;
#LYRICSPATH:;
#CDTITLE:;
#MUSIC:Dragonforce - Heart of a Dragon.mp3;
#OFFSET:0.000;
#SAMPLESTART:100.000;
#SAMPLELENGTH:12.000;
#SELECTABLE:YES;
#BPMS:0.000=200.000,65.000=300.000,359.000=200.000,422.000=299.999,666.000=200.000,732.000=299.999,1271.500=200.000,1272.500=200.000;
#STOPS:65.000=0.500
,358.938=0.200
,365.000=0.200
,372.000=0.200
,422.000=0.340
,666.000=0.200
,732.000=0.200
,1271.500=0.200
,1335.000=0.400
,1385.000=0.100
,1385.250=0.100
,1385.500=0.100
,1385.750=0.100
,1386.000=0.100
,1386.250=0.100
,1386.500=0.100
,1386.750=0.100
,1387.000=0.100
,1387.250=0.100
,1387.500=0.100
,1387.750=0.100
,1388.000=0.100
,1388.250=0.100
,1388.500=0.100
,1388.750=0.100
,1389.000=0.100
,1389.250=0.100
,1389.500=0.100
,1389.750=0.100
,1390.000=0.100
,1390.250=0.100
,1390.500=0.100
,1390.750=0.100
,1391.000=0.100
,1391.250=0.100
,1391.500=0.100
,1391.750=0.100
,1392.000=0.100
,1392.250=0.100
,1392.500=0.100
,1392.750=0.100
,1393.000=0.100
,1393.250=0.100
,1393.500=0.100
,1393.750=0.100
,1394.000=0.100
,1394.250=0.100
,1394.500=0.100
,1394.750=0.100
,1395.000=0.100
,1395.250=0.100
,1395.500=0.100
,1395.750=0.100
,1396.000=0.100
,1396.250=0.100
,1396.500=0.100
,1396.750=0.100
,1397.000=0.100
,1397.250=0.100
,1397.500=0.100
,1397.750=0.100
,1398.000=0.100
,1398.250=0.100
,1398.500=0.100
,1398.750=0.100
,1399.000=0.100
,1399.250=0.100
,1399.500=0.100
,1399.750=0.100
,1400.000=0.100
;
#BGCHANGES:0.000=dragon_054.jpg=1.000=0=0=1,
99999=-nosongbg-=1.000=0=0=0 // don't automatically add -songbackground-
;
// cache tags:
#FIRSTBEAT:0.000;
#LASTBEAT:1400.000;
#SONGFILENAME:Songs/dragon force/Dragonforce - Heart of a Dragon/Dragonforce - Heart of a Dragon.sm;
#HASMUSIC:1;
#HASBANNER:0;
#MUSICLENGTH:322.909;
// end cache tags

//---------------dance-single - ----------------
#NOTES:
     dance-single:
     :
     Challenge:
     11:
     1.000,1.000,0.269,1.000,0.765,2616.000,87.000,1298.000,4.000,98.000:
2000
0010
0010
0010
,
0010
0010
0010
0010
,
3010
0012
1000
1000
,
1000
1000
1000
1000
,
1003
2100
0001
0010
,
0001
0010
0001
0010
,
3001
1020
0100
0001
,
0100
0001
0100
0031
,
1100
0110
0011
1002
,
0100
1003
0210
0001
,
1000
0310
2001
0100
,
0100
3100
1002
0100
,
0010
0103
2010
0100
,
0001
3100
0201
0001
,
1000
0301
0102
0010
,
0100
1000
0100
0010
,
0103
0000
0000
1000
0001
1000
0001
1000
,
0001
1000
0001
1000
0001
1000
0001
1000
,
0001
1000
0001
1000
0001
1000
0001
1000
,
0001
1000
0001
1000
0100
0010
0100
0010
,
0100
0010
0100
0010
0100
0010
0100
0010
,
0100
0010
0100
0010
0100
0010
0100
0010
,
0100
0010
0001
0010
0001
0010
0001
0010
,
0001
0010
0001
0010
0001
0010
0001
0010
,
0001
0010
0001
0010
0001
0010
0001
0010
,
0001
0010
0001
0010
0100
1000
0100
1000
,
0100
1000
0100
1000
0100
1000
0100
1000
,
0110
0001
0010
0001
0010
0001
0010
0001
,
0010
0001
0010
0001
0011
0100
0010
0100
,
0010
0100
0010
0100
0010
0100
0010
1100
,
0010
0100
0010
0100
0010
0100
0010
0100
,
0010
0100
0010
0100
0101
0010
1000
0010
,
1000
0010
1000
0010
1000
0010
1000
0010
,
1100
0010
0001
0010
0001
0010
0001
0010
,
0001
0010
0001
0010
0110
0001
0100
0001
,
0100
0001
0100
0001
0100
0001
0100
0001
,
1100
0010
0100
0010
0100
0010
0100
0010
,
0100
0010
0100
0010
0100
0110
0001
1000
,
0001
1000
0001
1000
0001
1000
0001
1000
,
1001
0100
0010
0100
0010
0100
1010
0100
,
1000
0100
1000
0100
1000
0100
1010
0100
,
0010
0100
0010
0100
0010
0100
0010
0100
,
0010
0100
0010
0100
0010
0100
0010
0100
,
0010
0100
0010
0100
0010
0100
0110
0001
,
1000
0001
1000
0001
1000
0001
1000
0001
,
1000
0001
1000
0001
1000
0001
1000
0001
,
1000
0001
1000
0001
1000
0001
1000
0001
,
1100
0010
1000
0010
1000
0010
1000
0010
,
1000
0010
1000
0010
1000
0010
1000
0010
,
1000
0010
1000
0010
1000
0010
1000
0010
,
1010
0100
0001
0100
0001
0100
0001
0100
,
0001
0100
0001
0100
0001
0100
0001
0100
,
0000
0000
0000
0000
,
1001
0010
0100
0010
0100
0010
0100
0010
,
0100
0010
0100
0010
0100
0010
0100
0010
,
0100
0010
0100
0010
0100
0010
0100
0010
,
0100
0010
0101
1000
0001
1000
0001
1000
,
0001
1000
0001
1000
0001
1000
0001
1000
,
0001
1000
0001
1000
0001
1000
0001
1000
,
0001
1000
0110
0100
0010
0100
0010
0100
,
0010
0100
0010
0100
0010
0100
0010
0100
,
0010
0100
0010
0100
0010
0100
0010
0100
,
0010
0100
1010
0100
0001
0100
0001
0100
,
0001
0100
0001
0100
0001
0100
0001
0100
,
0001
0100
0001
0100
0001
0100
0001
0100
,
0001
0100
0001
0100
0001
0100
0001
0100
,
0001
0100
0001
0100
0001
0100
0001
0100
,
0001
0100
0001
0100
0001
0100
0001
0100
,
0001
0100
0001
0100
1010
0100
1000
0100
,
1000
0100
1000
0100
1000
0100
1000
0100
,
1000
0100
1000
0100
1000
0100
1000
0100
,
1000
0100
1000
0100
1001
0100
0010
0100
,
0010
0100
0010
0100
0010
0100
0010
0100
,
0010
0100
0010
0100
0010
0100
0010
0100
,
0010
0100
0010
0100
1100
0001
1000
0001
,
1000
0001
1000
0001
1000
0001
1000
0001
,
1000
0001
1000
0001
1000
0001
1000
0001
,
1000
0001
1000
0001
1000
0001
1000
0001
,
1000
0001
1000
0001
1000
0001
1000
0001
,
1000
0001
1000
0001
1000
0001
1000
0001
,
1000
0001
1000
0001
1000
0001
1100
0010
,
0100
0010
0100
0010
0100
0010
0100
0010
,
0100
0010
0100
0010
0100
0010
0100
0010
,
0100
0010
0100
0010
0100
0010
0100
0010
,
0100
0010
0100
0010
0100
0010
0100
0010
,
0100
0010
0100
0010
0100
0010
0200
0010
,
0000
0010
0000
0010
0000
0010
0000
0310
,
2000
0000
0000
0000
,
0000
0000
0000
0000
,
0000
0000
0000
0000
0000
0000
0000
0000
0000
0000
0000
0000
0000
0000
0000
0000
0000
0000
0000
0000
0000
0000
0000
0000
0000
0000
0000
0000
0000
0000
0000
0000
0000
0000
0000
0000
0000
0000
0000
0000
0000
0000
0000
0000
0000
0000
0000
0012
0000
3000
0000
0000
0000
0000
0000
0000
0000
0000
0000
0000
0000
0000
0000
0000
,
0010
0010
0010
0010
,
0010
0013
2100
0100
,
0100
0100
0100
0100
,
3100
0102
1000
1000
,
1000
1000
1000
1000
,
1000
1000
2000
0000
,
0000
0000
0000
0000
,
3123
1000
0100
1000
,
0100
1030
0102
0010
,
1000
0103
1020
0100
,
0001
0130
2001
0001
,
0001
0001
3001
2100
,
0100
0100
3100
0120
,
0100
0100
0130
2102
,
0100
0100
0100
0100
,
0100
0000
0000
0000
0000
0000
0000
0000
0000
0000
0000
0000
0000
0000
0000
0000
0100
0000
0000
0000
0000
0000
0000
0000
0000
0000
0000
0000
0000
0000
0000
0000
3103
M00M
0000
0000
0000
0000
0000
0000
0000
0000
0000
0000
0000
0000
0000
0000
1000
0000
0000
0000
0000
0000
0000
0000
0000
0000
0000
0000
0000
0000
0000
0000
,
0000
1000
0000
0001
,
0010
0100
0010
0100
0010
0100
0010
0100
,
0010
0100
0010
0100
0010
0100
0010
0100
,
0010
0100
0010
0100
0010
0100
0010
0100
,
0010
0100
0011
1000
0001
1000
0001
1000
,
0001
1000
0001
1000
0001
1000
0101
0010
,
1000
0010
1000
0010
1000
0010
1000
0010
,
1000
0010
1100
0000
1000
0100
1000
0100
,
1000
0100
1000
0100
1000
0100
0022
0000
,
0000
0000
0000
0000
,
0000
0000
0000
0000
,
0000
0000
0000
0000
0000
0000
0000
0000
0000
0000
0000
0000
0000
0000
0000
0000
0000
0000
0000
0000
0000
0000
0000
0000
0000
0000
0000
0000
0000
0000
0000
0000
0000
0000
0000
0000
0000
0000
0000
0000
0000
0000
0000
0000
0000
0000
0000
0000
0000
0000
0000
0000
0000
0000
0000
0000
0033
00MM
0000
0000
0000
0000
0000
0000
,
1000
0100
1000
0020
1030
0100
1000
0020
,
1030
0100
1000
0020
1030
0100
1000
0020
,
1030
0100
0020
0130
1000
0100
0010
0001
,
0010
0001
0200
0301
0010
0001
0200
0301
,
0010
0001
0200
0301
0010
0001
0200
0301
,
0010
0001
0200
0301
0010
0001
0010
0001
,
0010
0001
0010
0100
0010
0100
0010
0100
,
1000
0100
1000
0100
1000
0100
1000
0001
,
1000
0001
1000
0001
1000
0010
0100
0010
,
0100
0010
0100
0010
1000
0010
0100
0010
,
1000
0010
0100
0010
1000
0010
0100
0010
,
1000
0020
0031
0200
1300
0020
0031
0200
,
1300
0020
0031
0200
1300
0020
0031
0200
,
1300
0020
0031
0200
1300
0020
0031
0200
,
1300
0020
0031
0200
1300
0020
0031
0020
,
0031
0020
0031
0020
0031
0020
0031
0020
,
0031
0020
0031
0200
1300
0200
1300
0200
,
1300
0200
1300
0200
1300
0200
1300
0200
,
1300
0200
1300
0200
1300
0200
0310
0002
,
0013
0200
1300
0200
0310
0002
0013
0200
,
1300
0200
0320
0032
0023
0230
2300
3200
,
0320
0032
0023
0230
2300
3200
2300
3200
,
2300
3020
0032
0203
0320
0032
0203
0320
,
0032
0203
0320
0032
2003
3020
0032
0003
,
0020
0230
0320
0230
0320
0230
0320
0230
,
0320
0230
0320
0230
0320
0230
0320
0230
,
0320
0230
0320
0230
0320
0230
0320
0230
,
2300
3002
2003
3002
2003
3002
2003
3002
,
2003
3002
2003
3002
2003
3002
2003
3002
,
2003
3002
2003
3002
0023
0230
0320
0230
,
0320
0230
0320
0230
0320
0230
0320
0230
,
0320
0230
0320
0230
0320
0230
0320
0230
,
0320
0230
0320
0230
0300
2000
3100
2000
,
3100
2000
3100
2000
3100
2000
3100
2000
,
3020
0130
0020
0130
0020
0130
0020
0130
,
0020
0130
0020
0130
0020
0130
0020
0130
,
0020
0130
0020
0130
0020
0130
2000
3020
,
0032
0023
0230
2300
3200
0320
0032
0023
,
0230
2300
3200
2300
3200
2300
3020
0032
,
0203
0320
0032
0203
0320
0032
0203
0320
,
0032
2003
3020
0032
0003
0020
0230
0320
,
0230
0320
0230
0320
0230
0320
0230
0320
,
0230
0320
0230
0320
0230
0320
0230
0320
,
0230
0320
0230
0320
0230
2300
3002
2003
,
3002
2003
3002
2003
3002
2003
3002
2003
,
3002
2003
3002
2003
3002
2003
3002
2003
,
3002
0023
0230
0320
0230
0320
0230
0320
,
0230
0320
0230
0320
0230
0320
0230
0320
,
0230
0320
0230
0320
0030
0000
2010
0000
,
0010
0010
0010
0010
,
0010
0010
3010
0102
,
0010
1000
0010
0100
,
0010
1000
0103
2102
,
0100
0100
0100
0100
,
0100
0100
3103
0220
,
0000
0000
0000
0000
,
0000
0330
0000
0000
,
2100
0100
0100
3100
,
0210
0010
0010
0310
,
0021
0001
0001
0031
,
2100
0100
0100
3100
,
2001
0001
0001
3001
,
0120
1000
0100
1030
,
0212
0010
0010
0010
,
0010
0010
0010
0010
,
0313
2000
3200
0320
0032
0003
2000
3100
,
2000
3100
2000
3100
2000
3100
2000
3100
,
2000
3020
0130
0020
0130
0020
0130
0020
,
0130
0020
0130
0020
0130
0020
0130
0020
,
0130
0020
0130
0020
0130
0020
0130
2000
,
3020
0032
0023
0230
2300
3200
0320
0032
,
0023
0230
2300
3200
2300
3200
2300
3020
,
0032
0203
0320
0032
0203
0320
0032
0203
,
0320
0032
2003
3020
0032
0003
0020
0230
,
0320
0230
0320
0230
0320
0230
0320
0230
,
0320
0230
0320
0230
0320
0230
0320
0230
,
0320
0230
0320
0230
0320
0230
2300
3002
,
2003
3002
2003
3002
2003
3002
2003
3002
,
2003
3002
2003
3002
2003
3002
2003
3002
,
2003
3002
0023
0230
0320
0230
0320
0230
,
0320
0230
0320
0230
0320
0230
0320
0230
,
0320
0000
0000
0000
0000
0000
0000
0000
0000
0000
0000
0000
0000
0000
0000
0000
0000
0000
0000
0000
0000
0000
0000
0000
0230
0000
0000
0000
0000
0000
0000
0000
0000
0000
0000
0000
0000
0000
0000
0000
0000
0000
0000
0000
0000
0000
0000
0000
0320
0000
0000
0000
0000
0000
0000
0000
0000
0000
0000
0000
0000
0000
0000
0000
0000
0000
0000
0000
0000
0000
0000
0000
0230
0000
0000
0000
0000
0000
0000
0000
0000
0000
0000
0000
0000
0000
0000
0000
0000
0000
0000
0000
0000
0000
0000
0000
0320
0030
0000
0000
0000
0000
0000
0000
0000
0000
0000
0000
0000
0000
0000
0000
0000
0000
0000
0000
0000
0000
0000
0000
2000
0000
0000
0000
0000
0000
0000
0000
0000
0000
0000
0000
0000
0000
0000
0000
0000
0000
0000
0000
0000
0000
0000
0000
3020
0000
0000
0000
0000
0000
0000
0000
0000
0000
0000
0000
0000
0000
0000
0000
0000
0000
0000
0000
0000
0000
0000
0000
0032
0000
0000
0000
0000
0000
0000
0000
0000
0000
0000
0000
0000
0000
0000
0000
0000
0000
0000
0000
0000
0000
0000
0000
,
0023
0230
2300
3200
0320
0032
0023
0230
,
2300
3200
2300
3200
2300
3020
0032
0203
,
0320
0032
0203
0320
0032
0203
0320
0032
,
2003
3020
0032
0003
0020
0230
0320
0230
,
0320
0230
0320
0230
0320
0230
0320
0230
,
0320
0230
0320
0230
0320
0230
0320
0230
,
0320
0230
0320
0230
2300
3002
2003
3002
,
2003
3002
2003
3002
2003
3002
2103
3002
,
2003
3002
2003
3002
2003
3002
2003
3002
,
0123
0230
0320
0230
0320
0230
0320
0230
,
0320
0230
0320
0230
1320
0230
0320
0230
,
0320
0230
0320
0030
2000
3020
0032
0023
,
0230
2300
3201
0320
0032
0023
0230
2300
,
3200
2300
3200
2300
3020
0032
1203
0320
,
0032
0203
0320
0032
0203
0320
0032
2003
,
3120
0032
0003
0020
0230
0320
0230
0320
,
0230
0320
0230
0320
0231
0320
0230
0320
,
0230
0320
0230
0320
0230
0320
0230
0320
,
0230
0320
0230
2300
3002
2003
3002
2003
,
3002
2003
3002
2003
3002
2003
3002
2003
,
3012
2003
3002
2003
3002
2003
3002
0023
,
0230
0320
0230
0320
0230
0320
0230
0320
,
0230
0320
0230
0320
0230
0320
0230
0320
,
0230
0320
0032
0023
0230
0302
0023
0230
,
2300
3200
0320
0230
2300
3200
0320
0032
,
0023
0200
0332
2003
3200
0320
0230
0320
,
0230
2300
3002
2003
3002
2003
3020
0230
,
0320
0230
0320
0032
0023
2030
3200
0320
,
0032
0023
0230
2300
3200
0320
0032
0023
,
0032
0023
0032
0023
0032
0020
0200
2333
,
3200
0320
0032
0203
0320
2030
3200
0302
,
0203
2300
3020
0230
0320
0032
2003
3200
,
2300
3200
0320
0032
0023
0230
2300
3200
0320
0230
2300
3200
,
0320
2030
3200
2300
3200
0320
0032
0023
0032
0023
0032
0023
,
0230
0320
2030
3200
0320
0032
0023
0230
0320
0230
0320
0032
,
0023
0032
0023
0032
0023
0230
0320
0230
2300
3200
0320
0032
,
0020
0200
1333
0200
0320
0032
0023
0230
0320
0230
0320
0032
,
2003
3002
2003
3002
2003
3002
0023
0230
0320
0230
0320
2030
,
3200
2300
3200
0320
0032
0203
0320
0032
2003
3200
0320
0230
,
0320
0032
0023
0230
0320
0230
0320
0032
0203
0320
2030
3200
,
0320
0032
0023
0230
2300
3200
2300
3200
0320
0230
0320
0230
,
0320
0032
0023
0032
0023
0032
0023
0230
2300
3200
2300
3200
,
2300
3200
0320
0032
0023
0230
0320
0032
0023
0230
0320
0032
,
0023
0230
0320
0032
0023
0230
0302
0023
0032
1003
0100
0010
,
0100
0010
0100
0010
0001
0010
0001
0010
0100
1000
0100
0010
,
0001
0010
0100
1000
0100
0010
0001
0010
0100
0010
0001
0010
,
0100
0010
0001
0010
0100
1000
0100
0010
0100
1000
0100
0010
,
0100
1000
0100
0010
0100
0010
0100
0010
0200
0310
0001
0010
,
0001
0010
0001
0010
0100
0010
0100
0010
0200
1300
0100
1000
,
0100
1000
0100
1000
0100
0010
0100
0010
0001
0010
0100
1000
,
0010
0100
0001
0010
0100
1000
0100
0010
0001
0010
0100
0010
,
0001
0010
0001
0010
0001
0010
0100
0010
0100
0010
0100
1000
,
0100
1000
0100
1000
0001
1000
0001
1000
0001
1000
0001
1000
,
0100
0010
0100
0010
0100
0010
0100
1000
0001
0100
0001
0100
,
0001
0100
0001
0100
0001
0100
0001
0010
1000
0010
1000
0010
,
1000
0010
1000
0010
1000
0010
1000
0010
1000
0010
1000
0100
,
0001
0010
1000
0100
0001
0010
1000
0100
0001
0010
1000
0100
,
1000
0100
1000
0100
1000
0100
2000
3020
0032
0023
0230
2300
,
3200
0320
0230
2300
3200
0320
2030
3200
2300
3200
0320
0032
,
0023
0032
0023
0032
0023
0230
0320
2030
3200
0320
0032
0023
,
0230
0320
0230
0320
0032
0023
0032
0023
0032
0023
0230
0320
,
0230
2300
3200
0320
0032
0020
0200
1333
0200
0320
0032
0023
,
0230
0320
0230
0320
0032
2003
3002
2003
3002
2003
3002
0023
,
0230
0320
0230
0320
2030
3200
2300
3200
0320
0032
0203
0320
,
0032
2003
3200
0320
0230
0320
0032
0023
0230
0320
0230
0320
,
0032
0203
0320
2030
3200
0320
0032
0023
0230
2300
3200
2300
,
3200
0320
0230
0320
0230
0320
0032
0023
0032
0023
0032
0023
,
0230
2300
3200
2300
3200
2300
3200
0320
0032
0023
0230
0320
,
0032
0023
0230
0320
0032
0023
0230
0320
0032
0023
0230
0302
,
0023
0032
1003
0100
0010
0100
0010
0100
0010
0001
0010
0001
,
0010
0100
1000
0100
0010
0001
0010
0100
1000
0100
0010
0001
,
0010
0100
0010
0001
0010
0100
0010
0001
0010
0100
1000
0100
,
0010
0100
1000
0100
0010
0100
1000
0100
0010
0100
0010
0100
,
0010
0200
0310
0001
0010
0001
0010
0001
0010
0100
0010
0100
,
0010
0200
1300
0100
1000
0100
1000
0100
1000
0100
0010
0100
,
0010
0001
0010
0100
1000
0010
0100
0001
0010
0100
1000
0100
,
0010
0001
0010
0100
0010
0001
0010
0001
0010
0001
0010
0100
,
0010
0100
0010
0100
1000
0100
1000
0100
1000
0001
1000
0001
,
1000
0001
1000
0001
1000
0100
0010
0100
0010
0100
0010
0100
,
1000
0001
0100
0001
0100
0001
0100
0001
0100
0001
0100
0001
,
0010
1000
0010
1000
0010
1000
0010
1000
0010
1000
0010
1000
,
0010
1000
0010
1000
0100
0001
0010
1000
0100
0001
0010
1000
,
0100
0001
0010
1000
0100
1000
0100
1000
0100
1000
0100
2000
,
3020
0032
0023
0230
2300
3200
0320
0230
2300
3200
0320
2030
,
3200
2300
3200
0320
0032
0023
0032
0023
0032
0023
0230
0320
,
2030
3200
0320
0032
0023
0230
0320
0230
0320
0032
0023
0032
,
0023
0032
0023
0230
0320
0230
2300
3200
0320
0032
0020
0200
,
2333
3200
0320
0032
0023
0230
0320
0230
0320
0032
2003
3002
,
2003
3002
2003
3002
0023
0230
0320
0230
0320
2030
3200
2300
,
3200
0320
0032
0203
0320
0032
2003
3200
0320
0230
0320
0032
,
0023
0230
0320
0230
0320
0032
0203
0320
2030
3200
0320
0032
,
0023
0230
2300
3200
2300
3200
0320
0230
0320
0230
0320
0032
,
0023
0032
0023
0032
0023
0230
2300
3200
2300
3200
2300
3200
,
0320
0000
0032
0000
0023
0000
0230
0000
0320
0000
0030
0000
0002
0000
0000
0023
0000
0000
0230
0000
0000
2300
0000
0000
,
3200
0320
0032
0023
0230
2300
3200
0320
,
0032
0023
0032
0023
0032
0023
0230
0320
,
0230
0320
0032
0023
0032
0023
0032
0023
,
0032
0023
2030
3200
0320
0230
0320
0230
,
0320
0230
0320
0230
0320
0230
0320
0230
,
0320
0230
0320
0230
0320
0032
0023
0230
,
0302
0023
0230
2300
3200
0320
0230
2300
,
3200
0320
0032
0023
0200
0332
2003
3200
,
0320
0230
0320
0230
2300
3002
2003
3002
,
2003
3020
0230
0320
0230
0320
0032
0023
,
2030
3200
0320
0032
0023
0230
2300
3200
,
0320
0032
0023
0032
0023
0032
0023
0032
,
0020
0200
2333
3200
0320
0032
0203
0320
,
2030
3200
0302
0203
2300
3020
0230
0320
,
0032
2003
3200
0320
0230
0320
0230
0320
,
0230
0320
0230
0320
0230
0320
0230
0320
,
0230
0320
0230
0320
0230
0320
0032
0023
,
0230
0302
0023
0230
2300
3200
0320
0230
,
2300
3200
0320
0032
0023
0200
0332
2003
,
3200
0320
0230
0320
0230
2300
3002
2003
,
3002
2003
3020
0230
0320
0230
0320
0032
,
0023
2030
3200
0320
0032
0023
0230
2300
,
3200
0320
0032
0023
0032
0023
0032
0023
,
0032
0020
0200
2333
3200
0320
0032
0003
,
2100
0100
0100
0100
,
0100
0100
0100
3100
,
0122
0100
0100
0100
,
0100
0100
0133
2100
,
0100
0100
0100
0100
,
0100
0100
0100
3100
,
0120
0100
0100
0100
,
0100
0100
0100
0130
,
0102
0100
0100
0100
,
0100
0100
0100
0100
,
0103
2102
0100
0100
,
0100
0100
0100
0100
,
3103
0210
0010
0010
,
0010
0010
0010
0010
,
0310
2010
0010
0010
,
0010
0020
0000
3030
,
0102
0010
1000
0103
,
1020
0100
1000
0130
,
1002
1000
1000
1003
,
0201
0010
0001
0310
,
1202
1000
0010
1303
,
0221
0001
0001
0331
,
0221
0001
0001
0331
,
0221
0001
0001
0331
,
0221
0001
0001
0001
,
0001
0001
0001
0001
,
0331
2201
0001
0001
,
0001
0001
0001
0001
,
3301
0220
0000
0000
,
0000
0000
0000
0000
,
0000
0000
0000
0000
,
0000
0000
0000
0000
,
0330
0000
0000
0000
;
