#TITLE:LOVE ♡ SHINE;
#SUBTITLE:(IVKAS STYLE);
#ARTIST:;
#TITLETRANSLIT:LOVE SHINE;
#SUBTITLETRANSLIT:;
#ARTISTTRANSLIT:;
#CREDIT:;
#BANNER:LOVE LOVE SHINE.png;
#BACKGROUND:LOVE LOVE SHINE-bg.png;
#LYRICSPATH:;
#CDTITLE:;
#MUSIC:LOVE LOVE SHINE.mp3;
#OFFSET:1.093;
#SAMPLESTART:32.617;
#SAMPLELENGTH:12.000;
#SELECTABLE:YES;
#BPMS:0.000=176.940;
#STOPS:;
#BGCHANGES:;
// cache tags:
#FIRSTBEAT:4.000;
#LASTBEAT:283.000;
#SONGFILENAME:Songs/Ace Megapack/LOVE SHINE (IVKAS Style)/LOVE LOVE SHINE (IVKAS Style).sm;
#HASMUSIC:1;
#HASBANNER:1;
#MUSICLENGTH:97.601;
// end cache tags

//---------------dance-single - IVKAS----------------
#NOTES:
     dance-single:
     IVKAS:
     Hard:
     11:
     1.000,1.000,1.000,0.000,0.036,539.000,305.000,0.000,0.000,0.000:
0000
0000
0000
0000
,
1001
0100
1001
0100
1000
0100
1001
0100
,
1000
0100
1001
0100
1010
0000
1001
0100
,
1000
0100
1001
0100
1000
0100
1001
0100
,
1010
0000
1100
0000
1010
0000
1001
0100
,
1001
0100
1001
0100
1000
0100
1001
0100
,
1000
0100
1001
0101
1010
0100
1001
0100
,
1000
0110
1010
0100
1010
0000
1100
1001
,
0100
1010
1010
1010
1010
0000
0000
0000
,
1010
0100
1010
0010
1001
0100
1010
1000
,
1100
0010
1001
0100
1010
1000
1100
0010
,
1010
0001
1100
0010
1001
0100
1010
0001
,
1100
0010
1001
0100
1010
0011
1010
0110
,
1010
1000
1100
0010
1001
0100
1010
1000
,
1100
0010
1010
0100
1010
0011
1010
0110
,
1001
1000
1010
0001
1100
0010
1001
1000
,
1100
0001
1001
0010
1001
1010
1001
1100
,
1001
0001
1000
0001
1000
0101
1000
0001
,
1100
0001
1000
0101
1000
0101
1001
0001
,
1010
0001
1000
0001
1000
0101
1000
0001
,
1010
0001
1000
0101
1000
0101
1001
1010
,
1100
0001
1010
0101
1000
1001
1010
0001
,
1010
1100
1000
0101
1001
0100
1001
0110
,
1001
0001
1000
0001
1000
1010
1100
1001
,
0000
0011
0011
0011
1001
0000
1100
0000
,
1001
0110
1000
1010
0010
1010
1000
1010
,
1000
0110
1000
1010
0010
1010
1100
1010
,
1000
0110
0001
1010
0100
1010
0001
1001
,
0010
0101
0001
0110
0001
1010
0110
1010
,
0101
0011
0100
0110
0010
1010
0100
1010
,
0101
0011
0100
1010
0010
0101
0110
1010
,
1001
0110
1000
1010
0011
1010
1000
1010
,
1000
1001
1001
1010
1001
1100
1010
1001
,
1001
0010
1000
0010
1000
0010
1000
0010
,
1100
0001
1000
0001
1000
0001
1010
0001
,
1010
0001
1000
0001
1000
0001
1010
0001
,
1100
0010
1000
0010
1010
0001
1001
1001
,
1010
0001
1000
0001
1000
0001
1000
0001
,
1001
0001
1000
0001
1000
0001
1001
0011
,
1001
0001
0000
0001
0000
0001
1000
1001
,
0000
1010
1001
0101
1010
0001
0011
0000
,
1001
0010
1001
0100
1000
0001
1010
0001
,
1000
0010
1001
0010
1000
0001
1010
0001
,
1000
0010
1001
0100
1000
0001
1010
0001
,
1010
0010
1001
0010
1100
0010
1001
1010
,
1001
0010
1001
0010
1000
0001
1010
0001
,
1000
0010
1001
0010
1000
0001
1010
0001
,
1001
0100
1010
0001
1001
0001
1010
1100
,
1001
0101
0011
0101
1001
0000
1010
1000
,
1001
0110
0000
1010
0010
1010
1000
1010
,
1000
0110
1000
1010
0010
1010
1000
1010
,
1000
0110
0001
1010
0100
1010
1000
1100
,
1010
0000
0000
0000
0000
0000
0000
0000
1001
0000
0000
0000
0000
0000
0000
0000
1010
0000
0000
0000
0000
0000
0000
0000
0000
0000
0000
0000
0000
0000
0011
0000
0000
1000
0000
0000
1001
0000
0000
0000
0000
0000
0010
0000
0000
0000
0000
0000
,
0101
0011
0100
0110
0010
1010
0100
1010
,
0101
0011
1000
0110
0010
0011
1100
0011
,
1001
0011
1000
1010
0011
1010
1000
1010
,
1001
1001
1100
1010
1001
1010
1100
1010
,
1001
0011
1000
0110
0001
1010
0100
1010
,
0100
0011
1000
0110
0001
1010
0101
1010
,
1000
0110
0001
1010
0100
1010
1000
1100
,
0010
0101
1000
0110
0001
0011
0101
1001
,
0101
1001
1000
0110
0001
1010
0100
1010
,
0101
0011
1000
0110
0010
0011
1100
0011
,
1001
0011
1000
1010
0011
1010
1000
1010
,
1000
0010
1001
1100
1010
1100
1010
1001
,
1010
0011
0100
0110
0001
1010
0100
1010
,
0101
0110
1000
1100
0010
0011
0110
1010
,
0100
0000
0000
0000
1010
0000
1000
0001
0100
0000
0000
0000
1010
0000
1000
0001
,
0100
0000
0101
0001
1000
0000
1010
0001
0101
0000
1010
0000
0110
0000
1010
0000
,
1001
0000
1010
0000
1010
1010
1010
0000
,
1010
1010
1010
1010
0000
1010
1010
0000
;
