#TITLE:Pokemon World;
#SUBTITLE:(Pokemon Orange Islands OP);
#ARTIST:Russell Velazquez;
#TITLETRANSLIT:;
#SUBTITLETRANSLIT:;
#ARTISTTRANSLIT:;
#CREDIT:;
#BANNER:banner.png;
#BACKGROUND:bg.png;
#LYRICSPATH:;
#CDTITLE:;
#MUSIC:Pokemon World.mp3;
#OFFSET:-0.100;
#SAMPLESTART:24.880;
#SAMPLELENGTH:15.000;
#SELECTABLE:YES;
#BPMS:0.000=104.980;
#STOPS:;
#BGCHANGES:0.000=Pokemon World.avi=1.000=0=0=0,
99999=-nosongbg-=1.000=0=0=0 // don't automatically add -songbackground-
;
// cache tags:
#FIRSTBEAT:2.000;
#LASTBEAT:102.000;
#SONGFILENAME:Songs/toune/Pokemon World (Orange Islands OP) [neothe0ne]/Pokemon World.sm;
#HASMUSIC:1;
#HASBANNER:1;
#MUSICLENGTH:61.466;
// end cache tags

//---------------dance-single - neothe0ne----------------
#NOTES:
     dance-single:
     neothe0ne:
     Hard:
     7:
     0.544,0.498,0.228,0.260,0.732,204.000,14.000,16.000,0.000,0.000:
0000
0000
0000
0000
0000
0000
0000
0000
1000
0100
0010
0001
0010
0100
0010
0100
,
0002
0000
1003
0000
0010
0100
0000
0000
0001
0100
0010
0000
0001
0010
0000
0100
,
1000
0000
0110
0000
1001
0000
0101
0000
0000
0000
1000
0001
0100
0010
0100
0000
,
0000
1000
0001
0100
0010
0010
0000
0000
0100
0010
1000
0001
0000
0000
0100
0010
,
0000
0001
2000
0000
3000
1000
0200
0000
0300
0000
0000
0010
1000
0001
0100
0000
,
0000
1000
0010
0000
0100
1000
0000
0000
0000
0010
0100
0001
0000
0100
0000
1000
,
0000
0010
0000
0100
0000
1000
0010
0200
0000
0300
0000
0001
0010
1000
0010
0000
,
0000
0100
0010
0001
0000
0010
0000
0000
0000
0000
1000
0000
0001
0100
0000
0001
,
0000
0000
0100
0000
0000
0000
1000
0200
0000
0300
0000
0000
1000
0001
1000
0000
,
0000
0100
0010
0000
0001
0020
0000
0000
0030
0000
0000
0000
0100
0001
1000
0100
,
0010
0000
0001
0000
1000
0000
0100
0000
0010
0000
0001
0000
0000
0000
1000
0001
,
0000
0100
0000
0000
0002
0000
0003
0000
0010
0100
1000
0000
0001
0010
0000
0000
,
1000
0000
1100
0000
0000
1001
0000
0000
0101
0000
0000
0000
1000
0000
0001
0000
,
0010
0200
0000
0300
0000
1000
0100
0000
0010
0000
0001
0000
1000
0100
0000
0010
,
0000
0001
0000
2000
0000
0000
0001
0010
3000
0010
0000
0001
0000
0000
0001
0100
,
0000
0100
0000
0000
0020
0000
0030
0000
1000
0010
0100
0000
0001
0010
0000
0000
,
1000
0000
0100
0000
0000
0010
0000
0000
0001
0000
0000
0100
1000
0100
0010
0000
,
0000
1000
0100
0000
0010
0001
0000
0001
0010
0000
0100
1000
0100
0000
0011
0000
,
0001
0101
0000
0000
0000
0100
0000
0000
1000
0001
1000
0100
0010
0100
0010
0001
,
2000
0000
3100
0000
0010
0001
0000
0000
0100
0010
1000
0000
0001
0010
0000
0010
,
0100
0000
1000
0000
0100
0000
0020
0000
0000
0000
0030
0000
0000
0000
1000
0001
,
0000
0200
0300
0000
2000
0000
3000
0000
0010
0100
0001
0000
0010
0100
0000
0000
,
1000
0000
0101
0000
0000
0110
0000
0000
1010
0000
0000
0000
1000
0000
0001
0000
,
0010
0100
0000
0000
0000
1000
0100
0000
0010
0000
0001
0000
1000
0100
0000
0001
,
0000
0010
0000
0002
0000
0000
0000
0000
0000
0000
2000
0000
0000
0000
3003
0000
,
0000
0000
0101
0000
0000
0110
0000
0000
1001
0000
0000
0000
0000
0000
0000
0000
;
