#TITLE:Beautiful Synergy;
#SUBTITLE:;
#ARTIST:Dance Junior Rakubou;
#TITLETRANSLIT:;
#SUBTITLETRANSLIT:;
#ARTISTTRANSLIT:;
#CREDIT:;
#BANNER:beautiful synergy bn.png;
#BACKGROUND:beautiful synergy bg.png;
#LYRICSPATH:;
#CDTITLE:;
#MUSIC:Beautiful Synergy.ogg;
#OFFSET:0.009;
#SAMPLESTART:31.122;
#SAMPLELENGTH:20.756;
#SELECTABLE:YES;
#DISPLAYBPM:185.000;
#BPMS:0.000=185.000,92.000=62.500,93.000=185.000,414.000=370.000,416.000=185.000;
#STOPS:414.000=0.973
;
#BGCHANGES:;
// cache tags:
#FIRSTBEAT:32.000;
#LASTBEAT:544.000;
#SONGFILENAME:Songs/SHARPNELSTREAMZ v2/Beautiful Synergy/Beautiful Synergy.sm;
#HASMUSIC:1;
#HASBANNER:1;
#MUSICLENGTH:177.730;
// end cache tags

//---------------dance-single - 13- (TYLR)----------------
#NOTES:
     dance-single:
     13- (TYLR):
     Challenge:
     13:
     1.000,1.000,0.309,0.906,1.000,1197.000,55.000,161.000,69.000,0.000:
0000
0000
0000
0000
,
0000
0000
0000
0000
,
0000
0000
0000
0000
,
0000
0000
0000
0000
,
0000
0000
0000
0000
,
0000
0000
0000
0000
,
0000
0000
0000
0000
,
0000
0000
0000
0000
,
1001
0000
0000
0000
0001
0000
0000
0000
0001
1000
0001
0000
0020
0000
0000
0000
,
0031
1000
0001
0000
0100
0000
0001
1000
0001
0000
0010
0000
0020
0000
0000
0000
,
0130
0000
0000
0000
0100
0000
0000
0000
0100
1000
0100
0000
0020
0000
0000
0030
,
0001
1000
0001
0000
0010
0000
0001
1000
0001
0000
0100
0000
0200
0000
0310
0000
,
1001
0000
0000
0000
1000
0000
0000
0000
1000
0001
1000
0000
0200
0000
0000
0000
,
1300
0001
1000
0000
0010
0000
1000
0001
1000
0000
0100
0000
0200
0000
0000
0000
,
0310
0000
0000
0000
0010
0000
0000
0000
0010
0001
0010
0000
0200
0000
0000
0300
,
2200
3300
0022
0033
0202
0303
2010
3001
,
1001
0000
0000
0000
1000
0000
0000
0000
1000
0001
1000
0000
0200
0000
0000
0000
,
1300
0001
1000
0000
0010
0000
1000
0001
1000
0000
0100
0000
0200
0000
0000
0000
,
0310
0000
0000
0000
0010
0000
0000
0000
0010
0001
0010
0000
0200
0000
0000
0300
,
1000
0001
1000
0000
0100
0000
1000
0001
1000
0000
0010
0000
0020
0000
0130
0000
,
1001
0000
0000
0000
0001
0000
0000
0000
0001
1000
0001
0000
0020
0000
0000
0000
,
0031
1000
0100
0010
0001
1000
0001
0100
0010
1000
0010
0100
0001
0010
0100
1000
,
0001
0100
0001
0100
0010
1000
0010
1000
0100
0010
0001
1000
0010
0100
0001
0010
,
0100
0000
0000
0000
0000
0000
0000
0000
1000
0000
0000
0000
1000
0000
0001
0000
0200
0000
0000
0000
0000
0000
0000
0300
0200
0000
0000
0000
0000
0000
0000
0300
,
0200
0000
0000
0000
0310
0100
0001
0000
1000
0001
1000
0001
1000
0001
0010
0100
,
1000
0000
0001
0000
0100
0000
0010
1000
0001
0010
0001
1000
0010
0100
0001
1000
,
0100
0010
0001
0100
0010
1000
0001
0010
0100
0000
1000
0000
0010
0000
1000
0001
,
0010
0000
0000
0000
0100
0000
0000
0000
1000
0000
0000
0000
0100
0000
0000
0000
0120
0000
0000
0000
0000
0000
0000
0030
0020
0000
0000
0000
0000
0000
0000
0030
,
0020
0000
0000
0000
0031
0010
0100
0000
1000
0001
1000
0001
1000
0001
0100
0010
,
1000
0000
0001
0000
0010
0000
0100
1000
0001
0100
0001
1000
0100
0010
0001
1000
,
0010
0100
0001
0010
0100
1000
0001
0100
0010
0000
1000
0000
0100
0000
1000
0000
,
0002
0000
0000
0000
0000
0000
1003
0000
0010
0000
0100
0000
0001
0000
1000
0000
0200
0000
0000
0000
0000
0000
0000
0300
0200
0000
0000
0000
0000
0000
0000
0300
,
0200
0000
0000
0000
0310
0100
1000
0000
0001
1000
0001
1000
0001
1000
0010
0100
,
0001
0000
1000
0000
0100
0000
0010
0001
1000
0010
1000
0001
0010
0100
1000
0001
,
0100
0010
1000
0100
0010
0001
1000
0010
0100
0000
0001
0000
0010
0000
0001
1000
,
0010
0000
0000
0000
0100
0000
0000
0000
0001
0000
0000
0000
0100
0000
0000
0000
0120
0000
0000
0000
0000
0000
0000
0030
0020
0000
0000
0000
0000
0000
0000
0030
,
0020
0000
0000
0000
1030
0010
0100
0000
0001
1000
0001
1000
0001
1000
0100
0010
,
0001
0000
1000
0000
0010
0000
0100
0001
1000
0100
1000
0001
0100
0010
1000
0001
,
0010
0100
1000
0010
0100
0001
1000
0100
0220
0000
0000
0330
0022
0000
0000
0033
,
2002
0000
0000
0000
0000
0000
3003
0000
0220
0000
0000
0000
0000
0000
0330
0000
2001
0000
0000
0000
0000
0000
0000
3000
2000
0000
0000
0000
0000
0000
0000
3000
,
2000
0000
0000
0000
3001
0010
0100
0000
1000
0001
1000
0001
1000
0001
0100
0010
,
1000
0000
0001
0000
0010
0000
0100
1000
0001
0100
0001
1000
0100
0010
0001
1000
,
0010
0100
0001
0010
0100
1000
0001
0100
0010
0000
1000
0000
0100
0000
1000
0001
,
0010
0000
0000
0000
0001
0000
0000
0000
0100
0000
0000
0000
0001
0000
0000
0000
2001
0000
0000
0000
0000
0000
0000
3000
2000
0000
0000
0000
0000
0000
0000
3000
,
2000
0000
0000
0000
3100
0010
0001
0000
1000
0001
1000
0001
1000
0001
0100
0010
,
1000
0000
0001
0000
0010
0000
0100
1000
0001
0100
0001
1000
0100
0010
0001
1000
,
0010
0100
0001
0010
0100
1000
0001
0100
0010
0000
1000
0000
0100
0000
1000
0000
,
0002
0000
0000
0000
0000
0000
0013
0000
0001
0000
1000
0000
0010
0000
0100
0000
0002
0000
0000
0000
0000
0000
0000
0003
0002
0000
0000
0000
0000
0000
0000
0003
,
0002
0000
0000
0000
1003
0100
0010
0000
0001
1000
0001
1000
0001
1000
0010
0100
,
0001
0000
1000
0000
0100
0000
0010
0001
1000
0010
1000
0001
0010
0100
1000
0001
,
0100
0010
1000
0100
0010
0001
1000
0010
0100
0000
0001
0000
0010
0000
0001
1000
,
0100
0000
0000
0000
1000
0000
0000
0000
0010
0000
0000
0000
1000
0000
0000
0000
1002
0000
0000
0000
0000
0000
0000
0003
0002
0000
0000
0000
0000
0000
0000
0003
,
0002
0000
0000
0000
0013
0100
1000
0000
0001
1000
0001
1000
0001
1000
0010
0100
,
0001
0000
1000
0000
0100
0000
0010
0001
1000
0010
1000
0001
0010
0100
1000
0001
,
0100
0010
1000
0100
0010
0001
1000
0010
0200
0000
0302
0000
0023
0000
0230
0000
,
2300
0000
0000
0000
0000
0000
0000
0000
3002
0000
0000
0000
0000
0000
0000
0003
0101
0000
0000
0000
0000
0000
0000
0000
0001
0000
0000
0000
0000
0000
0000
0000
,
0001
0100
0001
2000
0000
0000
3001
0100
0001
0100
0000
0001
,
0100
0000
0010
0020
0000
1030
0001
0000
0000
0001
0000
0000
,
0001
1000
0001
0020
0000
0000
0031
1000
0001
1000
0000
0001
,
1000
0000
0010
0020
0000
1030
0001
0000
0000
0001
0000
0000
,
0001
1000
0001
0200
0000
0000
0301
1000
0001
1000
0000
0001
,
1000
0000
0100
0200
0000
1300
0001
0000
0000
0001
0000
0000
,
0001
0000
0000
0000
1000
0000
0000
0000
0001
0000
0000
0000
0200
0000
0000
0000
0000
0000
0000
0000
0000
0000
0000
0000
0310
0000
0000
0000
0000
0000
1000
0000
0000
0010
0000
0000
0000
0000
0000
0000
0000
0000
0100
0000
0000
0000
0000
0000
,
0100
0000
0000
0001
0000
0000
1000
0000
0000
0000
0000
0000
0200
0000
0000
0000
0000
0000
0000
0000
0300
0000
0000
0000
0011
0000
0000
0000
0000
0000
0000
0000
0000
0000
0000
0000
0010
0000
0000
0000
0000
0000
0000
0000
0000
0000
0000
0000
,
0100
1000
0001
0200
0000
0300
0001
1000
0001
1000
0000
0001
,
1000
0000
0100
0200
0000
1300
0001
0000
0000
1000
0000
0000
,
0001
0010
0100
2000
0000
0000
3001
1000
0100
0010
0000
0100
,
0010
0000
0001
0002
0000
0013
0110
0000
0000
0010
0000
0000
,
0001
0010
0001
0200
0000
0300
0001
1000
0001
1000
0000
0001
,
1000
0000
0100
0200
0000
1300
0001
0000
0000
0100
0000
0000
,
0010
0000
0100
0000
0001
0000
2000
0000
0000
0000
3000
0000
2002
0000
0000
0000
0000
3003
2200
0000
0000
0000
0000
3300
,
0022
0000
0000
0000
0000
0033
0220
0000
0000
0000
0000
0330
1100
0000
0000
0000
1000
0000
0001
0000
0000
0000
1000
0000
,
0001
0000
0100
0020
0000
1030
0010
0100
0001
1000
0000
0001
,
1000
0000
0100
0020
0000
0031
1000
0000
0001
0010
0000
0001
,
0010
0000
0100
2000
0000
3001
1000
0001
0100
0010
0000
0100
,
0010
0000
1000
0002
0000
1003
1001
0000
0001
0010
0000
0001
,
0010
0000
0100
2000
0000
3001
1000
0100
0010
0001
0000
0010
,
0001
0000
0100
0020
0000
1030
0001
0000
1000
0100
0000
1000
,
0100
0000
0000
0000
0010
0000
0002
0000
0000
0000
1003
0000
2002
0000
0000
0000
0000
3003
2200
0000
0000
0000
0000
3300
,
0022
0000
0000
0000
0000
0033
0220
0000
0000
0000
0000
0330
1100
0000
0000
0000
1000
0000
2001
0000
0000
0000
3001
0000
,
0100
0000
0010
1020
0000
1030
0001
0010
0001
1000
0000
0001
,
0100
0000
0010
1020
0000
1030
0001
0000
1000
2100
0000
3100
,
0010
0000
0001
1002
0000
1003
0001
0100
0001
1000
0000
0001
,
0010
0000
0100
1200
0000
1300
0001
0000
0010
0120
0000
0130
,
1000
0000
0001
0012
0000
0013
0001
1000
0001
0100
0000
0010
,
1000
0000
0001
0012
0000
0013
0100
0000
1000
2001
0000
3001
,
0100
0000
0010
1020
0000
1030
0010
0100
0001
1000
0000
0100
,
1000
0000
0001
0012
0000
0013
0100
100M
010M
001M
010M
100M
,
001M
M100
M001
M100
M010
M100
M001
M010
M100
M010
M001
M010
,
M001
M100
M010
M100
M001
M100
M010
M100
M001
M010
M100
M010
,
M001
M010
M100
M010
M001
M100
M010
M100
M001
M010
M100
M010
,
M001
0000
M100
0000
M010
0000
M100
0000
M001
0000
M010
0000
0M04
4000
0M00
0000
0M00
0000
0M00
0000
0M00
0000
0M00
0000
,
00M0
00M0
00M0
00M0
00M0
00M0
0MM0
0000
0000
0M00
0000
0000
,
0M00
0M00
0M00
00M0
,
00M0
0000
0000
00M0
0000
0000
30M3
0000
0001
1000
0000
0001
,
0010
0000
0000
0000
0000
0000
0000
0000
0010
0000
0000
0000
0000
0000
0000
0000
1200
0000
0000
0000
0000
0000
0000
0300
0200
0000
0000
0000
0000
0000
0000
0300
,
0200
0000
0000
0000
0310
0100
1000
0000
0001
0100
0001
0100
0001
0100
0010
1000
,
0100
0000
0000
0000
0010
0000
0000
0000
0001
0000
0000
0000
0100
0000
0010
0000
2000
0000
0000
0000
0000
0000
0000
3000
2000
0000
0000
0000
0000
0000
0000
3000
,
2000
0000
0000
0000
3100
1000
0001
0000
0010
0100
0010
0100
0010
0100
1000
0001
,
0100
0000
0000
0000
0010
0000
0000
0000
1000
0000
0000
0000
0100
0000
0010
0000
0002
0000
0000
0000
0000
0000
0000
0003
0002
0000
0000
0000
0000
0000
0000
0003
,
0002
0000
0000
0000
0103
0010
1000
0000
0001
0010
0001
0010
0001
0010
0100
1000
,
0001
0000
0000
0000
0100
0000
0000
0000
0010
0000
0000
0000
1000
0000
0001
0000
0020
0000
0000
0000
0000
0000
0000
0030
0020
0000
0000
0000
0000
0000
0000
0030
,
0020
0000
0000
0000
0130
0010
0001
0000
1000
0001
1000
0001
1000
0001
0100
0010
,
1000
0000
0100
0000
0010
0000
0001
1000
0001
0000
0000
0000
0000
0000
0000
0000
,
1002
0000
0000
0000
0000
0000
0000
0003
0002
0000
0000
0000
0000
0000
0000
0003
0002
0000
0000
0000
0000
0000
0000
0000
0103
0000
0010
0000
1000
0000
0000
0000
,
0001
1000
0001
1000
0001
1000
0100
0010
0001
0000
1000
0000
0010
0000
0100
0001
,
1000
0100
1000
0001
0100
0010
1000
0001
0010
0100
1000
0010
0100
0001
1000
0100
,
0010
0000
0001
0000
0100
0000
0001
1000
0100
0000
0010
0000
0001
0000
0010
0000
,
0210
0000
0000
0000
0000
0000
0000
0300
0200
0000
0000
0000
0000
0000
0000
0300
0200
0000
0000
0000
0000
0000
0000
0000
1300
0000
0100
0000
0010
0000
0000
0000
,
0001
1000
0001
1000
0001
1000
0010
0100
0001
0000
1000
0000
0100
0000
0010
0001
,
1000
0010
1000
0001
0010
0100
1000
0001
0100
0010
1000
0100
0010
0001
1000
0010
,
0100
0000
0001
0000
0010
0000
0001
0000
2000
0000
0000
3001
0100
0010
1000
0001
,
0020
0000
0000
0000
0000
0000
0000
0030
0020
0000
0000
0000
0000
0000
0000
0030
0020
0000
0000
0000
0000
0000
0000
0000
0130
0000
0010
0000
0001
0000
0000
0000
,
1000
0001
1000
0001
1000
0001
0100
0010
1000
0000
0001
0000
0010
0000
0100
1000
,
0001
0100
0001
1000
0100
0010
0001
1000
0010
0100
0001
0010
0100
1000
0001
0100
,
0010
0000
1000
0000
0100
0000
1000
0001
0100
0000
0010
0000
1000
0000
0010
0000
,
0210
0000
0000
0000
0000
0000
0000
0300
0200
0000
0000
0000
0000
0000
0000
0300
0200
0000
0000
0000
0000
0000
0000
0000
0301
0000
0100
0000
0010
0000
0000
0000
,
1000
0001
1000
0001
1000
0001
0010
0100
1000
0000
0001
0000
0100
0000
0010
1000
,
0001
0010
0001
1000
0010
0100
0001
1000
0100
0010
0001
0100
0010
1000
0001
0010
,
0220
0000
0000
0330
2200
0000
0000
3300
2002
0000
0000
3003
0220
0000
0000
0330
,
1002
0000
0000
0000
0000
0000
0000
0003
0002
0000
0000
0000
0000
0000
0000
0003
0002
0000
0000
0000
0000
0000
0000
0000
1003
0000
0100
0000
0010
0000
0000
0000
,
0001
1000
0001
1000
0001
1000
0010
0100
0001
0000
1000
0000
0100
0000
0010
0001
,
1000
0010
1000
0001
0010
0100
1000
0001
0100
0010
1000
0100
0010
0001
1000
0010
,
0100
0000
0001
0000
0010
0000
0001
1000
0100
0000
1000
0000
0010
0000
1000
0000
,
1002
0000
0000
0000
0000
0000
0000
0003
0002
0000
0000
0000
0000
0000
0000
0003
0002
0000
0000
0000
0000
0000
0000
0000
0013
0000
0100
0000
1000
0000
0000
0000
,
0001
1000
0001
1000
0001
1000
0010
0100
0001
0000
1000
0000
0100
0000
0010
0001
,
1000
0010
1000
0001
0010
0100
1000
0001
0100
0010
1000
0100
0010
0001
1000
0010
,
0100
0000
0001
0000
0010
0000
0001
0000
2000
0000
0000
3100
1000
0001
0100
0010
,
2000
0000
0000
0000
0000
0000
0000
3000
2000
0000
0000
0000
0000
0000
0000
3000
2000
0000
0000
0000
0000
0000
0000
0000
3001
0000
0010
0000
0100
0000
0000
0000
,
1000
0001
1000
0001
1000
0001
0100
0010
1000
0000
0001
0000
0010
0000
0100
1000
,
0001
0100
0001
1000
0100
0010
0001
1000
0010
0100
0001
0010
0100
1000
0001
0100
,
0010
0000
1000
0000
0100
0000
1000
0001
0010
0000
0001
0000
0100
0000
0001
0000
,
2001
0000
0000
0000
0000
0000
0000
3000
2000
0000
0000
0000
0000
0000
0000
3000
2000
0000
0000
0000
0000
0000
0000
0000
3100
0000
0010
0000
0001
0000
0000
0000
,
1000
0001
1000
0001
1000
0001
0100
0010
1000
0000
0001
0000
0010
0000
0100
1000
,
0001
0100
0001
1000
0100
0010
0001
1000
0010
0100
0001
0010
0100
1000
0001
0100
,
0020
2030
3200
0320
0032
0000
2003
0000
,
3000
0000
0000
0000
;
