#TITLE:drum machine;
#SUBTITLE:;
#ARTIST:Drew Cope;
#TITLETRANSLIT:;
#SUBTITLETRANSLIT:;
#ARTISTTRANSLIT:;
#CREDIT:;
#BANNER:drummachine-bn.png;
#BACKGROUND:drummachine-bg.png;
#LYRICSPATH:;
#CDTITLE:!arch0wltitle.png;
#MUSIC:drummachine.ogg;
#OFFSET:1.989;
#SAMPLESTART:50.020;
#SAMPLELENGTH:20.000;
#SELECTABLE:YES;
#BPMS:0.000=120.011;
#STOPS:;
#BGCHANGES:0.000=drummachine-bg.png=1.000=0=0=1,
99999=-nosongbg-=1.000=0=0=0 // don't automatically add -songbackground-
;
// cache tags:
#FIRSTBEAT:8.000;
#LASTBEAT:176.000;
#SONGFILENAME:Songs/Archmage and Dark0wl Hammer of Thor UltraHyperMegaPack/drum machine/drum machine.sm;
#HASMUSIC:1;
#HASBANNER:1;
#MUSICLENGTH:105.000;
// end cache tags

//---------------dance-solo - Arch0wl----------------
#NOTES:
     dance-solo:
     Arch0wl:
     Challenge:
     12:
     0.891,1.000,1.000,0.000,0.676,410.000,164.000,0.000,0.000,68.000:
000000
000000
000000
000000
,
000000
000000
000000
000000
,
000100
000000
000001
000001
,
000100
000000
000000
000000
000001
000001
000000
000001
,
000100
000000
000000
000000
000001
000010
000001
000010
,
000010
000000
000100
000000
000000
000000
000000
000000
000001
000000
000001
010000
000000
010000
000001
000000
,
010100
000000
000000
010000
000000
010000
000000
000000
010001
000000
000000
010000
000001
010000
010000
000000
,
010100
000000
000000
010000
000000
010000
000000
000000
010011
000000
000001
010000
000010
010000
010011
000000
,
010100
000000
000000
010000
000000
010000
000000
000000
010001
000000
000000
010000
000000
010000
010011
000000
,
010000
000000
000111
010000
000010
010000
000000
000000
010001
000000
000001
010000
000000
010000
010001
000000
,
010000
000000
000010
000000
000000
000000
000010
000000
000010
000000
000000
000000
010000
010000
010010
000000
,
000000
000000
000010
000000
000010
000000
010000
000000
000001
000000
010101
000010
010010
000000
000001
000000
,
000100
000000
000000
000000
000000
000000
010000
010000
010000
000000
000000
000000
000010
000010
000010
000000
,
000000
000000
010000
010000
010000
000000
000010
000010
000010
000000
010000
010000
010000
000010
000010
000000
,
000100
000010
000000
000010
000011
000000
000000
000011
,
000000
000000
000010
000000
000011
000000
010000
010000
010001
000000
000010
000010
000010
000000
010000
010000
,
010001
000000
000010
000010
010001
010000
010000
000000
000011
000010
010000
010000
010001
000000
000010
000001
,
010000
000000
000011
000000
010000
000000
000011
000000
010000
000000
000011
010010
010100
010001
000100
000000
,
110100
000000
100010
010000
100000
010000
100110
000000
010010
000001
100000
010000
000000
010001
110010
000000
,
110000
000000
000110
010000
100010
010000
100000
000000
010001
000000
100101
010000
000010
010000
110000
000001
,
110100
000000
100010
010000
100000
010000
100110
000000
010011
000000
100100
010000
000000
010000
110011
000000
,
110100
010001
010010
000000
100010
000000
110000
000000
000001
000000
110100
000001
000010
010000
101100
000000
,
110100
000000
100010
010000
101000
010000
100110
000000
010011
000000
100000
010000
000001
010000
110010
000000
,
110000
000000
000110
010000
100010
010000
100000
000000
010001
000000
100100
010011
000010
010010
111001
000000
,
110100
000000
100010
010000
100000
010000
100110
000000
010011
000000
100100
010000
001000
010000
110001
000010
,
110110
000010
000001
010000
100000
010010
100010
000010
010001
000000
100100
010011
000010
010010
110000
000000
,
111101
000000
100010
010000
101000
010000
100110
000000
010011
000000
100000
010000
000001
010000
110010
000000
,
110100
000000
000000
000000
000000
000000
000110
000000
000000
010000
000000
000000
100010
000000
000000
010000
000000
000000
100000
000000
000000
000001
000000
000000
010000
000000
000000
000000
000001
000000
100100
000000
000000
010000
000000
000000
000000
000000
000000
010000
000000
000000
111001
000000
000000
000000
000000
000000
,
110100
000000
100010
010000
100000
010000
100110
000001
010010
000000
100100
010000
001000
010001
110010
000000
,
110101
000000
000000
000000
000000
000000
010010
000000
000000
010000
000000
000000
110010
000000
000000
000000
000000
000000
100000
000000
000000
010001
000000
000000
000000
000000
000000
000000
000001
000000
110100
000000
000000
000000
000000
000000
010000
000000
000000
000001
000000
000000
101000
000000
000000
000000
000000
000000
,
110100
000000
100010
010000
101000
010000
100110
000000
010011
000000
100000
010001
000000
010000
110010
000000
,
110100
000000
000110
010000
100010
010000
100000
000001
010000
000000
100101
010000
000000
010001
111000
000000
,
110100
000000
100010
010000
100000
010000
100110
000001
010010
000000
100100
010000
001000
010001
110010
000000
,
100100
000000
000000
000001
000000
000000
000010
000000
000000
000000
000000
000000
100010
000000
000000
000000
000000
000000
100000
000000
000000
000001
000000
000000
000000
000000
000000
000000
000001
000000
100110
000000
000000
000010
000000
000000
010000
000000
000000
010001
000000
000000
111000
000000
000000
000000
000000
000000
,
110100
000000
000010
010000
001000
010000
000110
000000
010011
000000
000000
010000
000001
010000
010000
000000
,
000010
010000
000001
000010
010000
000001
000010
010000
000001
000010
010000
000001
000010
010000
001001
000000
,
110100
000000
100010
010000
101000
010000
100110
000000
010010
000000
100101
010000
001000
010000
110001
000010
,
110110
000010
000001
010000
100000
010010
100010
000010
010001
000000
100100
010011
000010
010010
111001
000000
,
110100
000000
100010
010000
101000
010000
100110
000000
010011
000000
100000
010000
000001
010000
110010
000000
,
110100
000000
000110
010000
100010
010000
100000
000000
010001
000000
100100
010001
000000
010000
111001
000000
,
100100
000000
000000
000100
000001
000000
000000
000001
,
100000
000000
000001
000000
001000
000000
000100
000000
010000
010000
000010
000010
000010
000000
111111
000000
,
000000
000000
000000
000000
,
000000
000000
000000
000000
,
000100
000000
000000
000000
;

//---------------dance-single - Arch0wl----------------
#NOTES:
     dance-single:
     Arch0wl:
     Hard:
     9:
     0.510,0.691,0.514,0.000,0.519,299.000,54.000,0.000,0.000,20.000:
00000000
00000000
00000000
00000000
,
00000000
00000000
00000000
00000000
,
00010000
00000000
00000010
00000010
,
00010000
00000000
00000000
00000000
00000010
00000010
00000000
00000010
,
00010000
00000000
00000000
00000000
00000010
00001000
00000010
00001000
,
00001000
00000000
00010000
00000000
00000000
00000000
00000000
00000000
00000010
00000000
00000010
00100000
00000000
00100000
00000010
00000000
,
00110000
00000000
00000000
00100000
00000000
00100000
00000000
00000000
00100010
00000000
00000000
00100000
00000010
00100000
00100000
00000000
,
00110000
00000000
00000000
00100000
00000000
00100000
00000000
00000000
00101010
00000000
00000010
00100000
00001000
00100000
00101010
00000000
,
00110000
00000000
00000000
00100000
00000000
00100000
00000000
00000000
00100010
00000000
00000000
00100000
00000000
00100000
00101010
00000000
,
00100000
00000000
00011010
00100000
00001000
00100000
00000000
00000000
00100010
00000000
00000010
00100000
00000000
00100000
00100010
00000000
,
00000100
00000000
00001000
00000000
00000000
00000000
00001000
00000000
00001000
00000000
00000000
00000000
00100000
00100000
00101000
00000000
,
00000000
00000000
00001000
00000000
00001000
00000000
00100000
00000000
00000010
00000000
00100110
00001000
00101000
00000000
00000010
00000000
,
00000100
00000000
00000000
00000000
00000000
00000000
00100000
00100000
00100000
00000000
00000000
00000000
00001000
00001000
00001000
00000000
,
00000000
00000000
00100000
00100000
00100000
00000000
00001000
00001000
00001000
00000000
00100000
00100000
00100000
00001000
00001000
00000000
,
00010100
00001000
00000000
00001000
00001010
00000000
00000000
00001010
,
00000000
00000000
00001000
00000000
00001010
00000000
00100000
00100000
00100010
00000000
00001000
00001000
00001000
00000000
00100000
00100000
,
00100010
00000000
00001000
00001000
00100010
00100000
00100000
00000000
00001010
00001000
00100000
00100000
00100010
00000000
00001000
00000010
,
00100000
00000000
00001010
00000000
00100000
00000000
00001010
00000000
00100000
00000000
00001010
00101000
00100100
00100010
00010000
00000000
,
10100100
00000000
10001000
00100000
10000000
00100000
10001100
00000000
00101000
00000010
10000000
00100000
00000000
00100010
10101000
00000000
,
10100000
00000000
00001100
00100000
10001000
00100000
10000000
00000000
00100010
00000000
10000110
00100000
00001000
00100000
10100000
00000010
,
10100100
00000000
10001000
00100000
10000000
00100000
10001100
00000000
00101010
00000000
10000100
00100000
00000000
00100000
10101010
00000000
,
10100100
00100010
00101000
00000000
10001000
00000000
10100000
00000000
00000010
00000000
10100100
00000010
00001000
00100000
11000100
00000000
,
10110100
00000000
10001000
00100000
11000000
00100000
10001100
00000000
00101010
00000000
10000000
00100000
00000010
00100000
10101000
00000000
,
10100000
00000000
00001100
00100000
10001000
00100000
10000000
00000000
00100010
00000000
10000100
00101010
00001000
00101000
11100010
00000000
,
10100100
00000000
10001000
00100000
10000000
00100000
10001100
00000000
00101010
00000000
10000100
00100000
01000000
00100000
10100010
00001000
,
10101100
00001000
00000010
00100000
10000000
00101000
10001000
00001000
00100010
00000000
10000100
00101010
00001000
00101000
10100000
00000000
,
11110111
00000000
10001000
00100000
11000000
00100000
10001101
00000000
00101010
00000000
10000000
00100000
00000010
00100000
10101000
00000000
,
10110001
00000000
00000000
00000000
00000000
00000000
00000000
00000000
00001100
00000000
00000000
00000000
00100000
00000000
00000000
00000000
10001000
00000000
00000000
00000000
00100000
00000000
00000000
00000000
10000000
00000000
00000000
00000000
00000010
00000000
00000000
00000000
00100000
00000000
00000000
00000000
00000000
00000010
00000000
00000000
10000100
00000000
00000000
00000000
00100000
00000000
00000000
00000000
00000000
00000000
00000000
00000000
00100000
00000000
00000000
00000000
11100010
00000000
00000000
00000000
00000000
00000000
00000000
00000000
,
10110100
00000000
10001000
00100000
10000000
00100000
10001100
00000010
00101000
00000000
10000100
00100000
01000000
00100010
10101000
00000000
,
10110110
00000000
00000000
00000000
00000000
00000000
00000000
00000000
00101000
00000000
00000000
00000000
00100000
00000000
00000000
00000000
10101000
00000000
00000000
00000000
00000000
00000000
00000000
00000000
10000000
00000000
00000000
00000000
00100010
00000000
00000000
00000000
00000000
00000000
00000000
00000000
00000000
00000010
00000000
00000000
10100100
00000000
00000000
00000000
00000000
00000000
00000000
00000000
00100000
00000000
00000000
00000000
00000010
00000000
00000000
00000000
11000000
00000000
00000000
00000000
00000000
00000000
00000000
00000000
,
10110101
00000000
10001000
00100000
11000000
00100000
10001101
00000000
00101010
00000000
10000000
00100010
00000000
00100000
10101000
00000000
,
10110001
00000000
00001100
00100000
10001000
00100000
10000000
00000010
00100000
00000000
10000110
00100000
00000000
00100010
11100000
00000000
,
10110100
00000000
10001000
00100000
10000000
00100000
10001100
00000010
00101000
00000000
10000100
00100000
01000000
00100010
10101000
00000000
,
10010100
00000000
00000000
00000000
00000010
00000000
00000000
00000000
00001000
00000000
00000000
00000000
00000000
00000000
00000000
00000000
10001000
00000000
00000000
00000000
00000000
00000000
00000000
00000000
10000000
00000000
00000000
00000000
00000010
00000000
00000000
00000000
00000000
00000000
00000000
00000000
00000000
00000010
00000000
00000000
10001100
00000000
00000000
00000000
00001000
00000000
00000000
00000000
00100000
00000000
00000000
00000000
00100010
00000000
00000000
00000000
11100000
00000000
00000000
00000000
00000000
00000000
00000000
00000000
,
10110101
00000000
00001000
00100000
01000000
00100000
00001101
00000000
00101010
00000000
00000000
00100000
00000010
00100000
00100000
00000000
,
00001000
00100000
00000010
00001000
00100000
00000010
00001000
00100000
00000010
00001000
00100000
00000010
00001000
00100000
01000010
00000000
,
10110101
00000000
10001000
00100000
11000000
00100000
10001100
00000000
00101000
00000000
10000110
00100000
01000000
00100000
10100010
00001000
,
10111100
00001000
00000010
00100000
10000000
00101000
10001000
00001000
00100010
00000000
10000100
00101010
00001000
00101000
11100010
00000000
,
10110101
00000000
10001000
00100000
11000000
00100000
10001101
00000000
00101010
00000000
10000000
00100000
00000010
00100000
10101000
00000000
,
10110001
00000000
00001100
00100000
10001000
00100000
10000000
00000000
00100010
00000000
10000100
00100010
00000000
00100000
11100010
00000000
,
10000100
00000000
00000000
00000100
00000010
00000000
00000000
00000010
,
10000000
00000000
00000010
00000000
01000000
00000000
00000100
00000000
00100000
00100000
00001000
00001000
00001000
00000000
11111111
00000000
,
00000000
00000000
00000000
00000000
,
00000000
00000000
00000000
00000000
,
00010000
00000000
00000000
00000000
;

//---------------dance-single - Arch0wl----------------
#NOTES:
     dance-single:
     Arch0wl:
     Edit:
     25:
     0.859,1.000,1.000,0.000,0.676,409.000,158.000,0.000,0.000,56.000:
0000
0000
0000
0000
,
0000
0000
0000
0000
,
0010
0000
0001
0001
,
0010
0000
0000
0000
0001
0001
0000
0001
,
0010
0000
0000
0000
0001
1000
0001
1000
,
1000
0000
0010
0000
0000
0000
0000
0000
0001
0000
0001
0100
0000
0100
0001
0000
,
0110
0000
0000
0100
0000
0100
0000
0000
0101
0000
0000
0100
0001
0100
0100
0000
,
0110
0000
0000
0100
0000
0100
0000
0000
1101
0000
0001
0100
1000
0100
1101
0000
,
0110
0000
0000
0100
0000
0100
0000
0000
0101
0000
0000
0100
0000
0100
1101
0000
,
0100
0000
1011
0100
1000
0100
0000
0000
0101
0000
0001
0100
0000
0100
0101
0000
,
0100
0000
1000
0000
0000
0000
1000
0000
1000
0000
0000
0000
0100
0100
1100
0000
,
0000
0000
1000
0000
1000
0000
0100
0000
0001
0000
0111
1000
1100
0000
0001
0000
,
0010
0000
0000
0000
0000
0000
0100
0100
0100
0000
0000
0000
1000
1000
1000
0000
,
0000
0000
0100
0100
0100
0000
1000
1000
1000
0000
0100
0100
0100
1000
1000
0000
,
0010
1000
0000
1000
1001
0000
0000
1001
,
0000
0000
1000
0000
1001
0000
0100
0100
0101
0000
1000
1000
1000
0000
0100
0100
,
0101
0000
1000
1000
0101
0100
0100
0000
1001
1000
0100
0100
0101
0000
1000
0001
,
0100
0000
1001
0000
0100
0000
1001
0000
0100
0000
1001
1100
0110
0101
0010
0000
,
1110
0000
1010
0100
1000
0100
1010
0000
0110
0001
1000
0100
0000
0101
1110
0000
,
1100
0000
0010
0100
1010
0100
1000
0000
0101
0000
1011
0100
0010
0100
1100
0001
,
1110
0000
1010
0100
1000
0100
1010
0000
0111
0000
1010
0100
0000
0100
1111
0000
,
1110
0101
0110
0000
1010
0000
1100
0000
0001
0000
1110
0001
0000
0100
1010
0000
,
1110
0000
1010
0100
1010
0100
1010
0000
0111
0000
1000
0100
0001
0100
1110
0000
,
1100
0000
0010
0100
1010
0100
1000
0000
0101
0000
1010
0111
0010
0110
1111
0000
,
1110
0000
1010
0100
1000
0100
1010
0000
0111
0000
1010
0100
0010
0100
1101
0010
,
1110
0010
0001
0100
1000
0110
1010
0010
0101
0000
1010
0111
0010
0110
1100
0000
,
1111
0000
1010
0100
1010
0100
1010
0000
0111
0000
1000
0100
0001
0100
1110
0000
,
1110
0000
0000
0000
0000
0000
0010
0000
0000
0100
0000
0000
1010
0000
0000
0100
0000
0000
1000
0000
0000
0001
0000
0000
0100
0000
0000
0000
0001
0000
1010
0000
0000
0100
0000
0000
0000
0000
0000
0100
0000
0000
1111
0000
0000
0000
0000
0000
,
1110
0000
1010
0100
1000
0100
1010
0001
0110
0000
1010
0100
0010
0101
1110
0000
,
1111
0000
0000
0000
0000
0000
0110
0000
0000
0100
0000
0000
1110
0000
0000
0000
0000
0000
1000
0000
0000
0101
0000
0000
0000
0000
0000
0000
0001
0000
1110
0000
0000
0000
0000
0000
0100
0000
0000
0001
0000
0000
1010
0000
0000
0000
0000
0000
,
1110
0000
1010
0100
1010
0100
1010
0000
0111
0000
1000
0101
0000
0100
1110
0000
,
1110
0000
0010
0100
1010
0100
1000
0001
0100
0000
1011
0100
0000
0101
1110
0000
,
1110
0000
1010
0100
1000
0100
1010
0001
0110
0000
1010
0100
0010
0101
1110
0000
,
1010
0000
0000
0001
0000
0000
0010
0000
0000
0000
0000
0000
1010
0000
0000
0000
0000
0000
1000
0000
0000
0001
0000
0000
0000
0000
0000
0000
0001
0000
1010
0000
0000
0010
0000
0000
0100
0000
0000
0101
0000
0000
1110
0000
0000
0000
0000
0000
,
1110
0000
0010
0100
0010
0100
0010
0000
0111
0000
0000
0100
0001
0100
0100
0000
,
0010
0100
0001
0010
0100
0001
0010
0100
0001
0010
0100
0001
0010
0100
0011
0000
,
1110
0000
1010
0100
1010
0100
1010
0000
0110
0000
1011
0100
0010
0100
1101
0010
,
1110
0010
0001
0100
1000
0110
1010
0010
0101
0000
1010
0111
0010
0110
1111
0000
,
1110
0000
1010
0100
1010
0100
1010
0000
0111
0000
1000
0100
0001
0100
1110
0000
,
1110
0000
0010
0100
1010
0100
1000
0000
0101
0000
1010
0101
0000
0100
1111
0000
,
1010
0000
0000
0010
0001
0000
0000
0001
,
1000
0000
0001
0000
0010
0000
0010
0000
0100
0100
0010
0010
0010
0000
1111
0000
,
0000
0000
0000
0000
,
0000
0000
0000
0000
,
0010
0000
0000
0000
;

//---------------dance-single - Arch0wl----------------
#NOTES:
     dance-single:
     Arch0wl:
     Challenge:
     12:
     0.771,0.922,1.000,0.000,0.676,409.000,158.000,0.000,0.000,0.000:
0000
0000
0000
0000
,
0000
0000
0000
0000
,
0010
0000
0001
0001
,
0010
0000
0000
0000
0001
0001
0000
0001
,
0010
0000
0000
0000
0001
1000
0001
1000
,
1000
0000
0010
0000
0000
0000
0000
0000
0001
0000
0001
0100
0000
0100
0001
0000
,
0110
0000
0000
0100
0000
0100
0000
0000
0101
0000
0000
0100
0001
0100
0100
0000
,
0110
0000
0000
0100
0000
0100
0000
0000
0101
0000
0001
0100
1000
0100
0101
0000
,
0110
0000
0000
0100
0000
0100
0000
0000
0101
0000
0000
0100
0000
0100
0101
0000
,
0100
0000
1001
0100
1000
0100
0000
0000
0101
0000
0001
0100
0000
0100
0101
0000
,
0100
0000
1000
0000
0000
0000
1000
0000
1000
0000
0000
0000
0100
0100
1100
0000
,
0000
0000
1000
0000
1000
0000
0100
0000
0001
0000
0110
1000
1100
0000
0001
0000
,
0010
0000
0000
0000
0000
0000
0100
0100
0100
0000
0000
0000
1000
1000
1000
0000
,
0000
0000
0100
0100
0100
0000
1000
1000
1000
0000
0100
0100
0100
1000
1000
0000
,
0010
1000
0000
1000
1001
0000
0000
1001
,
0000
0000
1000
0000
1001
0000
0100
0100
0101
0000
1000
1000
1000
0000
0100
0100
,
0101
0000
1000
1000
0101
0100
0100
0000
1001
1000
0100
0100
0101
0000
1000
0001
,
0100
0000
1001
0000
0100
0000
1001
0000
0100
0000
1001
1100
0110
0101
0010
0000
,
1100
0000
1010
0100
1000
0100
1010
0000
0110
0001
1000
0100
0000
0101
1010
0000
,
1100
0000
0010
0100
1010
0100
1000
0000
0101
0000
1001
0100
0010
0100
1100
0001
,
1010
0000
1010
0100
1000
0100
1010
0000
0101
0000
1010
0100
0000
0100
1001
0000
,
0110
0101
0110
0000
1010
0000
1100
0000
0001
0000
1010
0001
0000
0100
1010
0000
,
1100
0000
1010
0100
1010
0100
1010
0000
0101
0000
1000
0100
0001
0100
1010
0000
,
1100
0000
0010
0100
1010
0100
1000
0000
0101
0000
1010
0101
0010
0110
1001
0000
,
1100
0000
1010
0100
1000
0100
1010
0000
0101
0000
1010
0100
0010
0100
1001
0010
,
1010
0010
0001
0100
1000
0110
1010
0010
0101
0000
1010
0101
0010
0110
1100
0000
,
1001
0000
1010
0100
1010
0100
1010
0000
0101
0000
1000
0100
0001
0100
1010
0000
,
1100
0000
0000
0000
0000
0000
0010
0000
0000
0100
0000
0000
1010
0000
0000
0100
0000
0000
1000
0000
0000
0001
0000
0000
0100
0000
0000
0000
0001
0000
1010
0000
0000
0100
0000
0000
0000
0000
0000
0100
0000
0000
1001
0000
0000
0000
0000
0000
,
1100
0000
1010
0100
1000
0100
1010
0001
0110
0000
1010
0100
0010
0101
1010
0000
,
1001
0000
0000
0000
0000
0000
0110
0000
0000
0100
0000
0000
1010
0000
0000
0000
0000
0000
1000
0000
0000
0101
0000
0000
0000
0000
0000
0000
0001
0000
1010
0000
0000
0000
0000
0000
0100
0000
0000
0001
0000
0000
1010
0000
0000
0000
0000
0000
,
1100
0000
1010
0100
1010
0100
1010
0000
0101
0000
1000
0101
0000
0100
1010
0000
,
1100
0000
0010
0100
1010
0100
1000
0001
0100
0000
1001
0100
0000
0101
1010
0000
,
1100
0000
1010
0100
1000
0100
1010
0001
0110
0000
1010
0100
0010
0101
1010
0000
,
1010
0000
0000
0001
0000
0000
0010
0000
0000
0000
0000
0000
1010
0000
0000
0000
0000
0000
1000
0000
0000
0001
0000
0000
0000
0000
0000
0000
0001
0000
1010
0000
0000
0010
0000
0000
0100
0000
0000
0101
0000
0000
1010
0000
0000
0000
0000
0000
,
1100
0000
0010
0100
0010
0100
0010
0000
0101
0000
0000
0100
0001
0100
0100
0000
,
0010
0100
0001
0010
0100
0001
0010
0100
0001
0010
0100
0001
0010
0100
0011
0000
,
1100
0000
1010
0100
1010
0100
1010
0000
0110
0000
1001
0100
0010
0100
1001
0010
,
0110
0010
0001
0100
1000
0110
1010
0010
0101
0000
1010
0110
0010
0110
1001
0000
,
1100
0000
1010
0100
1010
0100
1010
0000
0110
0000
1000
0100
0001
0100
0110
0000
,
1100
0000
0010
0100
1010
0100
1000
0000
0101
0000
1010
0101
0000
0100
1001
0000
,
1010
0000
0000
0010
0001
0000
0000
0001
,
1000
0000
0001
0000
0010
0000
0010
0000
0100
0100
0010
0010
0010
0000
1001
0000
,
0000
0000
0000
0000
,
0000
0000
0000
0000
,
0010
0000
0000
0000
;

//---------------dance-single - Arch0wl----------------
#NOTES:
     dance-single:
     Arch0wl:
     Edit:
     9:
     0.582,0.629,0.181,0.000,0.676,409.000,19.000,0.000,0.000,0.000:
0000
0000
0000
0000
,
0000
0000
0000
0000
,
0010
0000
0001
0001
,
0010
0000
0000
0000
0001
0001
0000
0001
,
0010
0000
0000
0000
0001
1000
0001
1000
,
1000
0000
0010
0000
0000
0000
0000
0000
0001
0000
0001
0100
0000
0100
0001
0000
,
0010
0000
0000
0100
0000
0100
0000
0000
0010
0000
0000
0100
0001
0100
0100
0000
,
0010
0000
0000
0100
0000
0100
0000
0000
0010
0000
0001
0100
1000
0100
0001
0000
,
0010
0000
0000
0100
0000
0100
0000
0000
0010
0000
0000
0100
0000
0100
0001
0000
,
0100
0000
0001
0100
1000
0100
0000
0000
1000
0000
0001
0100
0000
0100
1000
0000
,
0100
0000
0001
0000
0000
0000
0001
0000
0001
0000
0000
0000
0100
0010
0100
0000
,
0000
0000
0001
0000
0001
0000
0100
0000
1000
0000
0010
1000
0100
0000
1000
0000
,
0010
0000
0000
0000
0000
0000
0100
0001
0100
0000
0000
0000
0010
1000
0010
0000
,
0000
0000
0100
0001
0100
0000
0010
1000
0010
0000
0100
0001
0100
0010
1000
0000
,
0001
0100
0000
0100
1001
0000
0000
1001
,
0000
0000
0100
0000
1001
0000
0100
0001
0100
0000
0010
1000
0010
0000
0100
0001
,
0100
0000
0010
1000
0001
0100
0001
0000
1000
0010
0100
0001
0100
0000
0001
1000
,
0100
0000
1001
0000
0100
0000
1001
0000
0100
0000
0010
0001
0100
0010
1000
0000
,
0001
0000
1000
0100
0010
0100
1000
0000
0010
0001
1000
0100
0000
0001
0010
0000
,
0100
0000
0010
0100
1000
0100
0010
0000
0001
0000
0001
0100
0010
0100
1000
0001
,
0010
0000
1000
0100
0010
0100
1000
0000
0001
0000
1000
0100
0000
0100
1000
0000
,
0010
0001
0010
0000
1000
0000
1000
0000
0001
0000
0010
0001
0000
0100
0010
0000
,
0100
0000
1000
0100
0010
0100
1000
0000
0100
0000
1000
0100
0001
0100
1000
0000
,
0100
0000
0010
0100
1000
0100
0010
0000
0001
0000
0010
1000
0100
0010
0001
0000
,
1000
0000
1000
0100
0010
0100
1000
0000
0001
0000
0010
0100
1000
0100
0010
0001
,
1000
0001
0100
0010
1000
0100
0010
0100
0001
0000
0100
1000
0010
0100
0001
0000
,
1001
0000
1000
0100
0010
0100
1000
0000
0101
0000
0001
0100
1000
0100
0001
0000
,
1100
0000
0000
0000
0000
0000
0010
0000
0000
0100
0000
0000
1000
0000
0000
0100
0000
0000
0010
0000
0000
0001
0000
0000
0100
0000
0000
0000
0010
0000
0100
0000
0000
0001
0000
0000
0000
0000
0000
0100
0000
0000
0001
0000
0000
0000
0000
0000
,
1100
0000
0010
0100
1000
0100
0010
0001
0010
0000
0010
1000
0010
0001
0100
0000
,
1001
0000
0000
0000
0000
0000
0100
0000
0000
0010
0000
0000
0100
0000
0000
0000
0000
0000
0001
0000
0000
0100
0000
0000
0000
0000
0000
0000
0001
0000
1000
0000
0000
0000
0000
0000
0100
0000
0000
0010
0000
0000
0100
0000
0000
0000
0000
0000
,
1001
0000
0010
0100
1000
0100
0010
0000
0110
0000
0100
0001
0000
0100
0010
0000
,
1010
0000
0010
0100
0001
0100
0010
0001
0100
0000
1000
0100
0000
0100
0010
0000
,
1001
0000
0010
0100
1000
0100
0010
1000
0010
0000
0010
0100
0001
0100
1000
0000
,
0010
0000
0000
0001
0000
0000
0010
0000
0000
0000
0000
0000
1000
0000
0000
0000
0000
0000
0010
0000
0000
0001
0000
0000
0000
0000
0000
0000
0001
0000
0010
0000
0000
1000
0000
0000
0100
0000
0000
0010
0000
0000
0001
0000
0000
0000
0000
0000
,
1100
0000
0010
0001
0100
0001
0010
0000
0001
0000
0000
0100
0001
0100
0010
0000
,
0010
1000
0001
0010
0001
1000
0010
1000
0001
0010
0001
1000
0010
1000
0001
0000
,
1000
0000
0010
0100
0001
0100
0010
0000
0100
0000
1000
0100
0010
0100
1000
0001
,
0010
0001
1000
0100
1000
0100
0001
0010
0100
0000
0010
0100
0001
0100
1000
0000
,
0110
0000
1000
0100
0001
0100
1000
0000
0010
0000
1000
0100
0010
0100
1000
0000
,
1001
0000
0100
0001
0010
0001
0100
0000
1000
0000
0100
1000
0000
0100
1000
0000
,
0101
0000
0000
0010
1000
0000
0000
1000
,
0001
0000
0100
0000
1000
0000
0010
0000
0100
0100
0010
0010
0010
0000
1001
0000
,
0000
0000
0000
0000
,
0000
0000
0000
0000
,
0010
0000
0000
0000
;
