#TITLE:Disabled the FLAW;
#SUBTITLE:;
#ARTIST:D-Crew;
#TITLETRANSLIT:;
#SUBTITLETRANSLIT:;
#ARTISTTRANSLIT:;
#CREDIT:;
#BANNER:disabledtheflaw-banner.png;
#BACKGROUND:disabledtheflaw-bg.png;
#LYRICSPATH:;
#CDTITLE:cynic.png;
#MUSIC:30.Disabled the FLAW (LONG Version).mp3;
#OFFSET:-0.452;
#SAMPLESTART:36.506;
#SAMPLELENGTH:12.000;
#SELECTABLE:YES;
#BPMS:0.000=171.000,52.000=72.500,54.000=171.000,166.000=342.000,182.000=171.000,198.000=684.000,214.000=173.000,310.000=86.500,311.000=43.250,312.000=21.625;
#STOPS:166.000=0.088
,166.500=0.088
,167.000=0.088
,167.500=0.088
,168.000=0.088
,168.500=0.088
,169.000=0.088
,169.500=0.088
,170.500=0.088
,171.000=0.088
,171.500=0.088
,171.917=0.088
,171.930=0.088
,172.500=0.088
,173.000=0.088
,173.500=0.088
,174.000=0.088
,174.500=0.088
,175.000=0.088
,175.500=0.088
,176.000=0.088
,176.500=0.088
,177.000=0.088
,177.500=0.088
,178.000=0.088
,178.500=0.088
,179.000=0.088
,179.500=0.088
,180.000=0.088
,180.500=0.088
,181.000=0.088
,181.500=0.088
,198.000=0.132
,198.500=0.132
,199.000=0.132
,199.500=0.132
,200.000=0.132
,200.500=0.132
,201.000=0.132
,201.500=0.132
,202.000=0.132
,202.500=0.132
,203.000=0.132
,203.500=0.132
,204.000=0.132
,204.500=0.132
,205.000=0.132
,205.500=0.132
,206.000=0.132
,206.500=0.132
,207.000=0.132
,207.500=0.132
,208.000=0.132
,208.500=0.132
,209.000=0.132
,209.500=0.132
,210.000=0.132
,210.500=0.132
,211.000=0.132
,211.500=0.132
,212.000=0.132
,212.500=0.132
,213.000=0.132
,213.500=0.132
;
#BGCHANGES:;
// cache tags:
#FIRSTBEAT:4.000;
#LASTBEAT:312.000;
#SONGFILENAME:Songs/Essential Sim Collection/(Cynic) disabledtheflaw/disabledtheflaw.sm;
#HASMUSIC:1;
#HASBANNER:1;
#MUSICLENGTH:115.963;
// end cache tags

//---------------dance-single - ----------------
#NOTES:
     dance-single:
     :
     Hard:
     10:
     0.936,0.942,0.423,0.103,0.556,699.000,49.000,12.000,0.000,0.000:  // measure 1
0000
0000
0000
0000
,  // measure 2
0001
0000
0001
0000
0010
0100
1000
0010
,  // measure 3
0100
0000
0100
0000
0100
0000
0001
0010
0100
0000
1000
0000
0010
0000
1000
0000
,  // measure 4
0001
0000
0001
0000
1000
0010
1000
0010
1000
0010
1000
0000
0001
0000
0000
0000
,  // measure 5
1001
0100
1000
0010
1001
0100
0001
0010
,  // measure 6
1001
0000
0010
0000
0100
0001
0100
0001
0100
0001
0100
0000
0010
0000
1000
0000
,  // measure 7
1010
0100
0001
0010
1100
1000
0011
0001
,  // measure 8
0100
0000
0001
0000
1000
0010
1000
0010
1000
0010
1000
0000
0010
0000
0100
0000
,  // measure 9
0001
0000
1000
0000
0100
0010
0000
0001
0100
0001
1000
0000
0010
0100
0001
0000
,  // measure 10
0100
1000
0100
1000
0001
0010
0100
1000
0001
1000
0001
1000
0010
0100
0001
1000
,  // measure 11
0100
1000
0001
0010
0001
1000
0100
1000
0001
0010
0001
1000
0100
1000
0001
0100
,  // measure 12
0010
0000
0010
0000
1000
0000
0000
0001
1000
0100
0010
0001
1000
0000
0001
0000
,  // measure 13
0100
0000
0100
0000
0010
1000
0000
0001
1000
0001
0010
0100
1000
0000
0001
0000
,  // measure 14
1001
0000
0000
0000
0000
0100
0000
1000
0000
0010
0000
0100
0000
0000
0000
0000
0001
0000
0000
0000
0010
0000
0000
0000
0100
0000
0000
0000
1000
0000
0010
0000
,  // measure 15
1000
0000
0001
0000
0100
0000
0010
0000
0100
0000
0001
0000
1000
0000
0100
0010
,  // measure 16
0001
0000
0100
0000
0010
0000
0100
0000
0001
0000
0100
0000
0010
0000
1000
0001
,  // measure 17
0010
0000
0100
0000
0000
0000
1000
0000
0100
0000
0010
0000
0001
1000
0010
0100
,  // measure 18
0001
0100
1000
0000
0100
0001
0010
0000
1000
0000
0010
0000
0001
0000
0100
0010
,  // measure 19
1000
0000
0001
0000
1000
0010
0100
0000
0001
0000
0010
0000
0100
0000
1000
0010
,  // measure 20
0100
0000
0001
0000
0100
0001
0100
0000
0010
0000
1000
0000
0100
0010
0001
0100
,  // measure 21
0010
0000
1000
0000
0000
0000
0001
0000
0100
0010
0100
0000
0001
1000
0100
0000
,  // measure 22
0010
0001
1000
0010
0100
0001
1000
0000
0001
0000
0010
0000
0100
0000
1000
0010
,  // measure 23
1000
0000
0001
0000
0100
0000
0010
0000
0100
0000
0001
0000
1000
0000
0100
0010
,  // measure 24
0001
0000
0100
0000
0010
0000
0100
0000
0001
0000
0100
0000
0010
0000
1000
0001
,  // measure 25
0010
0000
0100
0000
0000
0000
1000
0000
0100
0000
0010
0000
0001
1000
0010
0100
,  // measure 26
0001
0100
1000
0000
0100
0001
0010
0000
1000
0000
0010
0000
0001
0000
0100
0010
,  // measure 27
1000
0000
0001
0000
1000
0010
0100
0000
0001
0000
0010
0000
0100
0000
1000
0010
,  // measure 28
0100
0000
0001
0000
0100
0001
0100
0000
0010
0000
1000
0000
0100
0010
0001
0100
,  // measure 29
0010
0000
1000
0000
0000
0000
0001
0000
0100
0010
0100
0000
0001
1000
0100
0000
,  // measure 30
0010
0001
1000
0010
0100
0001
1000
0000
0010
0000
0000
0100
0001
0000
1000
0000
,  // measure 31
0000
0000
0100
0000
0010
0001
0100
0000
0010
0000
0000
0100
0001
0000
1000
0000
,  // measure 32
0000
0000
0001
0000
0010
0100
1000
0000
0010
0000
0000
0100
0001
0000
1000
0000
,  // measure 33
0000
0000
0001
0000
0100
0010
0100
0000
0001
0000
0000
1000
0100
0000
0010
0000
,  // measure 34
0000
0001
0100
0000
0010
0100
0001
0000
0100
0000
0000
0010
1000
0000
0001
0000
,  // measure 35
0000
0000
0010
0000
0100
1000
0010
0000
0100
0000
0000
0001
0010
0000
0100
0000
,  // measure 36
0000
0000
1000
0000
0010
0100
0001
0000
0100
0000
0000
0010
1000
0000
0100
0000
,  // measure 37
0000
0000
0010
0000
0001
0100
0010
0000
1000
0000
0000
0100
0010
0000
0001
0000
,  // measure 38
0000
0100
0001
0000
0100
0010
1000
0000
0102
0000
1000
0000
0023
0000
0001
0000
,  // measure 39
0100
0032
0100
1000
0013
0001
0010
0100
,  // measure 40
1000
0010
0100
0001
2010
0001
3200
1000
,  // measure 41
0010
2300
0010
0001
3100
1000
0100
0010
,  // measure 42
0001
0100
0010
1000
0001
0100
0010
1000
,  // measure 43
0001
0100
0010
1000
0001
0100
0010
1000
,  // measure 44
0100
0010
0001
0100
0010
1000
0001
0100
,  // measure 45
0010
1000
0001
0100
0010
1000
0001
0100
,  // measure 46
0010
1000
0001
0010
0001
0010
0100
1000
,  // measure 47
0001
0010
0100
1000
0001
0010
0100
1000
,  // measure 48
0010
0100
0001
0010
0100
1000
0010
1000
,  // measure 49
0010
0100
0001
1000
0010
0100
0001
1000
,  // measure 50
0010
0100
0001
1000
0100
0001
0100
1000
,  // measure 51
0100
0001
0100
1000
0100
0010
0001
0100
,  // measure 52
0010
1000
0100
0010
0001
0010
1000
0010
,  // measure 53
0001
0010
1000
0010
0001
0010
0100
1000
,  // measure 54
0010
0100
0001
1000
0001
0001
0000
2020
,  // measure 55
0000
0000
0000
3030
0000
1010
0000
1010
,  // measure 56
0000
0010
0100
0001
1000
1000
0000
0022
,  // measure 57
0000
0000
0000
0000
0000
0000
0033
0000
0001
0000
0001
0000
0001
0000
0000
0010
,  // measure 58
0100
0000
1000
0001
0100
0000
0010
0000
1010
0000
1000
0000
0010
0000
0100
0000
,  // measure 59
0001
1000
0001
0010
0011
0001
0001
0010
,  // measure 60
0100
1100
0101
1100
1010
1100
0100
1000
,  // measure 61
0010
0100
0001
1000
0001
0101
0100
0010
,  // measure 62
1000
1010
0011
0101
0011
0001
0010
0100
,  // measure 63
1000
0010
0100
0001
0101
0100
0010
1000
,  // measure 64
1100
1010
0011
1010
1100
0100
1000
0010
,  // measure 65
0100
0001
1000
0001
0011
0010
0100
1000
,  // measure 66
1100
1010
0011
0101
0011
0010
0001
0100
,  // measure 67
0010
1000
0100
0010
0011
0001
0100
0010
,  // measure 68
1010
1100
1010
0011
1010
0010
1000
0010
,  // measure 69
0100
0001
0010
0001
0101
0100
0010
1000
,  // measure 70
1010
0000
0011
0000
0101
0000
1100
0000
0100
0000
1000
0010
0100
0000
0001
0000
,  // measure 71
0100
0010
1000
0100
0010
0000
0001
0100
0010
0000
1000
0001
1000
0000
0001
0000
,  // measure 72
1000
0001
0010
0100
1000
0000
0001
0100
0010
0000
1000
0001
0010
0000
0100
0000
,  // measure 73
1000
0001
1000
0010
0100
0000
0001
1000
0001
0000
0010
0100
1000
0000
0100
0000
,  // measure 74
0010
0001
1000
0100
0010
0000
0001
0100
0010
0000
1000
0001
0100
0000
0010
0000
,  // measure 75
1000
0100
0010
0001
0100
0000
0010
1000
0001
0000
0010
0100
0010
0000
0001
0000
,  // measure 76
0010
0100
1000
0001
0100
0000
0010
1000
0001
0000
0100
0010
1000
0000
0001
0000
,  // measure 77
0010
0100
1000
0001
0100
0000
0010
1000
0001
0000
0010
0100
1000
0000
0010
0000
,  // measure 78
1000
0100
1000
0010
0100
0000
0001
0010
2002
0000
0000
0000
0000
0000
0000
0000
,  // measure 79
3003
0000
0000
0000
;
