#TITLE:Hyrule Field (Orchestral Ver.);
#SUBTITLE:Legend of Zelda Twilight Princess;
#ARTIST:近藤浩治;
#TITLETRANSLIT:;
#SUBTITLETRANSLIT:;
#ARTISTTRANSLIT:Koji Kondo;
#CREDIT:;
#BANNER:Hyrule Field (Orchestral Ver.).png;
#BACKGROUND:Hyrule Field (Orchestral Ver.)-bg.png;
#LYRICSPATH:;
#CDTITLE:!danceguyTitle.png;
#MUSIC:Hyrule Field (Orchestral Ver.).mp3;
#OFFSET:0.497;
#SAMPLESTART:34.483;
#SAMPLELENGTH:12.000;
#SELECTABLE:YES;
#BPMS:0.000=142.950;
#STOPS:;
#BGCHANGES:;
// cache tags:
#FIRSTBEAT:2.500;
#LASTBEAT:171.000;
#SONGFILENAME:Songs/VGMP 2/Hyrule Field (dAnceguy117)/Hyrule Field (Orchestral Ver.).sm;
#HASMUSIC:1;
#HASBANNER:1;
#MUSICLENGTH:84.349;
// end cache tags

//---------------dance-single - Heavy----------------
#NOTES:
     dance-single:
     Heavy:
     Hard:
     11:
     0.862,0.887,1.000,0.000,0.605,403.000,106.000,0.000,0.000,0.000:
0000
0000
0000
0000
0000
0000
0000
0000
0000
0000
0000
0000
0000
0000
0000
0010
1000
0001
0100
0000
0000
0000
0000
0000
,
0100
0000
0000
1000
0000
0000
0001
0000
0000
0010
0000
0000
1001
0000
0000
0000
0000
0000
0000
0000
0000
0000
0000
0000
0000
0000
0000
0000
0000
0000
0000
0000
0001
0000
1000
0000
0100
0000
0000
0000
0000
0000
0000
0000
0000
0000
0000
0000
,
0100
1000
0001
0010
1001
0000
0000
0000
0000
0000
0000
0000
0100
0000
0011
0000
,
0000
0000
1010
0001
1000
0000
0110
0000
0001
0010
0101
1000
0011
0000
0011
0000
,
0000
0000
1010
0001
1000
0000
0110
0000
1000
0010
1100
0001
1100
0000
1000
0000
,
0010
1000
0001
1000
0100
1000
1001
0001
,
0000
0000
0100
0010
0001
0000
1000
0000
0000
0001
0000
0000
0000
0000
0000
0001
0000
0000
0110
0000
0000
0010
0000
0000
,
1000
0010
0001
0010
0100
0010
1001
0001
,
0000
0000
0001
0010
1000
0000
0010
0000
0000
0001
0000
0000
0000
0000
0000
0001
0000
0000
1001
0000
0000
1000
0000
0000
,
0000
1000
0000
1000
0000
1000
1010
0010
,
0100
0010
0001
0010
1000
0010
0101
0001
,
0000
0000
0000
0001
0000
0000
0000
0000
0000
0001
0000
0000
0000
0000
0001
0100
1000
0000
1100
0000
0000
1000
0000
0000
,
0001
0010
0101
1000
0010
0100
1010
0001
1000
0100
0011
0001
1001
0000
1000
0000
,
0010
1000
0001
1000
0100
1000
1001
0001
,
0000
0000
0101
0010
1001
0000
0001
0000
0000
0000
1001
0010
1100
0000
0100
0000
,
0010
0100
0001
0100
1000
0100
0110
0010
,
0000
0000
0000
0000
1000
0000
0010
0000
0100
0000
0000
0000
0001
0000
0000
0000
0000
0000
0010
0000
0000
0000
0000
0000
0000
0000
0000
0000
0000
0000
1010
0000
0000
0100
0000
0000
1001
0000
0000
0000
0000
0000
0100
0000
0000
0000
0000
0000
,
0001
0100
0010
0100
0011
0100
1010
1000
,
0101
1000
0010
1000
0100
1000
0101
0010
,
0100
0010
0001
0010
0101
0010
1001
0100
,
1100
0000
0100
0000
0001
0000
0100
0000
1000
0000
0100
0000
1001
0000
1010
0100
,
1001
0000
1100
0010
0101
0000
0011
1000
0101
0010
0101
1000
0011
0000
0101
1000
,
0110
0000
0010
0000
1000
0000
0100
0000
1000
0000
0001
0000
0110
0000
1100
0001
,
1010
0000
0011
0100
1001
0000
0101
0010
1001
0100
0011
1000
0110
0000
0101
1000
,
0011
0000
1000
0000
0001
0000
1000
0000
0100
0000
1001
0100
1010
0000
1001
0000
,
0000
0000
0011
1000
0001
0000
0110
0000
0001
0010
1100
0001
1010
0000
0110
0000
,
0000
0000
0000
0000
0000
0000
0101
0000
0000
1000
0000
0000
0010
0000
0000
0000
0000
0000
1000
0000
0100
0000
0000
0000
0000
0000
0000
0000
0001
0000
1000
0000
0000
0000
0000
0000
1001
0000
0000
0000
0000
0000
0001
0000
0000
0100
0000
0000
,
0010
0000
1000
0001
1100
0000
0001
1000
0011
0000
0100
0010
1001
0000
1000
0010
,
0100
0000
0000
0000
0000
0000
0001
0000
0000
1000
0000
0000
0100
0000
0000
0000
0000
0000
0000
0000
0001
0000
0000
0000
0000
0000
0000
0000
0010
0000
0000
0000
0000
0000
0000
0000
1010
0000
0000
0000
0000
0000
0010
0000
0000
0001
0000
0000
,
1000
0000
0010
0100
0001
0000
1000
0100
0010
0000
0011
1000
0101
0000
0010
0100
,
1000
0000
0001
0100
0010
0000
1000
0001
0100
0000
0010
0100
1001
0000
1000
0100
,
0010
0000
0001
1000
0101
0000
1000
0001
0110
0000
0001
1000
0011
0000
0100
0001
,
1000
0000
0100
0010
0001
0000
0010
0001
1010
0000
0001
0100
1010
0000
0001
1000
,
0100
0000
0010
0100
1000
0000
0001
0100
0010
0000
0101
0010
1001
0000
0100
0001
,
1000
0000
0000
0000
0010
0000
1000
0000
0100
0000
0000
0000
0100
0000
0001
0000
1000
0100
0010
0001
1000
0100
0010
0001
1100
0000
0000
0000
0100
0000
0000
0000
,
0010
0100
1001
0010
0100
0001
1010
1000
,
0000
0000
0000
1000
0000
0000
0010
0000
0000
0100
0001
0000
0000
0000
0100
0010
0000
0000
1001
0000
0000
0001
0000
0000
,
0010
0000
0000
0001
0000
0000
1000
0000
0000
0010
1000
0000
0100
0000
0010
0001
0000
0000
1001
0000
0000
1000
0000
0000
,
0000
0000
1000
0000
0001
0010
0101
1000
0010
0100
0011
1000
0110
0000
1010
0000
,
0100
0000
0010
0000
1000
0000
1001
0000
0010
1000
0101
0010
1001
0000
1010
0000
,
0000
1000
0010
1010
0000
1000
0101
0011
,
1000
0000
0001
0000
1000
0000
1001
0000
0100
0001
1010
0100
0011
0000
0101
0000
,
0000
0000
0000
0000
0001
0000
0000
0000
0100
0000
0000
0000
0101
0000
0000
0000
0000
0000
0000
0000
0100
1000
0001
0010
1001
0000
0000
0000
0000
0000
0000
0000
;
