#TITLE:Haunted;
#SUBTITLE:;
#ARTIST:Evanescence;
#TITLETRANSLIT:;
#SUBTITLETRANSLIT:;
#ARTISTTRANSLIT:;
#CREDIT:minhtam2448;
#BANNER:banner.png;
#BACKGROUND:bg.png;
#LYRICSPATH:Whisper.lrc;
#CDTITLE:cdtitle.png;
#MUSIC:Haunted.mp3;
#OFFSET:-3.120;
#SAMPLESTART:55.560;
#SAMPLELENGTH:11.180;
#SELECTABLE:YES;
#BPMS:0.000=38.880,8.000=77.760,56.000=19.440,57.000=155.520,121.000=38.880,129.000=77.760,159.000=155.520,224.000=77.760,256.000=155.520,320.000=77.759;
#STOPS:159.000=1.220
;
#BGCHANGES:;
// cache tags:
#FIRSTBEAT:0.000;
#LASTBEAT:322.500;
#SONGFILENAME:Songs/dragon force/haunted/Haunted.sm;
#HASMUSIC:1;
#HASBANNER:1;
#MUSICLENGTH:196.370;
// end cache tags

//---------------dance-single - ----------------
#NOTES:
     dance-single:
     :
     Hard:
     8:
     0.506,0.719,0.484,0.199,0.115,561.000,95.000,39.000,0.000,0.000:
1000
0100
0010
0001
1000
0100
0010
0001
1000
0010
0100
0001
1000
0010
0100
0001
,
0001
0010
0100
1000
0001
0010
0100
1000
0001
0100
0010
1000
0001
0100
0010
1000
,
2100
0100
0100
0100
0010
0010
0010
3010
,
0102
0100
0100
0100
0010
0010
0010
0013
,
2010
0010
0010
0010
0100
0100
0100
3100
,
0012
0010
0010
0010
0100
0100
0100
0103
,
0210
1000
0010
0001
0010
1000
0010
0301
,
0120
1000
0100
0001
0100
1000
0100
0031
,
2100
0010
0001
0100
0010
0001
0100
3010
,
1002
0100
0010
1000
0100
0010
1003
0100
,
0020
0100
0100
0130
2000
0001
3001
0220
,
0330
2002
3003
0220
0330
2002
3003
0100
,
0020
2000
0000
0000
0000
3030
0100
0200
,
0010
1000
0001
1300
,
0220
0330
1000
0001
1000
0001
1000
0000
,
0100
0010
0000
0001
1000
0000
1001
0000
,
0110
0000
0001
0100
0001
0100
0001
0000
,
0100
0010
0000
1000
0001
0000
1001
0000
,
0110
0000
0010
0100
0010
0100
0010
0000
,
1000
0100
0000
0010
0001
0000
1001
0000
,
0001
0100
0010
0000
1000
0100
0010
0000
,
0001
0010
0100
0000
1000
0010
0100
0000
,
0001
0010
0100
0010
0100
0010
0100
0000
,
1000
0100
0000
0010
0001
0000
1100
0000
,
0011
0000
0100
0010
0100
0010
0100
0000
,
0001
0100
0000
0010
1000
0000
1010
0000
,
0101
0000
1000
0001
1000
0001
1000
0000
,
0010
0100
0000
0100
0010
0000
1001
0000
,
0001
1000
0100
0000
1000
0001
0100
0000
,
0001
1000
0100
0000
1000
0001
0100
0000
,
0100
0000
0010
0000
1001
0100
0010
0001
0100
0010
1000
0100
1001
0100
0010
1000
,
0100
0010
0001
0100
1001
0010
1000
0100
0010
0001
0100
0010
1001
0010
0001
0100
,
0010
1000
0100
0010
2001
0000
0100
0000
0100
0000
0100
0000
0001
0000
0010
0000
,
0010
3010
1002
0100
0100
0100
1000
0010
,
0010
0013
0200
1000
1000
1000
0010
0001
,
0001
0301
0020
1000
1000
1000
0100
0001
,
0001
0031
2100
0010
0100
0010
0100
0001
,
0100
3001
0102
0010
0100
0010
0100
1000
,
0100
1003
0200
1000
0010
0001
0010
1000
,
0010
0301
0020
1000
0100
0001
0130
0000
,
0010
1000
0010
1000
0010
0000
0100
0001
,
0000
1000
0100
0000
0110
0000
1100
0000
,
0010
0001
0010
0001
0010
0000
0100
1000
,
0000
0001
0100
0000
0110
0000
0101
0000
,
1000
0001
1000
0001
1000
0000
0001
0010
,
0000
1000
0100
0000
0110
0000
0100
1000
,
0010
0000
0100
0001
0010
0000
0100
1000
,
0001
0000
0010
0001
0100
0000
0010
1000
,
0100
1000
0100
1000
0100
0000
1000
0001
,
0000
0100
0010
0000
1100
0000
0011
0000
,
0100
0001
0100
0001
0100
0000
0001
1000
,
0000
0100
0010
0000
0101
0000
1010
0000
,
1000
0001
1000
0001
1000
0000
0010
0100
,
0000
1000
0001
0000
1001
0000
0110
0000
,
1000
1000
2000
0000
3100
0100
0200
0000
,
0301
0001
0002
0000
0013
0010
0020
0030
,
1001
0000
0110
0000
1001
0000
0010
1000
0000
0100
0001
0000
0101
0000
1100
0000
,
0011
0000
1100
0000
0011
0000
0010
0001
0000
0100
1000
0000
1100
0000
0101
0000
,
1010
0000
0101
0000
1010
0000
0010
1000
0000
1000
0100
0000
1001
0000
0110
0000
,
2001
3001
0210
0310
1002
1003
0120
0130
,
1001
0000
1100
0000
0011
0000
1000
0100
0000
0010
0001
0000
1100
0000
0011
0000
,
0101
0000
1010
0000
0101
0000
0010
1000
0000
0001
0100
0000
1010
0000
0101
0000
,
0110
0000
1001
0000
0110
0000
0001
1000
0000
1000
0001
0000
0110
0000
1001
0000
,
1100
0110
0011
1001
0101
0110
1010
1001
,
0010
0100
0010
0100
0010
0000
0001
0010
,
0000
0100
1000
0000
0110
0000
1001
0000
,
0100
0010
0100
0010
0100
0000
0010
1000
,
0000
0001
0100
0000
0110
0000
1001
0000
,
0001
1000
0001
1000
0001
0000
0010
0100
,
0000
0100
0010
0000
1001
0000
0010
1000
,
0010
0000
0010
0001
0010
0000
0001
1000
,
0001
0000
1000
0001
1000
0000
0100
0100
,
0100
0010
0100
0010
0100
0000
1000
0010
,
0000
0100
0001
0000
0011
0000
0101
0000
,
0010
0100
0010
0100
0010
0000
0001
0010
,
0000
0100
1000
0000
1010
0000
1100
0000
,
0010
0001
0010
0001
0010
0000
0100
1000
,
0000
1000
0100
0000
1001
0000
0100
1000
,
0001
0000
0100
0001
1000
0000
1000
0001
,
1000
0000
0001
1000
0001
0000
0100
0010
,
0100
0000
0100
0000
0100
0000
0100
0010
0000
0000
1001
0000
0000
0000
0000
0000
;
