#TITLE:zelda termina feild;
#SUBTITLE:;
#ARTIST:近藤浩治;
#TITLETRANSLIT:;
#SUBTITLETRANSLIT:;
#ARTISTTRANSLIT:koji kondo;
#CREDIT:;
#BANNER:zelda_majoras_mask_n64_palmasoft[1].jpg;
#BACKGROUND:Legend%20of%20Zelda%202,%20The%20-%20Majoras%20Mask%20(E)[1].jpg;
#LYRICSPATH:;
#CDTITLE:IS.png;
#MUSIC:134_-_termina_field.mp3;
#OFFSET:0.000;
#SAMPLESTART:41.334;
#SAMPLELENGTH:12.000;
#SELECTABLE:YES;
#BPMS:0.000=145.160;
#STOPS:;
#BGCHANGES:;
// cache tags:
#FIRSTBEAT:5.000;
#LASTBEAT:209.500;
#SONGFILENAME:Songs/newbie/zelda termina field/termina field.sm;
#HASMUSIC:1;
#HASBANNER:1;
#MUSICLENGTH:91.820;
// end cache tags

//---------------dance-single - ----------------
#NOTES:
     dance-single:
     :
     Easy:
     4:
     0.300,0.308,0.131,0.044,0.011,177.000,12.000,4.000,0.000,1.000:
0000
0000
0000
0000
,
0000
2002
0000
0000
,
3113
0000
0000
0000
0000
0000
0000
0000
0000
0001
0000
0000
0000
0000
1000
0000
0000
0000
0000
0000
0000
0000
0000
0000
,
0000
0000
0000
0000
,
0000
0000
1000
0000
0000
0000
0000
0010
,
0000
1000
0001
0000
,
0000
0000
0000
0000
,
0000
2000
0000
0000
0000
0000
0000
0000
,
0000
0000
0000
0000
0000
0000
3000
0002
0000
0000
0000
0000
0000
0000
0000
0000
,
0000
0000
0000
0000
,
0000
0003
0000
1000
0000
0000
0000
1000
,
0000
0001
0000
1000
0000
0000
0000
1000
,
0000
0001
0000
1000
0000
0000
0000
1000
,
0000
0001
0000
1000
0000
0000
0000
1000
,
0000
0001
0000
0100
0000
0010
0000
0000
,
1000
0001
0100
0010
0000
0000
0000
0000
,
1000
0001
0100
0010
0000
0000
0000
0000
,
1000
0100
0010
0001
1000
0010
0000
0000
,
0000
0100
0000
0001
0000
1000
0000
0000
,
0000
0010
0100
0001
0000
1000
0000
0000
,
0000
0010
0100
0001
0000
1000
0000
0000
,
0000
0100
0000
0010
1000
0001
0100
0010
,
1000
0001
0100
0010
0000
1000
0000
0000
,
0001
0100
0010
1000
0000
0000
0000
0000
,
0100
0010
1000
0001
0000
0000
0000
0000
,
0000
1001
0000
0110
0000
0110
0000
0000
,
0000
1000
0000
0100
0000
0001
0000
1000
,
0000
0010
0000
0100
0000
1000
0000
0000
,
0000
0100
0000
0010
0000
0001
0000
1000
,
0000
0100
0000
0010
0000
0010
0000
0000
,
0000
1000
0000
0001
0000
0100
0000
0100
,
0000
0010
0000
1000
0000
0001
0000
0110
,
0000
0001
0000
1000
0000
0110
0000
0000
,
0000
0001
0000
1000
0010
0100
0001
1000
,
0010
0100
0001
1000
0000
0001
0000
0000
,
0100
0010
1000
0001
0000
0000
0000
0000
,
1000
0001
0100
0010
0000
0000
0000
0000
,
1000
0001
0100
0010
0000
1001
0000
0000
,
0000
0100
0000
0010
1000
0001
0000
0000
,
0000
1000
0010
0100
0001
1000
0000
0000
,
0000
0010
0100
0001
1000
0010
0000
0100
,
0001
1000
0000
0010
0100
0001
0000
0000
,
0000
0000
0000
1000
0010
0001
0000
1000
,
0110
0001
0000
1000
0110
0001
0000
0000
,
0000
0000
0000
1000
0000
0010
0000
0100
,
0000
0001
0000
1000
0000
0010
0000
0100
,
0000
0001
0000
1000
0000
0010
0000
0100
,
0000
0001
0000
1000
0000
0010
0000
0100
,
0000
0001
0000
1010
0000
0001
0000
0001
,
0000
0001
0000
0110
0000
1000
0000
1000
,
0000
1000
0000
0100
0000
0000
0000
0010
,
0000
1000
0000
0001
0000
0000
0000
0000
;

//---------------dance-single - ----------------
#NOTES:
     dance-single:
     :
     Medium:
     7:
     0.433,0.485,0.708,0.000,0.109,213.000,65.000,0.000,0.000,0.000:
0000
0000
0000
0000
,
0000
0000
0000
0000
,
1000
0000
0000
0000
0000
0000
0001
0000
0000
0100
0000
0000
0000
0000
0000
0000
,
0000
0010
0000
0000
1000
0000
0000
0001
0000
0000
0100
0000
0010
0000
0000
0000
,
0000
1000
0000
0000
0001
0000
0000
0000
0000
0000
0000
0000
0000
0000
0000
0100
,
0000
0000
0000
0000
0000
0010
0000
0000
1000
0000
0000
0000
0000
0000
0000
0000
,
0001
0000
0000
0000
0000
0000
0000
0000
0100
0000
0000
0000
0010
0000
0000
1000
,
0000
0001
0000
0000
0000
0000
0000
0000
,
0000
0000
0000
0000
0000
0000
0000
1000
0000
0000
0000
0000
0000
0000
0000
0000
,
0000
0000
0000
0000
,
0000
0000
0000
0000
0000
1001
0000
0000
0000
0000
0000
0000
0000
1001
0000
0000
,
0000
0110
0000
0000
0000
1001
0000
0000
0000
0000
0000
0000
0000
1001
0000
0000
,
0000
0110
0000
0000
0000
1001
0000
0000
0000
0000
0000
0000
0000
1001
0000
0000
,
0000
0110
0000
0000
0000
1001
0000
0000
0000
0000
0000
0000
0000
1001
0000
0000
,
0000
0110
0000
0000
0000
0000
1000
0000
0000
0000
0100
0000
0000
0000
0000
0000
,
0010
1000
0001
0100
0000
0000
0000
0000
,
1001
0010
0100
0001
0000
0000
0000
0000
,
0000
1000
0100
0010
0001
1000
0000
0000
,
0000
0110
0000
1001
0100
0010
0000
0000
,
0000
1000
0100
0010
0001
0010
0000
0000
,
0000
0101
0010
1000
0100
0010
0000
0000
,
0000
1010
0000
0100
0001
1000
0010
0100
,
0001
1000
0001
0110
0000
1001
0000
0000
,
0010
0100
0001
1000
0000
0110
0000
1001
,
0010
0100
0001
1000
0000
0110
0000
1001
,
0000
0001
0000
0100
0000
1010
0000
0000
,
0000
0100
0000
1010
0001
0100
0010
1000
,
0000
0101
0000
1010
0000
0101
0000
0000
,
0000
1000
0000
0110
1001
0010
0100
0001
,
0000
1010
0000
0001
0000
0100
0000
0000
,
0000
0001
0000
0100
0010
1000
0000
0001
,
0000
0100
0000
0010
0000
1000
0000
0000
,
0000
0100
0000
0010
1000
0001
0000
0100
,
0000
1010
0000
0101
1010
0101
1010
0100
,
0001
0100
0010
1000
0000
0000
0000
0100
,
0001
1000
0010
0100
0000
0001
1000
0100
,
0000
0010
1000
0001
0000
0000
0000
0000
,
0000
1000
0001
0100
0000
1010
0000
0101
,
0000
0010
0000
1000
0001
0100
0000
1010
,
0001
0100
0010
1000
0001
0100
0000
1010
,
0000
0001
0100
0010
1000
0001
0000
0100
,
0010
1000
0000
0001
0100
0010
0000
0000
,
0000
0000
0000
1010
0001
0100
0000
1010
,
0001
0100
0000
0101
0010
1000
0000
0000
,
0000
0000
0000
0110
0001
1000
0000
0011
,
0000
1100
0000
0011
0000
1100
0000
0011
,
0000
1100
0000
0011
0000
1100
0000
0110
,
0000
1001
0000
0110
0000
1001
0000
0110
,
0000
1001
0000
0011
0000
0100
0000
0100
,
0000
0100
0000
1100
0000
0001
0000
0001
,
0000
0001
0000
0110
0001
1000
0010
0100
,
0000
1001
0000
1001
0010
0100
0001
1000
,
0000
0110
0000
1001
0000
0000
0000
0000
;
