#TITLE:Tokyo Style Speedcore [400bpm];
#SUBTITLE:Keyboard ONLY!;
#ARTIST:M1DY;
#TITLETRANSLIT:;
#SUBTITLETRANSLIT:;
#ARTISTTRANSLIT:;
#CREDIT:This DWI is made by ObliVioN;
#BANNER:tokyospeed.png;
#BACKGROUND:tokyospeed-bg.png;
#LYRICSPATH:;
#CDTITLE:;
#MUSIC:TokyoSpeedcore.mp3;
#OFFSET:0.000;
#SAMPLESTART:16.918;
#SAMPLELENGTH:12.000;
#SELECTABLE:YES;
#BPMS:0.000=400.000;
#STOPS:;
#BGCHANGES:;
// cache tags:
#FIRSTBEAT:33.000;
#LASTBEAT:298.500;
#SONGFILENAME:Songs/IzzySM Keyboard Mega Pack/Tokyo_Style_Speedcore/steps.sm;
#HASMUSIC:1;
#HASBANNER:1;
#MUSICLENGTH:45.252;
// end cache tags

//---------------dance-single - TGB Pressen liksom----------------
#NOTES:
     dance-single:
     TGB Pressen liksom:
     Hard:
     12:
     0.969,1.000,0.110,0.221,0.199,290.000,5.000,10.000,0.000,3.000:
0000
0000
0000
0000
,
0000
0000
0000
0000
,
0000
0000
0000
0000
,
0000
0000
0000
0000
,
0000
0000
0000
0000
,
0000
0000
0000
0000
,
0000
0000
0000
0000
,
0000
0000
0000
0000
,
0000
0200
0000
0000
,
0000
0000
0000
0000
,
0000
0000
0000
0000
,
0000
0000
0000
0000
,
0000
2000
0000
0000
,
0000
0000
0000
0000
,
0000
0000
0000
0000
,
0000
0000
0000
0000
,
0000
0002
0000
0000
,
0000
0000
0000
0000
,
0000
0000
0000
0000
,
0000
0000
0000
0000
,
0000
0020
0000
0000
,
0000
0000
0000
0000
,
0000
3333
0000
0000
,
0000
0000
0000
0000
1000
0001
0100
0010
1000
0001
0100
0010
1000
0001
0100
0010
,
1000
0001
0100
0010
1000
0001
0100
0010
0200
0000
0000
0000
0000
0000
0000
0000
,
0000
0000
0000
0000
,
0020
0000
0000
0000
,
0000
0000
0000
0000
,
0000
0000
0330
1000
0100
0010
0001
1000
,
0100
0010
0001
1000
0100
0010
0001
1000
,
0100
0010
0001
1000
0100
0010
0001
1000
,
0100
0010
0001
1000
0100
0010
0001
1000
,
0100
0010
0001
0001
0010
0100
1000
0001
,
0010
0100
1000
0001
0010
0100
1000
0001
,
0010
0100
1000
0001
0010
0100
1000
0001
,
0010
0100
1000
0001
0010
0100
1000
0001
,
0010
0100
1000
0100
0010
1000
0001
0100
,
0010
1000
0100
0010
0001
0010
0001
1000
,
0100
0001
0100
0010
1000
0001
0100
0010
,
0001
1000
0001
0100
0010
1000
0001
0010
,
0100
0001
1000
0100
0001
1000
0100
0010
,
0001
0010
1000
0100
1000
0010
1000
0001
,
0100
0010
1000
0001
0100
0000
1001
0000
,
0110
1001
0110
1000
,
0001
1000
0100
0010
,
1000
0001
0100
0001
,
0100
0001
1000
0001
,
0100
0001
1000
0100
,
0001
1000
0001
0100
,
0010
1000
0001
0010
,
0001
1000
0100
0001
,
1000
0100
0001
0100
,
0010
1000
0001
0100
,
0001
0100
0001
1000
,
0100
0001
1000
0001
,
0100
0001
1000
0100
,
0001
1000
0010
0100
,
0001
1000
0100
0001
,
0100
0001
1000
0100
,
0001
0000
0000
0000
1000
0000
0000
0000
0001
0000
0000
0000
1000
0100
0010
1000
,
0001
0100
1000
0001
0100
0001
1000
0010
0001
1000
0010
0100
0010
0000
0100
0000
,
0010
1000
0100
0001
0010
0001
0100
1000
,
0100
1000
0100
0001
0100
0010
1000
0001
,
1000
0100
0001
1000
0001
0100
0010
1000
,
0001
0100
0010
1000
0001
0100
0010
1000
,
0001
0100
0010
1000
0001
0100
0010
1000
,
0001
0100
0010
0001
0100
0001
1000
0100
,
0001
0100
0010
0001
0100
1000
0001
0100
,
0001
1000
0000
0010
,
0000
0000
0000
0100
0000
0000
0000
0000
,
0000
0010
0000
0000
0000
0000
0000
0000
,
0100
0000
0000
0000
0000
0000
0000
1000
,
0000
0000
0000
0000
0000
0000
0000
2222
,
0000
0000
0000
0000
,
0000
0000
0000
0000
0000
3333
0000
0000
;
