#TITLE:Speedfreak D.J.;
#SUBTITLE:-St2. Edition-;
#ARTIST:T2;
#TITLETRANSLIT:;
#SUBTITLETRANSLIT:;
#ARTISTTRANSLIT:;
#CREDIT:;
#BANNER:sfdj_st2-bn.png;
#BACKGROUND:sfdj_st2-bg.png;
#LYRICSPATH:;
#CDTITLE:!Linus.png;
#MUSIC:sfdj_st2.mp3;
#OFFSET:-0.715;
#SAMPLESTART:77.560;
#SAMPLELENGTH:12.000;
#SELECTABLE:YES;
#BPMS:0.000=180.960;
#STOPS:;
#BGCHANGES:;
// cache tags:
#FIRSTBEAT:8.000;
#LASTBEAT:328.000;
#SONGFILENAME:Songs/Fresh Flock of Fantastic Files F4/(Linus) Speedfreak D.J/sfdj_st2.sm;
#HASMUSIC:1;
#HASBANNER:1;
#MUSICLENGTH:122.096;
// end cache tags

//---------------dance-single - ----------------
#NOTES:
     dance-single:
     :
     Challenge:
     12:
     1.000,1.000,1.000,0.123,0.905,825.000,145.000,15.000,0.000,0.000:
0000
0000
0000
0000
,
0000
0000
0000
0000
,
1000
0001
1000
0010
0100
0010
0100
0000
1010
0000
0100
0000
1001
0000
0010
0000
,
1000
0001
0010
1000
0001
1000
0001
0000
0110
0000
1000
0000
0101
0000
0010
0000
,
1000
0001
1000
0010
0001
1000
0100
0000
0011
0000
0100
0000
1010
0000
0001
0000
,
0010
0100
0001
0010
0100
1000
0010
0001
1000
0100
1000
0001
0010
0100
1000
0010
,
1000
0001
1000
0100
0010
0100
0010
0000
1010
0000
0100
0000
1001
0000
0010
0000
,
1000
0001
0010
1000
0001
1000
0001
0000
0110
0000
1000
0000
0101
0000
0010
0000
,
1000
0001
1000
0010
0001
1000
0100
0000
0011
0000
0100
0000
1010
0000
0001
0000
,
0010
0001
0010
0100
1000
0000
1000
0010
1000
0100
1000
0001
0010
0100
1000
0010
,
1000
0100
1001
0100
1000
0100
1001
0100
,
1000
0100
1001
0100
1000
0010
1001
0001
,
0001
0010
1001
0010
0001
0010
1001
0010
,
0001
0010
1001
0010
0001
0100
1001
1000
,
1000
0100
1001
0100
1000
0100
1001
0100
,
1000
0100
1001
0100
1000
0010
1001
0001
,
0001
0010
1001
0010
0001
0010
1001
0010
,
0001
0010
1001
0010
0001
0100
1001
1000
,
0001
1000
0001
1100
0011
1000
0001
0011
,
1100
1010
0110
0101
0011
1000
0001
1100
,
0001
1100
1100
1100
0101
1100
1100
1100
,
1010
1010
1010
1010
1001
1000
0010
1000
,
1100
1000
0010
1000
0011
1000
0010
1000
,
0011
0000
0000
1000
0001
0000
0010
0000
0100
1000
0000
0000
0110
0000
0000
1000
0000
0000
0100
0000
0000
1000
0000
0000
,
1100
1100
1010
1010
0110
0110
0101
0101
,
0011
0011
0011
1001
0000
0000
0100
0000
,
1001
0010
1000
0010
1001
0010
1000
0010
,
1010
0101
1010
0110
1000
0100
1000
0110
,
1000
0101
1010
0110
1001
0011
1010
0110
,
1100
1100
0011
0110
1000
0001
1000
0100
,
1001
0010
1000
0010
1001
0010
1000
0010
,
1100
0000
0000
0010
0100
0000
1000
0000
0100
0010
0000
0000
1001
0000
0000
0100
0000
0000
1000
0000
0000
0001
0000
0000
,
1100
1100
1010
1010
0110
0110
0101
0101
,
0011
0000
0011
0000
0100
0000
1001
0000
0100
0010
0100
0010
0100
0010
0100
0010
,
1000
0000
0010
0001
0100
0000
0001
0000
0100
0000
0001
0010
1000
0000
0100
0000
,
0010
0000
0001
1000
0100
0000
0010
0000
1000
0000
0001
0100
0010
0000
0001
0000
,
1000
0000
0010
0001
0100
0000
0001
0000
1000
0000
0001
0010
0100
0000
0010
0000
,
1000
0000
0100
0001
0010
0000
0001
0000
0100
0000
1000
0001
0100
0000
0010
0000
,
1000
0000
0001
0001
0100
0000
0010
0000
1000
0000
0010
0010
0100
0000
0001
0000
,
1000
0000
0100
0100
0010
0000
0001
0000
0010
0000
1000
1000
0001
0000
0100
0000
,
1000
0000
0001
0100
0001
0000
1000
0010
1000
0000
0100
0010
0100
0000
0010
0100
,
0010
0000
1000
0001
1000
0000
0001
1000
0001
0000
0100
0010
0100
0010
0100
0010
,
0100
0000
1000
0100
0010
0100
0010
0001
1000
0010
0100
0001
1000
0002
0000
0103
,
1000
0100
0010
0100
0010
0001
1000
0010
0001
1000
0001
0010
0100
0020
0000
0031
,
1100
1000
1000
1010
0100
0010
0010
1001
,
0001
0110
0110
1000
0101
1010
0001
1000
,
0001
0010
1000
0100
0010
0100
0010
0001
1000
0010
0100
0001
1000
0002
0000
0103
,
1000
0100
0010
0100
0010
0001
1000
0010
0001
1000
0001
0010
0100
0020
0000
0031
,
1100
1000
1000
1000
0101
1010
0100
1001
,
0010
0000
0001
0000
0100
0000
0010
0000
1000
0001
1000
0001
1000
0001
1000
0001
,
1000
0100
1001
0100
1000
0100
1001
0100
,
1000
0100
1001
0100
1000
0010
1001
0001
,
0001
0010
1001
0010
0001
0010
1001
0010
,
0001
0010
1001
0010
0001
0100
1001
1000
,
2000
0000
0000
0000
,
0000
0000
0000
0000
,
3020
0000
0000
0032
0000
0000
0000
0000
,
0003
0000
0100
0000
0100
0000
0100
0000
0100
0010
0100
0010
0100
0010
0100
0010
,
0100
0000
1000
0100
0010
0100
0010
0001
1000
0010
0100
0001
1000
0002
0000
0103
,
1000
0100
0010
0100
0010
0001
1000
0010
0001
1000
0001
0010
0100
0020
0000
0031
,
1100
1000
1000
1010
0100
0010
0010
1001
,
0001
0110
0110
1000
0101
1010
0001
1000
,
0001
0010
1000
0100
0010
0100
0010
0001
1000
0010
0100
0001
1000
0002
0000
0103
,
1000
0100
0010
0100
0010
0001
1000
0010
0001
1000
0001
0010
0100
0020
0000
0031
,
1100
1000
1000
1000
0101
1010
0100
1001
,
0010
0000
0001
0000
0100
0000
0010
0000
1000
0001
1000
0001
1000
0001
1000
0001
,
1000
0010
1000
0100
0010
0100
0010
0001
1000
0010
0100
0001
1000
0002
0000
0103
,
1000
0100
0010
0100
0010
0001
1000
0010
0001
1000
0001
0010
0100
0020
0000
0031
,
1000
0100
0010
0001
0100
0010
1000
0010
0100
0001
1000
0010
0100
0010
1000
0001
,
0100
0010
1000
0001
0100
0001
0010
1000
0100
0010
0001
0100
0010
1000
0100
0010
,
0001
0010
1000
0100
0010
0100
0010
0001
1000
0010
0100
0001
1000
0002
0000
0103
,
1000
0100
0010
0100
0010
0001
1000
0010
0001
1000
0001
0010
0100
0020
0000
0031
,
1100
1000
1000
1000
0101
1010
0100
1001
,
0010
0000
0001
0000
0100
0000
0010
0000
1000
0001
1000
0001
0100
0010
0100
0010
,
1000
0001
1000
0010
0100
0010
0100
0000
1010
0000
0100
0000
1001
0000
0010
0000
,
1000
0001
0010
1000
0001
1000
0001
0000
0110
0000
1000
0000
0101
0000
0010
0000
,
1000
0001
1000
0010
0001
1000
0100
0000
0011
0000
0100
0000
1010
0000
0001
0000
,
0010
0100
0001
0010
0100
1000
0010
0001
1000
0100
1000
0001
0010
0100
1000
0010
,
1000
0001
1000
0100
0010
0100
0010
0000
1010
0000
0100
0000
1001
0000
0010
0000
,
1000
0001
0010
1000
0001
1000
0001
0000
0110
0000
1000
0000
0101
0000
0010
0000
,
1000
0001
1000
0010
0001
1000
0100
0000
0011
0000
0100
0000
1010
0000
0001
0000
,
0010
0001
0010
0100
1000
0000
1000
0010
1000
0100
1000
0001
0010
0100
1000
0010
,
1001
0000
0000
0000
;

//---------------dance-single - ----------------
#NOTES:
     dance-single:
     :
     Hard:
     11:
     0.881,1.000,0.303,0.025,0.749,713.000,37.000,3.000,0.000,0.000:
0000
0000
0000
0000
,
0000
0000
0000
0000
,
1000
0001
1000
0010
0100
0010
0100
0000
1000
0000
0100
0000
0001
0000
0010
0000
,
1000
0001
0010
1000
0001
1000
0001
0000
0010
0000
1000
0000
0001
0000
0010
0000
,
1000
0001
1000
0010
0001
1000
0100
0000
0001
0000
0100
0000
0010
0000
0001
0000
,
0010
0100
0001
0010
0100
1000
0010
0001
1000
0100
1000
0001
0010
0100
1000
0010
,
1000
0001
1000
0100
0010
0100
0010
0000
1000
0000
0100
0000
0001
0000
0010
0000
,
1000
0001
0010
1000
0001
1000
0001
0000
0010
0000
1000
0000
0001
0000
0010
0000
,
1000
0001
1000
0010
0001
1000
0100
0000
0001
0000
0100
0000
0010
0000
0001
0000
,
0010
0001
0010
0100
1000
0000
1000
0010
1000
0100
1000
0001
0010
0100
1000
0010
,
1000
0100
1000
0100
1000
0100
1000
0100
,
1000
0100
1000
0100
1000
0010
1001
0001
,
0001
0010
0001
0010
0001
0010
0001
0010
,
0001
0010
0001
0010
0001
0100
1001
1000
,
1000
0100
1000
0100
1000
0100
1000
0100
,
1000
0100
1000
0100
1000
0010
1001
0001
,
0001
0010
0001
0010
0001
0010
0001
0010
,
0001
0010
0001
0010
0001
0010
0001
0010
,
1001
0000
0000
1100
0011
0000
0000
0011
,
1000
1000
0100
0010
0011
0000
0000
1100
,
0000
1000
1000
1000
0101
1000
1000
1000
,
0010
0010
0010
0010
1001
0000
0000
0000
,
1100
0000
0011
0000
,
0001
0000
0001
0000
0100
0000
0010
0000
0000
0000
0000
0000
,
1000
1000
0100
0100
0010
0010
0001
0001
,
0011
0011
0011
1001
0000
0000
0000
0000
,
1001
0000
1001
0000
,
1000
0100
1000
0110
0000
0000
0000
0110
,
0000
0001
0010
0010
1000
0010
0010
0010
,
1100
1100
0011
0110
0000
0000
0000
0000
,
1001
0000
1001
0000
,
0100
0000
0000
0000
0100
0000
0000
0000
0100
0000
0000
0000
0011
0000
0000
1100
0000
0000
0000
0000
0000
0000
0000
0000
,
1000
1000
0100
0100
0010
0010
0001
0001
,
0011
0011
0000
1001
0000
0000
0000
0000
,
1000
0010
0100
0001
0100
0001
1000
0100
,
0010
0001
0100
0010
1000
0001
0010
0001
,
1000
0010
0100
0001
1000
0001
0100
0010
,
1000
0100
0010
0001
0100
1000
0100
0010
,
1000
0001
0100
0010
1000
0010
0100
0001
,
1000
0100
0010
0001
0010
1000
0001
0100
,
1000
0001
0001
1000
1000
0100
0100
0010
,
0010
0000
1000
0000
1000
0000
0001
0000
0001
0000
0100
0010
0100
0010
0100
0010
,
0100
0000
1000
0100
0010
0100
0010
0001
1000
0010
0100
0001
1000
0001
0000
0100
,
1000
0100
0010
0100
0010
0001
1000
0010
0100
0010
0001
0010
0100
0010
0000
0001
,
1000
1000
1000
0100
0100
0010
0010
0001
,
0000
0010
0010
0000
0000
0000
0000
0000
,
1000
0100
1000
0100
0010
0100
0010
0001
1000
0010
0100
0001
1000
0001
0000
0100
,
1000
0100
0010
0100
0010
0001
1000
0010
0001
1000
0001
0010
0100
0010
0000
0001
,
1000
1000
1000
1000
0101
0010
0000
1000
,
0010
0000
0001
0000
0100
0000
0010
0000
1000
0001
1000
0001
1000
0001
1000
0001
,
1000
0100
1000
0100
1000
0100
1000
0100
,
1000
0100
1000
0100
1000
0010
1001
0001
,
0001
0010
0001
0010
0001
0010
0001
0010
,
0001
0010
0001
0010
0001
0100
1001
1000
,
2000
0000
0000
0000
,
0000
0000
0000
0000
,
3020
0000
0000
0032
0000
0000
0000
0000
,
0003
0000
0100
0000
0100
0000
0100
0000
0100
0010
0100
0010
0100
0010
0100
0010
,
0100
0000
1000
0100
0010
0100
0010
0001
1000
0010
0100
0001
1000
0001
0000
0100
,
1000
0100
0010
0100
0010
0001
1000
0010
0100
0010
0001
0010
0100
0010
0000
0001
,
1000
1000
1000
0100
0100
0010
0010
0001
,
0000
0010
0010
0000
0000
0000
0000
0000
,
1000
0100
1000
0100
0010
0100
0010
0001
1000
0010
0100
0001
1000
0001
0000
0100
,
1000
0100
0010
0100
0010
0001
1000
0010
0001
1000
0001
0010
0100
0010
0000
0001
,
1000
1000
1000
1000
0101
0010
0000
1000
,
0010
0000
0001
0000
0100
0000
0010
0000
1000
0001
1000
0001
1000
0001
1000
0001
,
1000
0010
1000
0100
0010
0100
0010
0001
1000
0010
0100
0001
1000
0001
0000
0100
,
1000
0100
0010
0100
0010
0001
1000
0010
0100
0010
0001
0010
0100
0010
0000
0001
,
1000
1000
1000
0100
0100
0010
0010
0001
,
0000
0010
0010
0000
0000
0000
0000
0000
,
1000
0100
1000
0100
0010
0100
0010
0001
1000
0010
0100
0001
1000
0001
0000
0100
,
1000
0100
0010
0100
0010
0001
1000
0010
0001
1000
0001
0010
0100
0010
0000
0001
,
1000
1000
1000
1000
0101
0010
0000
1000
,
0010
0000
0001
0000
0100
0000
0010
0000
1000
0001
1000
0001
1000
0001
1000
0001
,
1000
0001
1000
0010
0100
0010
0100
0000
1000
0000
0100
0000
0001
0000
0010
0000
,
1000
0001
0010
1000
0001
1000
0001
0000
0010
0000
1000
0000
0001
0000
0010
0000
,
1000
0001
1000
0010
0001
1000
0100
0000
0001
0000
0100
0000
0010
0000
0001
0000
,
0010
0100
0001
0010
0100
1000
0010
0001
1000
0100
1000
0001
0010
0100
1000
0010
,
1000
0001
1000
0100
0010
0100
0010
0000
1000
0000
0100
0000
0001
0000
0010
0000
,
1000
0001
0010
1000
0001
1000
0001
0000
0010
0000
1000
0000
0001
0000
0010
0000
,
1000
0001
1000
0010
0001
1000
0100
0000
0001
0000
0100
0000
0010
0000
0001
0000
,
0010
0001
0010
0100
1000
0000
1000
0010
1000
0100
1000
0001
0010
0100
1000
0010
,
1000
0000
0000
0000
;
