#TITLE:Kiss Your Lips;
#SUBTITLE:;
#ARTIST:DJ Inphinity;
#TITLETRANSLIT:;
#SUBTITLETRANSLIT:;
#ARTISTTRANSLIT:;
#CREDIT:;
#BANNER:BN.PNG;
#BACKGROUND:BG.PNG;
#LYRICSPATH:;
#CDTITLE:ov1_title.png;
#MUSIC:DJ Inphinity - Kiss Your Lips.mp3;
#OFFSET:-1.720;
#SAMPLESTART:14.500;
#SAMPLELENGTH:29.999;
#SELECTABLE:YES;
#BPMS:0.000=143.010,163.750=286.020,180.000=143.010;
#STOPS:164.000=0.215
,165.000=0.210
,166.000=0.210
,167.000=0.210
,168.000=0.210
,169.000=0.210
,170.000=0.210
,171.000=0.210
,172.000=0.210
,173.000=0.210
,174.000=0.210
,175.000=0.210
,176.000=0.210
,177.000=0.210
,178.000=0.200
,179.000=0.200
;
#BGCHANGES:;
// cache tags:
#FIRSTBEAT:32.000;
#LASTBEAT:336.000;
#SONGFILENAME:Songs/Owenviau1 Simfiles 4/Kiss Your Lips - DJ Inphinity [owenviau1]/DJ Inphinity - Kiss Your Lips.sm;
#HASMUSIC:1;
#HASBANNER:1;
#MUSICLENGTH:142.949;
// end cache tags

//---------------dance-single - ----------------
#NOTES:
     dance-single:
     :
     Challenge:
     10:
     0.686,0.970,0.119,0.119,0.399,652.000,17.000,17.000,99.000,0.000:

0000
0000
0000
0000
,
0000
0000
0000
0000
,
0000
0000
0000
0000
,
0000
0000
0000
0000
,
0000
0000
0000
0000
,
0000
0000
0000
0000
,
0000
0000
0000
0000
,
0000
0000
0000
0000
,
1000
0001
1000
0010
1000
0001
0010
0100
,
0010
0001
1000
0010
0100
0001
0010
0100
,
1001
0001
0100
0010
1000
0010
0100
0001
,
0010
0100
0010
0001
1000
0100
0010
0001
,
0101
0001
1000
0010
0100
0010
1000
0010
,
0100
0001
0010
0100
0010
0001
1000
0100
,
0010
0001
1000
0010
0100
0001
0010
0001
1000
0010
1000
0100
0010
0001
0100
0010
,
1000
0000
0001
0000
,
1000
0000
0010
0000
0100
0000
0001
0010
0100
0000
1000
0000
0001
0000
0100
0000
,
0010
0000
1000
0000
0010
0000
0100
0010
0001
0000
1000
0000
1010
0000
0000
0000
,
0100
0001
0010
0100
0010
0001
1000
0100
,
0010
0001
1000
0010
0001
0010
1000
0001
,
1000
0100
0010
0001
1000
0010
0100
0001
,
0010
0100
1000
0001
0100
0010
1000
0001
,
0010
0100
1000
0001
0100
0010
1000
0001
0100
0010
1000
0100
0010
0001
1000
0001
,
0100
0010
1000
0100
0010
0001
1000
0100
1000
0010
0100
0001
0010
0001
0100
0010
,
1000
0000
0000
0000
1000
1000
0100
0100
0010
0000
0001
0000
0010
0000
0000
0000
,
1000
0000
0100
0000
0010
0000
0001
1000
0100
0000
0010
0000
0100
0000
1000
0000
,
0001
0000
0010
0000
0100
0000
0010
1000
0001
0000
0010
0000
1100
0000
0010
0000
,
0110
0000
1000
0000
1001
0000
0010
0100
0001
0000
0010
0000
0100
0000
1000
0000
,
0001
0000
0010
0000
0100
0000
1000
0100
0010
0000
0001
0000
0010
0000
0100
0000
,
1001
0100
0010
0001
1000
0010
0100
0001
,
0010
0100
1000
0001
0100
0010
1000
0001
,
1000
0010
0100
0001
0010
0001
1000
0010
0100
0001
0010
0100
1000
0010
1000
0001
,
0100
0001
0010
0100
1000
0100
0010
0001
1000
0100
1000
0010
0100
0001
0010
0001
,
1000
0100
0010
0001
1000
0010
0100
0001
,
0011
0001
1000
0100
0010
0100
1000
0001
,
1010
0010
0100
0001
0010
0100
0010
0001
,
0010
0100
1000
0010
0100
0010
1000
0010
,
1001
0001
0100
0010
1000
0010
0100
0001
,
0010
0100
0010
0001
1000
0010
0100
0010
,
1000
0100
0010
0001
1000
0010
1000
0100
0010
0001
0100
0001
0010
0100
1000
0001
,
0100
0010
1000
0001
0100
0001
0010
0100
1000
0100
0010
0001
1000
0010
0100
0001
,
2000
3200
0320
0032
,
2003
3020
0230
0302
,
2003
3002
0023
0230
,
2300
3002
0203
0302
,
0013
1000
0100
0010
,
0001
0000
1000
0000
0001
0000
0010
0100
,
1000
0100
0010
0001
,
1000
0000
0000
0000
0010
0000
0000
0000
0100
0000
0000
0000
1000
0100
0010
0001
,
1001
0100
0010
0001
1000
0010
0100
0010
,
1000
0010
0100
0001
0010
0100
0010
0001
,
1000
0100
0010
0001
1000
0010
1000
0010
,
0100
0001
0010
0100
0010
0001
1000
0010
,
0101
0010
1000
0100
0010
0001
0010
0100
,
1000
0001
0100
0010
1000
0010
0100
0001
,
0010
0100
0010
0001
1000
0010
0100
0010
,
1000
0000
0000
0000
0000
0000
0001
0000
0000
0000
0000
0000
0010
0000
0000
0000
0000
0000
1000
0100
0010
0001
1000
0010
,
0100
1000
0100
0010
0001
0010
0100
1000
0100
0010
0001
0010
0100
1000
0100
0010
,
0001
0010
0100
1000
0100
0010
0001
0010
0100
0000
1000
0000
0010
0000
0100
0000
,
2001
0000
0000
0000
0000
0000
0000
0000
0000
0000
3001
0010
0100
1000
0001
0100
,
0010
1000
0100
0010
0001
1000
0010
0100
,
0001
0010
0100
1000
0001
0100
0010
1000
,
0010
0100
0001
0010
0100
0010
0001
1000
,
0010
0100
0001
0010
0100
0010
0001
0010
,
1001
0001
0100
0010
1000
0010
0100
0001
,
0010
0100
1000
0001
0100
0010
0001
1000
,
0100
0010
0001
1000
0010
0100
0001
0010
,
0100
0000
0001
0000
1000
0000
0010
0000
0100
0010
0001
1000
0010
0100
0001
0010
,
1001
0010
0100
0001
0010
0100
0010
0001
,
1000
0100
0010
0001
1000
0010
0100
0001
,
0010
0100
0001
1000
0010
1000
0100
0010
,
0001
0100
0001
0010
0100
1000
0010
0100
,
1001
0010
0100
0001
0010
0100
1000
0001
,
0100
0010
1000
0100
0001
0100
0010
0001
,
0010
0100
0010
0001
1000
0100
0010
0001
,
1000
0000
0010
0000
0100
0000
0010
0000
1000
0000
0100
0000
0010
0001
0010
0100
,
1001
0010
0100
0001
0010
0100
0010
0001
,
1000
0100
0001
0010
0100
0010
0001
1000
,
0010
0100
0010
1000
0100
0010
0100
1000
,
0001
0100
0001
0010
0001
0100
0010
1000
,
0010
0100
1000
0100
1000
0100
0010
0001
,
0010
0100
0010
0001
1000
0001
0100
0001
,
1000
0100
0010
0001
0010
0100
0010
0001
,
1000
0000
0000
0000
0000
0000
0000
0000
0000
0000
0000
0000
0000
0000
0000
0000
0000
0000
0000
0000
0000
0000
0000
0000
0010
0000
0000
0000
0000
0000
0000
0000
0000
0000
0000
0000
0000
0000
0000
0000
0000
0000
0000
0000
0000
0000
0000
0000
0100
0000
0000
0000
0000
0000
0000
0000
0000
0000
0000
0000
0000
0000
0000
0000
0000
0000
0000
0000
0000
0000
0000
0000
0010
0000
0000
0000
0000
0000
0000
0000
0000
0000
0000
0000
0000
0000
0000
0000
0000
0000
0000
0000
0000
0000
0000
0000
1000
0000
0000
0000
0000
0000
0000
0000
0000
0000
0000
0000
0000
0000
0000
0000
0000
0000
0000
0000
0000
0000
0000
0000
0100
0000
0000
0000
0000
0000
0000
0000
0000
0000
0000
0000
0000
0000
0000
0000
0000
0000
0000
0000
0000
0000
0000
0000
0010
0000
0000
0000
0000
0000
0000
0000
0000
0000
0000
0000
0000
0000
0000
0000
0000
0000
0000
0000
0000
0000
0000
0000
MMMM
MMMM
MMMM
MMMM
MMMM
MMMM
MMMM
M0MM
MMMM
MMMM
MMMM
MMMM
MMMM
MMMM
MMMM
MMMM
MMMM
MMMM
MMMM
MMMM
MMMM
MMMM
MMMM
MMMM
,
MMMM
0000
0000
0000
;

//---------------dance-single - ----------------
#NOTES:
     dance-single:
     :
     Hard:
     8:
     0.450,0.498,0.014,0.112,0.000,432.000,2.000,16.000,0.000,0.000:

0000
0000
0000
0000
,
0000
0000
0000
0000
,
0000
0000
0000
0000
,
0000
0000
0000
0000
,
0000
0000
0000
0000
,
0000
0000
0000
0000
,
0000
0000
0000
0000
,
0000
0000
0000
0000
,
1000
0001
0100
0001
0010
0000
0010
0001
,
1000
0000
1000
0001
0100
0000
0100
0000
,
0010
0000
1000
0001
0010
0000
0001
0000
,
1000
0000
1000
0001
0100
0000
0100
0000
,
0010
0001
1000
0100
,
1000
0001
0100
0010
,
1000
0100
0010
0001
1000
0100
0010
0001
,
0100
0000
0010
0000
,
1000
0000
0001
0000
0100
0010
1000
0001
,
0000
0010
0000
0100
1000
0001
0100
0000
,
0010
0000
1000
0000
0001
1000
0100
0010
,
1000
0100
0001
0100
1000
0100
0001
0100
,
0010
0001
1000
0001
1000
0100
0010
0001
,
0010
0100
0001
1000
0010
0100
0001
0010
,
0100
1000
0100
1000
0001
0100
0001
0100
,
1000
0100
0001
0010
0001
1000
0010
0000
,
0100
0001
1000
0001
0100
0010
1000
0000
,
0001
0000
0010
0000
0100
1000
0001
0100
,
0000
0010
0000
1000
0001
0010
0100
0000
,
1000
0000
0001
0000
1000
0001
0100
0010
,
0000
1000
0000
1000
0001
0010
0100
1000
,
0001
0000
0100
0000
0010
1000
0010
0100
,
0000
0001
0000
0001
0010
0100
1000
0000
,
1000
0001
1000
0001
0010
0100
0010
0100
,
1000
0001
0100
0010
1000
0001
0100
0010
,
1000
0000
1000
0001
0010
0000
0100
0000
,
1000
1000
0001
0010
,
0100
0000
0001
1000
0010
0000
0100
0000
,
0001
0000
0001
1000
0000
1000
0010
0000
,
0010
0100
0001
0010
,
0100
1000
0001
0100
,
1000
0100
0010
0001
1000
0100
0010
0001
,
1000
0010
0100
0010
1000
0001
0100
0010
,
2000
3200
0320
0032
,
2003
3020
0230
0302
,
0203
0320
2030
3200
,
0320
0032
0203
0320
,
1030
0100
0010
0001
,
1000
0000
0001
0000
0100
0000
1000
0001
,
0010
0100
1000
0001
,
0100
0000
0010
0000
1000
0000
1000
0001
,
1000
0010
0100
0001
0010
0000
0001
0000
,
1000
0001
0100
0001
0010
0000
0001
0000
,
1000
0100
0001
0100
1000
0000
0010
0000
,
1000
0010
0001
0100
0010
0000
1000
0000
,
0001
0100
0010
0001
0010
0000
0100
0000
,
1000
0100
0010
0100
1000
0000
0001
0000
,
0100
0010
0001
0100
0010
0000
0001
0000
,
1000
0000
0010
0000
0100
0000
0001
0001
,
1000
0100
0010
0001
1000
0100
0010
0001
,
1000
0100
0010
0001
1000
0001
0100
0010
,
1000
0000
0000
0000
0001
1000
0001
0010
,
0100
1000
0001
0100
,
0010
0000
1000
0010
0100
0000
0001
0000
,
1000
0000
1000
0001
0010
0000
0100
0000
,
1000
0000
1000
0001
0100
0000
0010
0000
,
1001
0000
0001
0010
0100
0000
0100
0000
,
0001
0000
0001
1000
0010
0000
0010
0000
,
0100
0000
0001
0000
1000
0001
0010
0000
,
0100
0000
1000
0000
1000
0001
0100
0001
,
0010
0100
1000
0000
0001
0000
0100
0000
,
0010
1000
0001
0000
0100
0000
0001
0000
,
1000
0001
0100
0000
0010
0000
1000
0000
,
1000
0010
0100
0000
0001
0000
0010
0000
,
0001
0000
0001
1000
0010
0000
0010
0000
,
0100
0000
0001
1000
0010
0000
0100
0000
,
0001
1000
0100
0010
,
0001
1000
0010
0000
0100
0000
0001
0000
,
1000
0100
1000
0100
0010
0001
0010
0000
,
0010
0001
1000
0001
1000
0001
0100
0000
,
0100
0001
1000
0100
0001
0100
0001
0000
,
1001
0000
0010
1000
0010
0100
0001
0000
,
0001
1000
0010
0100
0001
0010
0100
0000
,
0001
1000
0001
0100
0001
0010
0001
0000
,
0001
1000
0010
0100
0001
0010
0100
0000
,
0001
1000
0001
0100
0010
1000
0001
0000
;
