#TITLE:Run;
#SUBTITLE:;
#ARTIST:Epik High;
#TITLETRANSLIT:;
#SUBTITLETRANSLIT:;
#ARTISTTRANSLIT:;
#CREDIT:Little Matt;
#BANNER:MBN.jpg;
#BACKGROUND:MBG.jpg;
#LYRICSPATH:;
#CDTITLE:;
#MUSIC:Running.ogg;
#OFFSET:-0.718;
#SAMPLESTART:87.500;
#SAMPLELENGTH:12.000;
#SELECTABLE:YES;
#DISPLAYBPM:160.000;
#BPMS:0.000=160.000,96.000=80.000,100.000=160.000,291.625=140.000,291.688=130.000,291.750=120.000,291.813=110.000,291.875=100.000,291.938=90.000,292.000=80.000,292.063=70.000,292.125=60.000,292.188=50.000,292.250=40.000,292.313=30.000,292.375=20.000,292.438=10.000,292.500=160.000;
#STOPS:;
#BGCHANGES:;
// cache tags:
#FIRSTBEAT:32.000;
#LASTBEAT:292.375;
#SONGFILENAME:Songs/Index Tournament 1/Run - Little Matt [10]/Run.sm;
#HASMUSIC:1;
#HASBANNER:1;
#MUSICLENGTH:113.900;
// end cache tags

//---------------dance-single - Blank----------------
#NOTES:
     dance-single:
     Blank:
     Challenge:
     10:
     0.724,0.834,0.527,0.053,0.369,510.000,60.000,6.000,73.000,1.000:

0000
0000
0000
0000
,
0000
0000
0000
0000
,
0000
0000
0000
0000
,
0000
0000
0000
0000
,
0000
0000
0000
0000
,
0000
0000
0000
0000
,
0000
0000
0000
0000
,
0000
0000
0000
0000
,
1001
0001
0100
0010
1001
0001
0100
0001
,
0011
0000
0010
0000
0010
0000
0200
0000
0000
0000
0300
0000
0000
MMMM
0000
0000
,
1000
0100
0010
1000
0010
0100
1000
0001
,
0100
0010
0100
0010
0001
0010
0100
0000
,
0101
0001
0010
0100
1001
0001
1000
0010
,
0110
0000
0100
0000
0100
0000
0002
0000
0000
0000
0003
0000
0000
MMMM
0000
0000
,
1000
0001
0100
1000
0100
0001
0010
0100
,
0010
1000
0010
0100
0010
0001
1000
0000
,
1001
0000
0001
0000
0100
0000
0010
1000
0010
0000
0100
0000
0001
0000
1000
0100
,
0010
0010
0001
1000
0000
0010
0010
0010
,
1000
0001
0100
1000
M000
1000
M000
1000
,
0100
0001
0010
0100
0000
0110
1100
0000
,
1010
0000
0010
0000
0100
0000
0001
0010
0100
0000
1000
0000
0001
0000
0100
0001
,
0010
0010
0010
0100
0000
1000
0001
0100
,
0010
0000
0010
0000
0010
0100
0001
0000
0000
0000
0101
0000
0000
0000
0001
0000
,
0010
0100
0010
0001
0000
1100
1001
0000
,
2002
0M00
00M0
0M00
0000
0MM0
0000
0000
0M00
00M0
0M00
00M0
3003
0010
0010
0010
,
1001
0000
0001
1000
0100
0000
0100
0000
0MM0
0000
0110
0000
0010
0001
0100
0000
,
0001
1000
0100
0000
0MM0
0000
0110
0000
0100
0000
1000
0000
1000
0000
0001
0000
,
1001
0000
0001
0100
0010
0000
0100
0000
0100
0000
0M0M
0000
0101
0000
0001
0000
,
1000
0000
0001
0000
1000
0000
0100
0000
0110
0000
0010
0001
1001
0000
0000
0000
,
1010
0000
0010
1000
0001
0000
0010
0000
0100
0000
0100
0000
1100
0000
1000
0001
,
0100
0000
0001
1000
0100
0000
1000
0000
1001
0000
0010
0100
0001
0000
1000
0100
,
0010
0000
0001
1000
0100
0000
0010
0000
00MM
0000
0011
0000
0001
0000
1000
0001
,
0100
0000
0101
0000
1001
0000
0010
1000
0001
0000
1000
0000
0100
0010
0100
0010
,
0001
0000
1000
0001
0100
0000
0010
1000
0001
0000
0001
0000
0101
0000
0010
1000
,
0100
0000
1000
0001
0100
0000
0001
0000
0011
0000
0010
0100
0010
0000
0100
0010
,
0001
0000
1000
0001
0100
0000
0010
0000
M0M0
0000
0010
0000
1010
0000
0010
1000
,
0001
0000
0010
0001
1000
0000
0010
0000
0110
0000
0100
0000
0101
0000
0001
0000
,
1001
0000
0001
1000
0001
0000
1000
0000
M00M
0000
0001
0000
1001
0000
0010
0001
,
1000
0000
0001
0000
0001
0000
0100
0000
0100
0000
0001
1000
0100
0000
0MM0
0000
,
0110
0000
0100
1000
0001
0000
0100
0010
1000
0000
0001
0000
0011
0000
0001
0000
,
1000
0001
0010
0000
0001
1000
0100
0000
1000
0000
0001
0000
1001
0000
0000
0000
,
2012
3003
0000
0000
0000
0000
0000
0000
1000
0000
0010
0000
0001
0000
0010
0000
,
1000
0100
0001
0100
1000
0010
0100
0001
,
0011
MMMM
1001
MMMM
,
0101
0000
MMMM
0000
0010
0100
0110
0010
,
1010
0000
0000
0000
0010
1000
0100
0001
,
0100
1000
0010
0001
0010
0100
0001
0100
,
1100
MMMM
0110
MMMM
,
0101
0000
MMMM
0000
1000
1000
1000
1000
,
1001
0001
0100
0010
1001
0010
0100
0010
,
1000
1000
1000
0100
0000
0100
0001
0100
,
1000
0010
0100
0001
000M
0001
000M
0001
,
0010
0100
0010
0001
0000
0001
0100
0000
,
1001
0001
0100
0010
1001
0010
1000
0100
,
0001
0001
0001
0100
0000
1000
0010
0100
,
0001
0010
1000
0010
00M0
0010
00M0
0010
,
0001
0100
0010
1000
0000
0110
0010
1000
,
1000
0100
0010
0100
1000
0100
0010
0100
1000
0100
0010
0100
1000
0000
0010
0000
,
0000
0100
0100
0000
0100
0101
0001
1000
,
0010
0100
0001
0100
0010
0100
0001
0100
0010
0100
0001
0100
0010
0000
0100
0000
,
0000
0001
0001
0000
0001
1001
1000
0010
,
0100
0001
1000
0001
0100
0001
1000
0001
0100
0001
1000
0001
0100
0000
0010
0000
,
0000
1000
1000
0000
1000
0000
0001
0101
,
0M0M
0101
0001
0010
0100
1000
0001
0100
,
0010
0110
0010
1000
0100
0010
0010
0010
,
0001
0010
0100
0010
0001
0010
0100
0010
0001
0010
0100
0010
0001
0000
1000
0000
,
0000
0100
0100
0000
1000
1001
0010
0100
,
0001
1000
0001
0100
0001
1000
0001
0100
0001
1000
0001
0100
0001
0000
0010
0000
,
0000
0100
0100
0000
0100
1010
0001
0100
,
0010
1000
0001
1000
0010
1000
0001
1000
0010
1000
0001
1000
0010
0000
0100
0000
,
0000
0001
0001
0000
0001
0000
1000
1010
,
M0M0
1010
0010
0100
0001
0010
1000
0010
,
0100
0001
0100
1000
0010
0100
0100
0100
,
M0M0
0M0M
M0M0
0M0M
0000
0000
0000
0000
0000
0000
0000
0000
0000
0000
0000
0000
0000
0000
0000
0000
0000
0000
0000
0000
0000
0000
0000
0000
0000
0000
0000
0000
;
