#TITLE:Not Our Tomorrow;
#SUBTITLE:;
#ARTIST:Miss May I;
#TITLETRANSLIT:;
#SUBTITLETRANSLIT:;
#ARTISTTRANSLIT:;
#CREDIT:;
#BANNER:../fthescorept1bn.png;
#BACKGROUND:../fthescorept1bg.png;
#LYRICSPATH:;
#CDTITLE:;
#MUSIC:Not Our Tomorrow.ogg;
#OFFSET:-0.056;
#SAMPLESTART:15.700;
#SAMPLELENGTH:14.750;
#SELECTABLE:YES;
#BPMS:0.000=259.980;
#STOPS:;
#BGCHANGES:;
// cache tags:
#FIRSTBEAT:4.000;
#LASTBEAT:228.000;
#SONGFILENAME:Songs/Fuck The Score Part I/Not Our Tomorrow [Dossar]/Not Our Tomorrow.sm;
#HASMUSIC:1;
#HASBANNER:1;
#MUSICLENGTH:54.778;
// end cache tags

//---------------dance-single - ----------------
#NOTES:
     dance-single:
     :
     Hard:
     16:
     1.000,1.000,0.000,0.000,1.000,553.000,0.000,0.000,0.000,0.000:
0000
0000
0000
0000
,
1000
0010
0100
0001
1000
0100
1000
0001
,
0100
0000
0010
0000
1000
0000
0001
0000
0100
0000
0010
0000
1000
0001
0100
0001
,
1000
0100
0010
0001
1000
0001
0010
0100
,
1000
0000
0001
0000
1000
0000
0100
0000
0010
0001
0010
0100
1000
0000
0001
0000
,
1000
0010
0100
0001
1000
0010
1000
0001
,
0100
0001
1000
0100
1000
0001
0100
0001
,
1000
0100
0010
0001
1000
0100
1000
0001
,
0010
0000
0100
0000
0010
0000
0001
0000
1000
0100
0010
0001
1000
0000
0010
0000
,
0100
0001
1000
0100
1000
0001
0100
0001
,
1000
0000
0010
0000
0100
0000
0001
0000
1000
0010
1000
0001
0100
0000
0001
0000
,
1000
0100
0010
0001
1000
0100
1000
0001
,
0010
0001
1000
0100
0010
0001
1000
0010
,
0100
0001
0100
0010
1000
0001
0100
0010
,
0100
0000
0001
0000
1000
0000
0100
0000
1000
0000
0001
0000
0100
0010
0100
0001
,
1000
0100
0010
0001
1000
0100
0010
0001
,
1000
0100
0010
0001
1000
0000
0100
0000
0010
0000
0100
0000
1000
0000
0001
0000
,
0100
0000
0000
0000
0001
0100
0001
1000
0010
1000
0001
0100
0010
1000
0001
0100
,
0001
1000
0010
1000
0001
0100
0001
1000
0010
0100
0001
1000
0010
1000
0001
0100
,
0001
0000
0000
0000
1000
0100
0010
0001
1000
0000
0000
0000
0001
0000
0000
0000
,
1000
0000
0000
0000
0001
0010
0100
1000
0001
0000
0010
0000
0100
0000
0010
0000
,
0001
0000
0000
0000
1000
0010
1000
0001
0100
0001
1000
0010
0100
0001
1000
0010
,
1000
0001
0100
0001
1000
0010
1000
0001
0100
0010
1000
0001
0100
0001
1000
0010
,
1000
0000
0000
0000
0001
0010
0100
1000
0001
0000
0010
0000
0100
0000
0010
0000
,
0001
0000
0000
0000
1000
0100
0010
0001
1000
0000
0100
0000
0010
0000
0100
0000
,
1000
0000
0000
0000
0001
0100
0001
1000
0010
1000
0001
0100
0010
1000
0001
0100
,
0001
1000
0010
1000
0001
0100
0001
1000
0010
0100
0001
1000
0010
1000
0001
0100
,
0001
0000
0000
0000
1000
0100
1000
0001
0010
0100
1000
0001
0010
0001
1000
0100
,
1000
0000
0000
0000
0001
0010
0100
1000
0001
0000
0010
0000
0100
0000
0010
0000
,
0001
0000
0000
0000
1000
0010
1000
0001
0100
0001
1000
0010
0100
0001
1000
0010
,
1000
0001
0100
0001
1000
0010
1000
0001
0100
0010
1000
0001
0100
0001
1000
0010
,
1000
0000
0000
0000
0001
0010
0100
1000
0001
0000
0010
0000
0100
0000
0010
0000
,
0001
0000
0000
0000
1000
0100
0010
0001
1000
0000
0100
0000
0010
0000
0100
0000
,
1000
0001
1000
0001
0100
0001
0100
0001
,
0010
0001
0010
0001
0100
0001
0100
0001
,
1000
0001
1000
0001
0100
0001
0100
0001
,
0010
0001
0010
0001
0100
0001
0100
0001
,
1000
0100
0010
0001
1000
0100
0010
0001
,
1000
0100
0010
0001
1000
0100
0010
0001
,
1000
0100
0010
0001
1000
0100
0010
0001
,
1000
0100
0010
0001
1000
0100
0010
0001
,
1000
0001
1000
0001
0100
0001
0100
0001
,
0010
0001
0010
0001
0100
0001
0100
0001
,
1000
0001
1000
0001
0100
0001
0100
0001
,
0010
0001
0010
0001
0100
0001
0100
0001
,
1000
0100
0010
0001
1000
0100
0010
0001
,
1000
0100
0010
0001
1000
0100
0010
0001
,
1000
0100
0010
0001
1000
0100
0010
0001
,
1000
0100
0010
0001
1000
0100
0010
0001
,
1000
0000
0000
0000
0010
1000
0010
0100
0001
0000
1000
0000
0100
0000
0010
0000
,
0001
0000
0000
0000
1000
0100
0010
0001
1000
0000
0100
0000
0010
0000
0001
0000
,
1000
0000
0000
0000
0001
0000
0000
0000
1000
0010
1000
0001
0100
0001
1000
0010
,
0100
0001
0100
0010
1000
0001
0100
0001
1000
0010
0100
0001
1000
0000
0000
0000
,
0001
0010
0001
1000
0100
0010
0001
1000
0100
1000
0001
0010
0100
1000
0001
0010
,
0001
1000
0100
0010
0001
1000
0100
1000
0001
0010
0100
1000
0001
0000
0000
0000
,
1000
0010
0100
0001
0100
0001
1000
0010
0100
0001
0100
0001
1000
0010
0100
0001
,
1000
0010
0100
0001
1000
0100
1000
0001
,
0100
0000
0000
0000
;

//---------------dance-single - ----------------
#NOTES:
     dance-single:
     :
     Challenge:
     17:
     1.000,1.000,0.000,0.000,1.000,553.000,0.000,0.000,0.000,0.000:
0000
0000
0000
0000
,
1000
0010
0100
0001
1000
0100
1000
0001
,
0100
0000
0010
0000
1000
0000
0001
0000
0100
0000
0010
0000
1000
0100
0010
0001
,
1000
0100
0010
0001
1000
0001
0010
0100
,
1000
0000
0001
0000
1000
0000
0100
0000
0010
0001
0100
0010
1000
0000
0001
0000
,
1000
0010
0100
0001
1000
0010
1000
0001
,
0100
0001
1000
0100
1000
0001
0100
0001
,
1000
0100
0010
0001
1000
0100
1000
0001
,
0010
0000
0100
0000
0010
0000
0001
0000
0100
0010
1000
0100
0010
0000
0001
0000
,
0100
0001
1000
0100
1000
0001
0100
0001
,
1000
0000
0010
0000
0100
0000
0001
0000
1000
0010
0100
0001
0010
0000
0001
0000
,
1000
0100
0010
0001
1000
0100
1000
0001
,
0010
0001
1000
0100
0010
0001
1000
0010
,
0100
0001
0100
0010
1000
0001
0100
0010
,
0100
0000
0001
0000
1000
0000
0100
0000
1000
0000
0001
0000
0010
0001
0100
0010
,
1000
0100
0010
0001
1000
0100
0010
0001
,
1000
0100
0010
0001
1000
0000
0100
0000
0010
0000
0100
0000
1000
0000
0001
0000
,
0100
0000
0000
0000
0001
0100
0010
1000
0100
0010
0001
1000
0010
1000
0100
0010
,
0001
0100
0010
0100
0001
0010
0100
1000
0010
0100
0001
1000
0100
1000
0010
0100
,
0001
0000
0000
0000
1000
0010
0100
0001
0010
0000
0000
0000
0001
0000
0000
0000
,
1000
0000
0000
0000
0001
0010
0100
1000
0010
0000
1000
0000
0001
0000
1000
0000
,
0010
0000
0000
0000
1000
0100
0010
0001
0100
0001
1000
0100
0010
0100
1000
0010
,
0100
0001
1000
0001
0010
0100
1000
0010
0100
0001
1000
0100
0010
0100
1000
0001
,
0100
0000
0000
0000
0010
1000
0100
0010
0001
0000
0010
0000
0100
0000
0010
0000
,
0001
0000
0000
0000
0100
0001
0010
0100
1000
0000
0001
0000
0100
0000
0001
0000
,
1000
0000
0000
0000
0001
0100
0010
1000
0100
0010
0001
0100
0001
0010
0001
1000
,
0100
0010
0100
1000
0001
0100
0010
1000
0100
0010
0001
1000
0010
0100
0001
0010
,
0001
0000
0000
0000
1000
0100
0010
0001
0100
0010
1000
0100
0010
0001
0010
0100
,
1000
0000
0000
0000
0010
1000
0100
0010
0001
0000
1000
0000
0100
0000
1000
0000
,
0001
0000
0000
0000
1000
0010
0100
0001
0010
0001
0100
0001
1000
0010
1000
0100
,
1000
0001
0100
0010
1000
0100
0010
0001
0100
0010
0100
0001
0010
0100
1000
0001
,
0100
0000
0000
0000
0010
1000
0100
0010
0001
0000
1000
0000
0100
0000
1000
0000
,
0001
0000
0000
0000
0010
0001
0100
0010
1000
0000
0100
0000
0010
0000
0100
0000
,
1000
0001
1000
0001
0100
0001
0100
0001
,
0010
0001
0010
0001
0100
0001
0100
0001
,
1000
0001
1000
0001
0100
0001
0100
0001
,
0010
0001
0010
0001
0100
0001
0100
0001
,
1000
0100
0010
0001
1000
0100
0010
0001
,
1000
0100
0010
0001
1000
0100
0010
0001
,
1000
0100
0010
0001
1000
0100
0010
0001
,
1000
0100
0010
0001
1000
0100
0010
0001
,
1000
0001
1000
0001
0100
0001
0100
0001
,
0010
0001
0010
0001
0100
0001
0100
0001
,
1000
0001
1000
0001
0100
0001
0100
0001
,
0010
0001
0010
0001
0100
0001
0100
0001
,
1000
0100
0010
0001
1000
0100
0010
0001
,
1000
0100
0010
0001
1000
0100
0010
0001
,
1000
0100
0010
0001
1000
0100
0010
0001
,
1000
0100
0010
0001
1000
0100
0010
0001
,
1000
0000
0000
0000
0010
1000
0100
0010
0001
0000
1000
0000
0100
0000
0010
0000
,
0001
0000
0000
0000
0100
0001
0010
0100
1000
0000
0100
0000
0010
0000
0001
0000
,
1000
0000
0000
0000
0001
0000
0000
0000
1000
0010
0100
0001
0010
0100
1000
0010
,
0100
0001
0010
0001
1000
0010
0100
0001
1000
0100
0010
0001
0100
0000
0000
0000
,
0001
1000
0100
0010
0001
0100
0010
1000
0001
0010
0001
0100
0001
0010
0100
1000
,
0001
1000
0100
0010
0001
0100
0010
1000
0100
0010
0001
1000
0001
0000
0000
0000
,
0100
0010
1000
0100
1000
0010
0100
0001
0010
0001
0100
0010
1000
0100
0010
0001
,
1000
0010
0100
0001
1000
0100
1000
0001
,
0100
0000
0000
0000
;
