#TITLE:Love Is A Danger Zone;
#SUBTITLE:;
#ARTIST:BanYa;
#TITLETRANSLIT:;
#SUBTITLETRANSLIT:;
#ARTISTTRANSLIT:;
#CREDIT:;
#BANNER:loveis-bn.JPG;
#BACKGROUND:loveis-bg.jpg;
#LYRICSPATH:;
#CDTITLE:;
#MUSIC:Love Is A Danger Zone.mp3;
#OFFSET:-0.700;
#SAMPLESTART:14.320;
#SAMPLELENGTH:11.960;
#SELECTABLE:YES;
#BPMS:0.000=140.000;
#STOPS:;
#BGCHANGES:;
// cache tags:
#FIRSTBEAT:32.000;
#LASTBEAT:231.000;
#SONGFILENAME:Songs/dragon force/Love Is A Danger Zone/Love Is A Danger Zone.sm;
#HASMUSIC:1;
#HASBANNER:1;
#MUSICLENGTH:101.339;
// end cache tags

//---------------dance-single - ----------------
#NOTES:
     dance-single:
     :
     Hard:
     7:
     0.527,0.598,0.336,0.020,0.133,338.000,34.000,2.000,0.000,0.000:
0000
0000
0000
0000
,
0000
0000
0000
0000
,
0000
0000
0000
0000
,
0000
0000
0000
0000
,
0000
0000
0000
0000
,
0000
0000
0000
0000
,
0000
0000
0000
0000
,
0000
0000
0000
0000
,
1000
0001
0100
0010
1000
0001
0100
0000
,
0101
1100
0101
1100
,
0010
1000
1010
0000
0100
0000
0100
0000
,
0001
0000
0010
0000
0100
0000
0010
0001
0000
0000
0000
0000
0110
0000
0000
0000
,
1000
0100
0001
0100
1000
0010
0001
0000
,
0011
1010
0011
1010
,
1000
0010
0100
0000
0010
0000
0010
0000
,
0001
0000
0010
0000
0100
0000
1000
0100
0000
0000
0000
0000
1001
0000
0000
0000
,
0100
0001
0100
0001
0100
0001
0100
0001
,
0010
0100
0010
0100
0010
0100
0010
0100
,
1000
0100
1000
0100
1000
0100
1000
0100
,
0010
1000
0010
1000
0010
1000
0010
1000
,
0001
0100
0001
0100
0001
0100
0001
0100
,
0010
0001
0010
0001
0010
0001
0010
0001
,
1000
0001
1000
0001
1000
0001
1000
0001
,
1000
0100
0001
0000
0001
0100
1000
0000
,
0001
1000
0001
1000
0001
1000
0001
1000
,
0010
0100
0010
0100
0010
0100
0010
0100
,
1000
0010
1000
0010
1000
0010
1000
0010
,
0001
0100
0001
0100
0001
0100
0001
0100
,
0010
0100
0010
0100
0010
0100
0010
0100
,
0001
1000
0001
1000
0001
1000
0001
1000
,
0100
1000
0100
1000
0100
1000
0100
1000
,
0100
0001
0100
0001
0100
0001
0100
0001
,
1100
1000
0100
0001
0100
1000
0101
0000
,
0001
0100
0000
0001
0100
0000
0000
0000
0100
1000
0000
0100
1000
0000
0000
0000
,
1010
0000
0010
0000
0110
0000
0000
0000
0001
1000
0001
1000
0001
1000
0001
0000
,
0100
0000
1000
0000
0010
0000
0001
1000
0000
0000
0100
0000
0010
0000
0000
0000
,
1100
0001
0100
0010
0100
0001
1010
0000
,
0100
0010
0000
0010
0100
0000
0000
0000
0001
1000
0000
1000
0001
0000
0000
0000
,
0100
0000
0001
0000
1100
0000
0000
0000
0100
0010
0100
0010
0100
0010
0100
0000
,
0001
0000
1000
0000
0010
0000
0100
0001
0000
0000
0000
0000
0110
0000
0000
0000
,
0101
0100
1000
0100
0001
0100
1000
0100
,
0010
0010
0010
0010
0010
0010
0010
0010
,
0100
1000
0100
0000
0010
0000
0001
0000
,
1100
0101
1100
0101
,
0001
1000
0001
1000
0010
0100
0010
0100
,
0001
0001
0001
0001
0001
0001
0001
0001
,
0100
0001
0100
0000
1000
0000
1000
0000
,
0011
1010
0011
1010
,
1000
0100
0010
0001
1000
0100
0010
0000
,
0001
0100
0000
0000
0001
0100
0000
0000
0010
1000
0000
0000
0010
1000
0000
0000
,
0001
1000
0001
0000
1001
0000
0110
0000
,
0001
0000
0010
0000
0100
0000
1000
0010
0000
0000
0000
0000
1100
0000
0000
0000
,
0001
0010
0100
1000
0001
0010
0100
0000
,
1000
0100
0000
0000
1000
0100
0000
0000
0010
0001
0000
0000
0010
0001
0000
0000
,
1000
0100
0001
0000
0101
0000
1100
0000
,
1000
0100
0010
0001
1000
0100
0010
0001
,
0202
0000
0000
0000
,
0000
0000
0000
0303
;

//---------------dance-single - ----------------
#NOTES:
     dance-single:
     :
     Medium:
     5:
     0.340,0.399,0.059,0.227,0.000,212.000,6.000,23.000,0.000,0.000:
0000
0000
0000
0000
,
0000
0000
0000
0000
,
0000
0000
0000
0000
,
0000
0000
0000
0000
,
0000
0000
0000
0000
,
0000
0000
0000
0000
,
0000
0000
0000
0000
,
0000
0000
0000
0000
,
1000
0000
0001
0000
0100
0010
0100
0000
,
1000
1000
0001
0001
,
0100
1000
0100
0000
0001
0000
0001
0000
,
0200
0320
0230
0000
,
0301
0000
1000
0000
0010
0001
0010
0000
,
1000
1000
0100
0100
,
0010
1000
0010
0000
0001
0000
0001
0000
,
0200
0302
0203
0000
,
0301
0000
0010
0000
0100
0000
1000
0100
,
0001
0000
0010
0000
0100
0000
1000
0010
,
0001
0000
0010
0000
0100
0000
1000
1000
,
0001
0000
0010
0000
0100
0000
1000
0100
,
0001
0000
0010
0000
0100
0000
1000
0010
,
0001
0000
0010
0000
0100
0000
1000
1000
,
0001
0010
0100
1000
,
1000
0100
0001
0100
,
1000
0000
0100
0000
0010
0000
0001
0100
,
1000
0000
0100
0000
0010
0000
0001
0010
,
1000
0000
0100
0000
0010
0000
0001
0001
,
1000
0000
0100
0000
0010
0000
0001
0100
,
1000
0000
0100
0000
0010
0000
0001
0010
,
1000
0000
0100
0000
0010
0000
0001
0001
,
1000
0100
0010
0001
,
0202
0000
0000
0303
,
1000
0010
0100
0001
1000
0010
0100
0000
,
0010
0010
0100
0100
,
0001
1000
0002
0000
0000
0000
0000
0000
,
0103
1000
0100
0010
0000
0000
0010
0000
,
0100
0001
0100
0010
0100
1000
0100
0000
,
0010
0010
0100
0100
,
1000
0001
2000
0000
0000
0000
0000
0000
,
0002
0000
0000
3003
,
2000
3100
0002
0103
,
0200
0000
0000
0000
,
0301
0101
0100
0100
,
0002
0023
2030
3200
,
0302
0013
2000
3010
,
0020
0000
0000
0000
,
0130
0110
0001
1000
,
0100
0100
0100
0100
,
0100
0001
0100
0010
0100
1000
0100
0000
,
0001
1000
0001
1000
,
0010
0001
0010
0000
0100
0000
1000
0000
,
1000
0100
0010
0001
0010
0000
1001
0000
,
1000
0010
0100
0001
1000
0010
0100
0000
,
1000
0100
1000
0100
,
1000
0010
1000
0000
0100
0000
0001
0000
,
0100
0010
0100
0010
0100
0000
1001
0000
,
0220
0000
0000
0000
,
0000
0000
0000
0330
;

//---------------dance-single - ----------------
#NOTES:
     dance-single:
     :
     Beginner:
     1:
     0.127,0.199,0.020,0.059,0.000,82.000,2.000,6.000,0.000,0.000:
0000
0000
0000
0000
,
0000
0000
0000
0000
,
0000
0000
0000
0000
,
0000
0000
0000
0000
,
0000
0000
0000
0000
,
0000
0000
0000
0000
,
0000
0000
0000
0000
,
0000
0000
0000
0000
,
1000
0000
0100
0100
,
0100
0000
0010
0000
,
0010
0000
0000
0000
,
0100
0000
0000
0000
,
1000
0000
0001
0001
,
0001
0000
1000
0000
,
1000
0000
0000
0000
,
0001
0000
0000
0000
,
1000
0000
0000
0000
,
0100
0000
0000
0000
,
0010
0000
0000
0000
,
0001
0000
0000
0000
,
1000
0000
0000
0000
,
0100
0000
0000
0000
,
0010
0000
0000
0000
,
0001
0000
1001
0000
,
0001
0000
0000
0000
,
0010
0000
0000
0000
,
0100
0000
0000
0000
,
1000
0000
0000
0000
,
0001
0000
0000
0000
,
0010
0000
0000
0000
,
0100
0000
0000
0000
,
2000
0000
0000
3000
,
1000
0000
0010
0010
,
0010
0000
0100
0000
,
1000
0000
0000
0000
,
0002
0000
0000
0003
,
0001
0000
1000
1000
,
1000
0000
0010
0000
,
0100
0000
0000
0000
,
0020
0000
0000
0030
,
0010
0000
1000
0000
,
0001
0001
0001
0001
,
0001
0000
0000
0000
,
0100
0100
0100
0100
,
0100
0000
0001
0000
,
1000
1000
1000
1000
,
1000
0000
0000
0000
,
0010
0010
0010
0010
,
0010
0000
0100
0000
,
0001
0000
1000
0000
,
0010
0000
0000
0000
,
0200
0000
0000
0300
,
0100
0000
0001
0000
,
0010
0000
1000
0000
,
1001
0000
0000
0000
,
0020
0000
0000
0030
,
0000
0100
0100
0200
,
0000
0000
0000
0300
;

//---------------dance-single - ----------------
#NOTES:
     dance-single:
     :
     Easy:
     3:
     0.195,0.285,0.197,0.049,0.000,113.000,20.000,5.000,0.000,0.000:
0000
0000
0000
0000
,
0000
0000
0000
0000
,
0000
0000
0000
0000
,
0000
0000
0000
0000
,
0000
0000
0000
0000
,
0000
0000
0000
0000
,
0000
0000
0000
0000
,
0000
0000
0000
0000
,
1000
0100
0010
0100
,
0001
1000
0001
1000
,
1001
0000
0000
0000
,
0010
0100
0110
0000
,
0100
0001
0100
1000
,
0100
0010
0001
0100
,
0101
0000
0000
0000
,
1000
0001
1001
0000
,
0001
0000
0000
0000
,
0100
0000
0000
0000
,
0010
0000
0000
0000
,
1000
0000
0000
0000
,
0001
0000
0000
0000
,
0100
0000
0000
0000
,
0010
0000
0000
0000
,
1000
0100
0001
0100
,
1000
0000
0000
0000
,
0010
0000
0000
0000
,
0100
0000
0000
0000
,
0001
0000
0000
0000
,
1000
0000
0000
0000
,
0010
0000
0000
0000
,
0100
0000
0000
0000
,
0002
0000
0000
0000
,
1003
0100
0001
0010
,
0001
0010
0100
1000
,
1001
0000
0000
0000
,
1000
0100
1100
0000
,
0100
0001
0010
1000
,
0100
0010
1000
0010
,
0110
0000
0000
0000
,
0010
0001
0011
0000
,
0100
0001
0100
0001
,
0200
0000
0000
0000
,
0301
0000
0000
0000
,
0101
1100
0101
1100
,
1000
0010
1000
0010
,
0002
0000
0000
0000
,
1003
0000
0000
0000
,
0011
1010
0011
1010
,
1000
0100
0010
0001
,
0010
0100
0010
1000
,
1010
0000
0000
0000
,
0001
0100
0101
0000
,
1000
0001
1000
0001
,
0100
0010
0100
0010
,
0110
0000
0000
0000
,
0001
0010
0100
1000
,
2002
0000
0000
0000
,
0000
0000
0000
3003
;
