#TITLE:Chaoz Survivor;
#SUBTITLE:;
#ARTIST:ParagonX9;
#TITLETRANSLIT:;
#SUBTITLETRANSLIT:;
#ARTISTTRANSLIT:;
#CREDIT:;
#BANNER:chaoz-survivor-bn.png;
#BACKGROUND:chaoz-survivor-bg.png;
#LYRICSPATH:;
#CDTITLE:!cdtitle.PNG;
#MUSIC:ParagonX9 - Chaoz Survivor.mp3;
#OFFSET:0.000;
#SAMPLESTART:11.484;
#SAMPLELENGTH:10.718;
#SELECTABLE:YES;
#BPMS:0.000=180.020;
#STOPS:29.000=1.480
;
#BGCHANGES:;
// cache tags:
#FIRSTBEAT:0.500;
#LASTBEAT:286.000;
#SONGFILENAME:Songs/Keyboard Collaboration II/Zaghurim - Chaoz Survivor/chaoz-survivor.sm;
#HASMUSIC:1;
#HASBANNER:1;
#MUSICLENGTH:99.500;
// end cache tags

//---------------dance-single - ----------------
#NOTES:
     dance-single:
     :
     Hard:
     12:
     1.000,1.000,0.854,0.000,1.000,672.000,85.000,0.000,0.000,0.000:  // measure 1
0000
0010
1000
0010
1000
0010
0010
0010
,  // measure 2
0010
0100
1000
0100
1000
0100
0100
0100
,  // measure 3
0100
1000
0001
1000
0001
1000
1000
1000
,  // measure 4
1000
0010
0100
0010
0100
0001
0001
0001
,  // measure 5
0001
0010
1000
0010
1000
0010
0010
0010
,  // measure 6
0010
0100
1000
0100
1000
0010
0010
0010
,  // measure 7
0010
0001
1000
0001
1000
0001
0001
0001
,  // measure 8
0001
0000
1000
0100
0010
0000
0000
0000
1001
0000
0100
0000
0011
0000
1000
0010
,  // measure 9
1000
0000
1000
0000
0101
0000
0000
0100
1000
0000
0100
0000
0011
0000
0100
0000
,  // measure 10
0000
0000
0100
0000
0011
0000
0100
0000
0100
0000
0000
0000
0011
0000
0000
0100
,  // measure 11
1000
0000
1000
0000
0101
0000
0000
0100
1000
0000
0100
0000
1010
0000
0100
0000
,  // measure 12
0100
0000
0100
0000
1001
0000
0100
0000
0100
0000
0000
0000
0101
0000
0000
0010
,  // measure 13
0100
0000
0100
0000
0011
0000
0000
0100
1000
0000
1000
0000
0011
0000
1000
0000
,  // measure 14
0000
0000
1000
0000
0011
0000
0100
0000
0100
0000
0100
0000
1001
0000
1000
0001
,  // measure 15
0010
0000
0010
0000
1001
0000
0100
0010
0100
0000
0100
0000
0011
0000
1000
0001
,  // measure 16
0100
0010
1000
0010
0001
0010
0100
0000
1001
0000
0100
0000
1001
0000
0000
0010
,  // measure 17
0100
0000
0100
0000
0011
0000
0000
1000
0100
0000
0100
0000
0011
0000
0100
0000
,  // measure 18
0000
0000
0100
0000
0011
0000
1000
0000
1000
0000
0000
0000
0011
0000
0000
0100
,  // measure 19
1000
0000
1000
0000
0011
0000
0000
0100
1000
0000
1000
0000
0011
0000
1000
0000
,  // measure 20
1000
0000
1000
0000
0101
0000
0100
0000
0100
0000
0000
0000
0011
0000
0000
1000
,  // measure 21
0000
0000
1000
0000
0011
0000
0000
0100
1000
0000
1000
0000
0011
0000
1000
0000
,  // measure 22
0000
0000
1000
0000
0011
0000
0100
0000
0100
0000
0000
0000
0011
0000
0000
1000
,  // measure 23
0000
0000
1000
0000
0011
0000
0000
0100
1000
0000
0010
0000
1000
0000
0010
0000
,  // measure 24
1000
0000
0010
0000
1000
0000
1000
0000
1001
0000
0100
0000
0011
0000
1000
0010
,  // measure 25
0100
0000
0100
0000
0011
0000
0100
0000
0001
0000
1000
0100
0010
0000
0100
0001
,  // measure 26
0100
0000
0100
0010
0001
0000
0100
0000
0100
0000
0010
0000
0001
0000
0100
1000
,  // measure 27
0010
0100
0001
0000
0010
0000
0100
0000
0100
0000
1000
0100
0010
0000
0100
0001
,  // measure 28
0010
0000
0010
0001
0100
0000
0100
0010
1000
0000
0100
0000
0010
0000
1000
0001
,  // measure 29
0100
0001
1000
0000
0110
0000
1000
0000
0100
0000
0010
0000
0001
0000
0100
0001
,  // measure 30
1000
0010
0100
0000
0001
0000
1000
0000
1000
0100
0010
0001
0100
0010
1000
0100
,  // measure 31
0010
0001
0100
0010
1000
0100
0010
0001
0100
0000
0000
0000
0010
0000
0000
0000
,  // measure 32
0001
0000
0000
1001
0000
0010
1000
0100
0010
0001
0100
0010
,  // measure 33
1000
0100
0010
0001
0100
0010
0100
0010
1000
0010
0100
0001
,  // measure 34
0100
0010
1000
0010
0100
0001
0100
1000
0010
0100
0001
0010
,  // measure 35
0100
1000
0010
0100
0001
0010
1000
0100
0010
1000
0010
0100
,  // measure 36
0001
0100
0010
1000
0010
0100
0001
0100
0001
1000
0010
0100
,  // measure 37
0001
1000
0010
0100
0001
1000
0001
1000
0100
0001
1000
0100
,  // measure 38
0001
1000
0100
0001
1000
0100
0010
1000
0100
0010
1000
0100
,  // measure 39
0010
1000
0100
0010
1000
0100
0001
0010
1000
0100
0001
0010
,  // measure 40
1000
0100
0010
0100
0010
0001
0110
1000
0100
0010
0100
1000
,  // measure 41
0010
0100
1000
0010
0100
1000
0010
0100
0010
0100
0010
1000
,  // measure 42
0100
0010
1000
0100
1000
0010
0100
0010
0001
1000
0001
0010
,  // measure 43
1000
0010
0100
0010
0100
1000
0010
1000
0001
1000
0100
0001
,  // measure 44
0100
1000
0010
1000
0010
0100
1000
0100
0010
1001
0000
0000
,  // measure 45
0100
0000
0010
0101
0000
0000
1000
0100
0010
0101
0000
0000
,  // measure 46
0100
0000
0100
0011
0000
0000
0100
0001
0100
1010
0000
0000
,  // measure 47
1000
0010
1000
0011
0000
0000
0010
0100
0010
0001
0100
0001
,  // measure 48
0010
0000
0000
0000
1000
0000
0000
0000
0010
0000
0000
0000
0100
0000
0000
0000
1000
0000
0000
0000
0100
0000
0000
0000
1001
0000
0000
0000
0000
0000
0010
0000
0000
0000
0000
0000
0000
0000
0000
0010
0000
0000
0000
0000
0000
0000
0000
0000
,  // measure 49
0100
0000
0000
0100
0000
0000
0001
0010
0100
1000
0010
0000
0000
0010
0000
0000
,  // measure 50
0100
0000
0000
0100
0000
0000
0001
0010
1000
0100
0010
0000
0000
0010
0000
0000
,  // measure 51
0100
0000
0000
0100
0000
0000
0001
1000
0010
0100
0010
0000
0000
0010
0000
0000
,  // measure 52
0100
0000
0000
0100
0000
0000
0001
0010
1100
0001
0010
0000
0000
0001
0000
0000
,  // measure 53
1000
0000
0000
1000
0000
0000
0100
0001
1000
0010
0001
0000
0000
0001
0000
0000
,  // measure 54
1000
0000
0000
1000
0000
0000
0100
0001
0010
1000
0001
0000
0000
0001
0000
0000
,  // measure 55
1000
0000
0000
1000
0000
0000
0100
0010
0001
1000
0001
0000
0000
0001
0000
0000
,  // measure 56
1000
0000
0000
1000
0000
0000
0100
0010
1001
0000
0000
0100
1001
0000
0100
0000
,  // measure 57
0100
0000
0100
0000
0101
0000
0100
0010
0101
0000
0000
0010
0101
0000
1000
0000
,  // measure 58
1000
0000
1000
0000
0011
0000
1000
0010
1001
0000
0000
0100
1010
0000
0100
0000
,  // measure 59
0100
0000
0100
0000
0110
0000
0010
0001
0110
0000
0000
1000
0110
0000
1000
0000
,  // measure 60
1000
0000
1000
0000
0011
0000
1000
0010
1001
0100
0000
0100
1001
0000
0100
0000
,  // measure 61
0100
0000
0100
0000
1100
0000
1000
0100
0011
1000
0000
1000
0011
0000
0100
0000
,  // measure 62
0100
0000
0100
0000
0101
0000
0010
0100
1001
0100
0000
0100
1001
0000
0100
0000
,  // measure 63
0100
0000
0100
0000
0101
0000
0100
0010
1001
0100
0000
0100
1001
0000
0100
0000
,  // measure 64
0100
0000
0100
0000
1010
0001
0100
0010
1001
0000
0100
0000
1010
0000
0100
0010
,  // measure 65
0000
0100
0010
0000
0110
0000
1000
0100
0010
0000
0100
0010
0101
0000
0100
0010
,  // measure 66
0000
0100
0010
0000
1001
0000
0100
0010
1000
0000
1000
0100
0011
0000
0100
0001
,  // measure 67
0000
0100
0001
0000
1001
0000
0001
0010
0100
0000
1000
0100
0011
0000
1000
0001
,  // measure 68
1000
0010
0100
0000
0110
0000
0010
0001
1000
0100
0000
0010
0101
0000
1000
0001
,  // measure 69
0100
0010
1000
0000
0110
0000
0010
0000
1000
0100
0000
0010
1001
0000
1000
0001
,  // measure 70
0100
0010
0100
0000
0011
0000
0010
0100
1000
0000
0100
0000
1010
0000
0100
0001
,  // measure 71
0100
0010
1000
0000
0110
0000
0010
0000
1000
0100
0000
0010
0000
0010
0000
0010
,  // measure 72
0000
0000
0010
0000
1000
0001
1000
0001
0110
0000
0000
0000
0000
0000
0000
0000
;
