#TITLE:When Demons Awake;
#SUBTITLE:;
#ARTIST:Rhapsody;
#TITLETRANSLIT:;
#SUBTITLETRANSLIT:;
#ARTISTTRANSLIT:;
#CREDIT:;
#BANNER:;
#BACKGROUND:;
#LYRICSPATH:;
#CDTITLE:;
#MUSIC:rhapsody - When Demons Awake.mp3;
#OFFSET:0.360;
#SAMPLESTART:66.547;
#SAMPLELENGTH:12.000;
#SELECTABLE:YES;
#BPMS:0.000=90.000;
#STOPS:;
#BGCHANGES:;
// cache tags:
#FIRSTBEAT:15.000;
#LASTBEAT:379.000;
#SONGFILENAME:Songs/longs versions/When Demons Awake/When Demons Awake.sm;
#HASMUSIC:1;
#HASBANNER:0;
#MUSICLENGTH:254.257;
// end cache tags

//---------------dance-single - ----------------
#NOTES:
     dance-single:
     :
     Hard:
     11:
     1.000,1.000,0.787,0.476,1.000,1569.000,200.000,121.000,0.000,11.000:
0000
0000
0000
0000
,
0000
0000
0000
0000
,
0000
0000
0000
0000
,
0000
0000
0000
0000
0000
0000
0001
0202
,
0000
0000
0000
0303
0000
0000
0000
0000
,
0100
2200
0000
0000
0000
3300
0000
0000
,
0000
0000
0000
1000
0000
2020
0000
0000
0000
0000
0000
0000
0000
3030
0000
0000
,
0000
0000
0000
0001
0022
0000
0000
0000
,
0033
0000
2200
0000
0000
0000
0000
0000
0000
0001
3300
0022
0000
0000
0000
0000
,
0000
0000
0000
0033
0000
0000
0000
0000
0000
0000
0000
0000
0000
0100
0000
0202
,
0000
0000
0000
0000
0000
0000
0000
0303
0000
0000
0000
0000
0000
0000
0000
0100
,
0000
2200
0000
0000
0000
0000
0000
0000
0000
0000
3300
0000
0000
0000
0000
0000
,
0000
0000
0000
1000
0000
2002
0000
0000
0000
0000
0000
0000
0000
3003
0000
0202
,
0000
0000
0000
0000
0000
0000
0000
0000
0000
0000
0000
0000
0000
0000
0303
0000
0000
0000
0000
0000
0000
0000
0000
0000
0000
0000
1000
0100
1000
0000
0001
0010
,
0001
0000
0000
0000
0101
0010
0100
1000
0100
0010
0001
0010
0100
1000
0100
0010
0001
0010
0100
1000
0110
0001
0010
0100
1000
0100
0010
0001
0010
0100
1000
0100
,
0010
0001
0010
0100
1010
0001
0010
0100
1000
0100
0010
0001
0010
0100
1000
0100
0010
0001
0010
0100
2020
0000
0000
0000
3030
0000
0000
0000
2200
0000
0000
0000
,
3300
0000
0000
0000
0202
0000
0000
0000
0303
0000
0000
0000
2002
0000
0000
0000
3003
0000
0000
0000
1010
0100
0010
0001
0010
0100
1000
0100
0010
0001
0010
0100
,
1000
0100
0010
0001
0110
1000
0100
0010
0001
0010
0100
1000
0100
0010
0001
0010
0100
1000
0100
0010
0101
1000
0100
0010
0001
0010
0100
1000
0100
0010
0001
0010
,
0100
1000
0100
0010
0202
0000
0000
0000
0303
0000
0000
0000
0220
0000
0000
0000
0330
0000
0000
0000
2020
0000
0000
0000
3030
0000
0000
0000
0000
0001
0010
0100
,
1000
0100
0010
0001
1000
0100
1000
0010
0100
1000
0100
0010
0001
1000
0100
0010
0001
0010
0100
0001
0010
0001
0010
0100
1000
0100
0010
0001
0010
0100
1000
0100
,
0010
0100
0010
0100
0001
0010
0100
1000
0001
1000
0100
0010
0001
1000
0001
0010
0100
1000
0100
0010
2002
0000
0000
0000
3003
0000
0000
0000
2020
0000
0000
0000
,
3030
0000
0000
0000
0202
0000
0000
0000
0303
0000
0000
0000
2200
0000
0000
0000
3300
0000
0000
0000
0001
0010
0100
1000
0001
0010
0100
1000
0100
0010
0001
1000
,
0100
1000
0100
0001
0100
0001
0010
0100
1000
0100
0001
0010
0001
0100
1000
0100
0010
0001
0010
0100
1000
0001
0010
0100
1000
0001
1000
0100
0010
0001
1000
0001
,
0010
0100
1000
0100
2020
0000
0000
0000
3030
0000
0000
0000
0202
0000
0000
0000
0303
0000
0000
0000
0022
0000
0000
0000
0033
0000
0000
0000
2020
0000
0000
0000
,
3030
2002
3003
0202
0303
2200
3300
2020
,
3030
1000
0100
0001
1010
0001
0100
0010
,
0101
1100
0000
0011
0000
0110
0000
2200
,
0000
0000
0000
0000
0000
0000
0000
0000
0000
0000
3300
0000
0001
0010
0100
1000
0100
0010
0001
0010
0100
1000
0100
0010
0001
1000
0100
1000
0001
0010
0100
1000
,
0010
0001
0010
1000
0100
1000
0010
0100
1000
0100
0010
0001
0010
0100
1000
0100
1000
0100
0010
0001
0010
1000
0100
1000
0100
0010
0001
0010
0101
0000
1010
0000
,
0110
0000
1001
0000
0011
0000
1100
0000
1001
0010
0100
1000
0100
0010
0001
0010
1000
0100
1000
0100
0010
0001
0010
0100
1000
0100
0010
0001
0010
0100
1000
0100
,
0010
0001
0010
0100
1000
0100
0010
0001
0010
0001
0010
0100
1000
0100
0010
0001
0010
0100
1000
0100
0010
0001
0010
0100
1000
0100
0011
0000
0110
0000
0000
0000
,
1010
0000
0110
0000
0000
0000
1100
0000
0101
0000
0000
0000
0000
0000
1001
0010
0100
1000
0100
0001
0010
0001
1000
0100
0010
0001
0010
1000
0100
0010
0001
0010
,
0100
1000
0100
0010
0001
0010
0001
0010
0100
1000
0010
0001
0010
0100
1000
0100
0010
0001
0010
0100
1000
0100
0010
0100
1000
0100
0010
0001
0110
0000
0101
0000
,
0000
0000
1100
0000
0011
0000
0000
0000
0101
0000
1010
0000
0000
0000
1001
0100
0010
0001
0010
0100
1000
0001
0010
0001
0010
0100
1000
0100
0010
0001
1000
0100
,
1000
0100
0010
0100
0010
0100
0010
0001
0010
0100
1000
0100
0010
0001
1000
0100
1000
0010
0001
0010
0100
1000
0100
0010
0001
0100
1000
0100
0011
0000
1010
0000
,
0000
0000
1010
0000
0110
0000
0000
0000
1001
0000
1010
0000
0000
0000
1010
0000
0011
0000
0000
0000
0110
0000
1010
0000
0000
0000
0010
0001
1000
0100
0010
0001
,
0100
1000
0100
0010
0001
0100
0010
1000
0001
0100
1000
0010
0001
0010
0100
1000
0100
0010
0001
0010
2002
0000
0000
0000
0000
0000
0000
0000
0000
0000
3003
0000
,
0000
0000
0000
0000
0001
0010
0100
1000
0100
0010
0001
0010
1000
0100
0001
0010
0100
1000
0100
0010
0100
0001
0010
0100
1000
0100
0001
0010
0001
0100
1000
0100
,
1000
0010
0001
0010
0100
0010
0001
1000
0100
0010
0001
0100
1000
0100
0001
0010
0100
1000
0100
0010
0100
1000
0100
0001
0010
0100
1000
0100
0010
0001
1000
0100
,
0001
0010
0001
0010
1000
0100
0010
0001
0010
0100
1000
0100
0001
0010
1000
0001
0100
0010
1000
0001
0010
0100
1000
0100
0010
1000
0100
1000
0010
0001
0010
0100
,
1000
0100
0010
0001
0010
0100
0001
0010
0100
1000
0100
0010
0001
1000
0100
0010
0001
1000
0100
0010
0001
0010
0100
1000
0100
0010
1000
0100
1000
0001
0010
1000
,
0100
0010
0001
0100
1000
0100
0001
0010
1000
0100
0001
0010
0100
1000
0100
0010
0001
0100
1000
0100
0001
0010
0100
1000
0100
0001
0010
0100
1000
0001
0010
0100
,
1000
0100
0010
0001
0010
0100
1000
0100
0010
0001
0010
0100
1000
0010
0001
0010
0001
0010
0100
1000
0110
0000
0011
0000
0000
0000
0110
0000
1010
0000
0000
0000
,
0101
0000
0110
0001
0010
0100
1000
0100
0010
0001
0010
0100
0010
1000
0100
1000
0100
0010
0001
0010
0100
1000
0100
0010
0100
1000
0001
0010
0100
0010
0100
0001
,
0010
0100
1000
0100
0010
0001
0010
0001
0010
0100
1000
0100
0010
0001
0010
1000
0100
0010
0001
0010
0101
0000
0011
0000
0000
0000
1100
0000
0110
0000
0000
0110
,
1100
0110
1100
0000
0110
0000
1100
0000
0000
0000
1100
0000
1010
0000
0000
0110
0011
0110
0011
0000
0202
0000
0000
0000
0000
0300
0000
0000
0000
0000
0000
0000
,
0123
2000
0200
3000
0000
0302
0000
0030
0003
0000
2100
0000
0000
0000
0000
0000
,
3200
0020
0302
0030
0003
0000
0000
0000
0000
0000
0002
0000
0000
0000
0000
0000
,
0023
0000
0000
0000
0230
0000
0000
0000
0000
0000
0000
0000
2000
0000
0000
0000
0000
0000
0300
0000
3200
0000
0000
0020
0000
0000
0302
0000
0030
0000
0000
0000
,
0003
0000
0000
0000
2000
0000
0000
0000
0000
0000
0000
0000
3000
0000
0000
0000
0000
0000
0000
0000
0020
0000
0000
0000
0000
0000
0000
0000
0000
0000
0000
0200
,
0030
0000
2300
0000
0000
0000
0000
0000
0000
0000
0200
0000
3000
0000
0000
0000
0000
0000
0020
0000
0300
0000
0030
0000
0000
2000
0000
0000
0000
0000
0000
0000
,
0002
0000
0000
3000
0200
0000
0000
0003
0000
0000
0000
0300
0020
0000
0000
0000
0000
0000
0000
0030
2000
0000
0000
0000
0000
0000
0000
0000
0000
0000
0000
3000
,
0012
0000
0000
0020
0000
0000
0000
0000
0033
0200
0000
0000
2000
0000
0300
0000
3200
0000
0000
0000
0020
0000
0000
0000
0000
0000
0000
0000
0000
0000
0000
0000
,
0330
0000
0000
0000
2002
0000
0000
0000
0000
0000
0000
0000
0000
0000
0000
0000
0000
0000
0000
0000
0000
3003
0010
0100
1000
0100
0010
0001
1000
0001
1000
0001
,
1000
0010
0100
1000
0100
0010
0001
0010
0100
1000
0100
1000
0010
0001
0010
0100
0010
0001
1000
0100
0010
0001
1000
0100
1000
0100
0010
0100
1000
0100
0010
0001
,
0010
0100
1000
0100
0001
0010
0001
0010
0100
0001
0010
0100
1000
0100
0010
0001
0100
1000
0010
0001
0100
0001
0010
1000
0100
0010
0001
0100
0001
0010
0100
1000
,
0100
0010
0001
0010
0100
1000
0100
0010
0001
0010
0100
1000
0001
0100
0001
0010
0001
0100
0001
0010
0100
1000
0100
1000
0010
1000
0100
1000
0100
0010
0001
0100
,
1000
0100
0001
0010
1000
0100
0010
0001
0100
1000
0100
0010
0001
0010
0100
1000
0001
0010
0100
0010
1000
0100
0010
0001
0010
0100
0001
0010
1000
0100
0010
0001
,
0010
0100
0010
0001
0100
1000
0100
0010
0001
0100
0010
0100
1000
0001
0010
1000
0100
0010
0001
0010
0100
0001
0010
1000
0100
0010
0001
0010
0100
1000
0001
0010
,
0100
1000
0100
0010
1000
0100
0010
0100
1000
0100
1000
0010
1000
0010
0001
0010
0100
1000
0100
0010
0001
1000
0100
0010
0100
1000
0100
0010
0001
0010
0100
1000
,
0100
0010
1000
0100
1000
0010
0001
1000
0100
0001
0010
1000
0100
0010
0001
0010
0100
1000
0100
0010
0100
0010
0001
0010
0100
1000
0100
0010
0001
0010
0001
0010
,
0100
0000
0000
0000
0000
0000
1000
0000
0000
0000
0000
0000
0100
0000
0000
0000
0000
0000
0010
0000
0000
0000
0000
0000
0100
0000
0000
0000
0000
0000
1000
0000
0000
0000
0000
0000
0100
0000
0000
0000
0000
0000
0010
0000
0000
0000
0000
0000
0001
0000
0000
0000
0010
0000
0000
0000
0001
0000
0000
0000
0010
0000
0000
0000
0001
0000
0000
0000
0000
0000
0000
0000
0000
0000
0000
0000
1000
0000
0000
0000
0100
0000
0000
0000
1000
0000
0000
0000
0100
0000
0000
0000
1000
0000
0000
0000
0000
0000
0000
0000
0000
0000
0000
0000
0000
0000
0000
0000
0000
0000
0000
0000
0000
0000
0000
0000
0000
0000
0000
0000
0000
0000
0000
0000
0000
0000
0011
0000
0000
0000
0000
0000
0100
0000
0000
0000
0000
0000
0010
0000
0000
0000
0000
0000
0001
0000
0000
0000
0000
0000
0010
0000
0000
0000
0000
0000
0100
0000
0000
0000
0000
0000
1000
0000
0000
0000
0000
0000
0100
0000
0000
0000
0000
0000
0010
0000
0000
0000
0000
0000
0001
0000
0000
0000
0000
0000
0010
0000
0000
0000
0000
0000
,
0100
1000
0100
0010
0001
0110
1000
0100
0010
0001
0010
0100
1000
0100
0010
0001
0010
0100
1000
0100
0010
1100
0010
0001
0010
0100
1000
0100
0010
0001
0010
0100
,
1000
0100
0010
0001
2010
0000
0000
0000
3000
0000
0000
0000
0021
0000
0000
0000
0030
0000
0000
0000
0102
0000
0000
0000
0003
0000
0000
0000
1200
0000
0000
0000
,
0300
0000
0000
0000
0000
1100
0010
0100
1000
0100
0010
0001
0010
0100
1000
0100
0010
0001
0010
0100
1000
0110
0001
0010
0100
1000
0100
0010
0001
0010
0100
1000
,
0100
0010
0001
0010
0100
0011
0100
1000
0100
0010
0001
0010
0100
1000
0100
0010
0001
0010
0100
0010
0100
2001
0000
0000
0000
3000
0000
0000
0102
0000
0000
0000
,
0003
0000
0000
0000
0210
0000
0000
0000
0300
0000
0000
0000
1020
0000
0000
0000
0030
0000
0000
0000
0000
0000
1001
0100
0010
0001
0010
0100
1000
0001
0010
0001
,
1000
0100
0001
0010
0100
1000
0001
0010
1000
0100
0010
0001
0010
0100
1000
0100
0010
0001
0010
0001
1000
0001
1000
0100
0010
0001
1000
0001
0010
0100
1000
0001
,
1000
0100
0010
0001
0010
2100
0000
0000
0000
3000
0000
0000
0201
0000
0000
0000
0300
0000
0000
0000
0012
0000
0000
0000
0003
0000
0000
0000
1020
0000
0000
0000
,
0030
0000
0000
0000
0011
0100
1000
0100
0010
0001
0010
0100
1000
0100
0010
0001
1000
0100
0001
0010
0100
1000
0100
0010
0100
1000
0100
0010
0001
0010
0100
0010
,
0001
0010
0100
0001
0010
0100
1000
0100
0010
0001
1000
0001
0010
0100
1000
0001
1000
0100
0010
0001
0010
2100
0000
0000
0000
3000
0000
0000
0201
0000
0000
0000
,
0300
0012
0003
1020
0030
2001
3000
0102
,
0003
0210
0300
1020
0030
0001
0010
0100
,
1010
0100
0010
0001
0110
1001
0000
0110
,
0000
0011
0000
2200
0000
0000
0000
0000
,
3310
0001
0010
0100
1000
0100
0010
0001
0010
0100
0001
0010
1000
0100
0010
0001
0010
1000
0100
0001
0010
0100
0001
0010
1000
0100
0010
0001
0010
0100
1000
0001
,
0010
0100
0010
0100
1000
0100
0010
0001
0010
0100
0010
0001
0100
0001
0010
0001
0100
1000
0100
1000
0010
1000
0100
0010
0001
0010
0100
0010
0100
1000
0100
0010
,
0001
0010
0100
1000
0100
1000
0010
0001
0010
0100
1000
0100
0010
1000
0100
0001
0010
0100
1000
0100
0001
0010
1000
0100
0010
0001
0010
0100
1000
0100
0010
0001
,
0010
0100
1000
0001
0010
1000
0100
0010
0001
1000
0100
0001
0010
0100
1000
0100
1000
0010
1000
0100
0010
0001
0010
0001
0100
0001
0010
0100
0010
0100
1000
0100
,
0010
0001
0010
0001
0010
0001
0010
0100
0010
0100
0010
0100
0010
0100
1000
0100
1000
0100
1000
0100
0010
0001
0010
0100
1000
0100
0010
0001
0010
0100
1000
0100
,
0010
0001
0010
0001
0010
0001
0010
0001
0010
0100
0010
0100
0010
0100
0010
0100
1000
0100
1000
0100
1000
0100
1000
0100
0010
0001
0010
0100
1000
0100
0010
0001
,
0010
0100
1000
0100
1000
0100
1000
0100
1000
0100
0010
0100
0010
0100
0010
0100
0010
0001
0010
0001
0010
0001
0010
0100
1000
0100
0010
0001
0010
0100
1000
0100
,
0010
0001
0010
0100
1000
0100
0010
0001
0010
0100
1000
0100
0010
0001
0010
0000
0100
0000
1000
0000
0100
0010
0001
0010
0100
0000
1000
0010
0201
0000
0000
0000
,
0000
0011
0000
1010
0000
1001
0000
0011
,
0300
0110
0000
1100
0000
1010
0000
0011
,
0000
0101
0000
1001
0000
1100
0000
0110
,
0000
0011
0000
1010
0000
0101
0000
1001
,
1010
0000
1100
0110
1100
0000
0000
0011
,
0101
0000
0000
0000
1010
0000
0011
0110
1100
0000
0000
0000
0000
0000
0101
0000
,
1100
0000
0011
1100
0011
0000
0000
1001
,
0101
0000
0000
0000
1100
0000
0101
0110
0101
0000
1010
0110
1010
0000
1100
0000
,
0110
0000
0011
0110
1100
0000
0000
0101
,
0110
0000
0000
0000
1100
0000
0011
0110
0011
0000
0000
0000
0000
0000
1100
0000
,
0110
0000
1010
0110
0101
0000
0000
1001
,
0110
0000
0000
0000
1100
0000
0110
1001
0110
0000
1001
0110
1001
0000
0000
0000
;
