#TITLE:Initial D;
#SUBTITLE:- Space Boy;
#ARTIST:Dave Rodgers;
#TITLETRANSLIT:;
#SUBTITLETRANSLIT:;
#ARTISTTRANSLIT:;
#CREDIT:;
#BANNER:InitialDLogo.png;
#BACKGROUND:InitialDbg.png;
#LYRICSPATH:;
#CDTITLE:;
#MUSIC:InitialD.mp3;
#OFFSET:0.660;
#SAMPLESTART:37.851;
#SAMPLELENGTH:12.000;
#SELECTABLE:YES;
#BPMS:0.000=155.760;
#STOPS:;
#BGCHANGES:12.000=initiald.avi=1.000=0=0=1,
252.000=initialdbg.png=1.000=0=0=1,
99999=-nosongbg-=1.000=0=0=0 // don't automatically add -songbackground-
;
// cache tags:
#FIRSTBEAT:11.250;
#LASTBEAT:255.500;
#SONGFILENAME:Songs/Anime Songs/Initial D/InitialD.sm;
#HASMUSIC:1;
#HASBANNER:1;
#MUSICLENGTH:100.469;
// end cache tags

//---------------dance-single - BASIC----------------
#NOTES:
     dance-single:
     BASIC:
     Easy:
     4:
     0.338,0.381,0.239,0.040,0.000,210.000,24.000,4.000,0.000,0.000:




0000
0000
0000
0000
,
0000
0000
0000
0000
,
0000
0000
0000
0000
0000
0000
0000
0020
,
0000
0000
0000
0000
,
0000
0000
0000
0000
0000
0030
0000
0200
,
0000
0000
0000
0000
,
0000
0000
0000
0000
0000
0300
0000
0020
,
0000
0000
0000
0000
,
0000
0000
0000
0000
0000
0030
0000
0000
,
0000
0001
0000
0001
0000
0001
0000
0001
,
0000
0001
0000
0001
0000
0000
0000
1001
,
0000
0000
0000
0110
0000
0000
0000
1001
,
0000
0100
0000
1000
0000
0010
0000
0001
,
0000
0100
0000
0001
0000
1000
0000
0001
,
0000
0100
0000
0010
0000
0100
0000
0100
,
0000
0100
0000
1001
0000
1001
0000
0010
,
0000
0010
0000
0010
0000
1000
0000
0001
,
0000
0100
0000
1000
0000
0100
0000
0001
,
0000
0100
0000
1000
0000
0001
0000
1000
,
0000
0000
0000
1001
0000
1001
0000
0000
,
0000
0001
0000
0001
0000
0001
0000
0001
,
0000
1000
0000
1000
0000
1000
0000
1000
,
0000
0100
0000
0100
0000
0100
0000
0100
,
0000
0010
0000
0010
0000
0010
0000
0010
,
0000
1000
0000
0001
0000
1000
0000
0001
,
0000
1000
0000
0100
0000
1000
0000
0001
,
0000
0100
0000
0001
0000
0010
0000
1000
,
0000
0010
0000
0001
0000
0010
0000
0001
,
0000
1000
0000
0001
0000
1000
0000
0100
,
0000
0010
0000
0001
0000
0100
0000
1000
,
0000
0001
0000
0100
0000
1000
0000
0001
,
0000
0100
0000
1000
0000
0001
0000
0010
,
0000
1000
0000
0100
0000
0010
0000
0001
,
0000
1000
0000
0100
0000
0010
0000
0001
,
0000
0001
0000
0010
0000
0100
0000
1001
,
0000
0000
0000
0110
0000
0000
0000
1000
,
0000
0001
0000
1000
0000
0001
0000
1000
,
0000
0100
0000
1000
0000
0100
0000
0001
,
0000
0110
0000
0110
0000
0110
0000
0110
,
0000
1000
0000
0010
0000
0100
0000
0010
,
0000
1000
0000
0001
0000
0100
0000
1000
,
0000
0001
0000
0100
0000
0001
0000
0001
,
0000
1000
0000
1000
0000
0100
0000
0010
,
0000
0001
0000
1000
0000
0100
0000
0010
,
0000
0001
0000
0100
0000
1000
0000
0100
,
0000
0010
0000
0001
0000
1000
0000
0100
,
0000
0110
0000
0110
0000
0110
0000
0110
,
0000
0010
0000
0001
0000
0100
0000
1000
,
0000
0001
0000
0010
0000
0100
0000
1000
,
0000
0001
0000
0100
0000
1000
0000
0001
,
0000
0110
0000
0110
0000
0110
0000
0110
,
0000
0001
0000
0010
0000
0001
0000
1000
,
0000
0010
0000
1000
0000
0010
0000
1000
,
0000
0001
0000
1000
0000
0001
0000
0100
,
0000
0010
0000
0001
0000
1000
0000
0000
,
0000
0000
0000
1001
0000
1001
0000
0000
,
0000
1000
0000
1000
0000
0001
0000
0001
,
0000
0100
0000
0100
0000
0010
0000
0010
,
0000
1000
0000
0001
0000
0100
0000
0010
,
0000
0001
0000
0100
0000
1000
0000
0100
,
0000
0001
0000
0100
0000
0001
0000
1000
,
0000
0001
0000
0100
0000
0010
0000
0001
,
0000
1000
0000
0002
0000
0000
0000
0000
,
0003
0000
0000
1000
0000
1000
0000
1100;

//---------------dance-single - ANOTHER----------------
#NOTES:
     dance-single:
     ANOTHER:
     Medium:
     6:
     0.401,0.445,0.438,0.129,0.040,225.000,44.000,13.000,0.000,0.000:

0000
0000
0000
0000
,
0000
0000
0000
0000
,
0000
0000
0000
0000
0000
0000
0000
0000
0000
0000
0000
0000
0000
0010
0020
0000
,
0000
0000
0000
0000
0000
0000
0000
0000
0000
0000
0000
0000
0000
0000
0000
0030
,
0000
0000
0000
0000
0000
0000
0000
0000
0000
0000
0000
0000
0000
0100
0200
0000
,
0000
0000
0000
0000
0000
0000
0000
0000
0000
0000
0000
0000
0000
0000
0000
0300
,
0000
0000
0000
0000
0000
0000
0000
0000
0000
0000
0000
0000
0000
0110
0220
0000
,
0000
0000
0000
0000
0000
0000
0000
0000
0000
0000
0000
0000
0000
0000
0000
0330
,
0000
0000
0000
1000
0001
1000
0001
0000
,
0000
1100
0000
0101
0000
1100
0000
0101
,
0000
1100
0000
0101
0000
0000
0000
0020
,
0000
0030
0000
0000
0000
0000
0200
0000
0000
0300
0000
0000
0000
0000
0220
0000
,
0000
0330
0000
0000
0000
0000
0010
0000
0000
0000
0001
0000
0000
0000
1000
0000
,
0000
0100
0000
0001
0000
0100
0000
0010
,
0000
1000
0000
0010
0000
0100
0000
1000
,
0000
0100
0000
1001
0000
1001
0000
0010
,
0000
0010
0000
0001
0000
0001
0000
0100
,
0000
0100
0000
1000
0000
1000
0000
0001
,
0000
1000
0001
1000
0001
1000
0001
1000
,
0000
0000
0000
1001
0000
1001
0000
0000
,
0000
0001
0000
0010
0000
0001
0000
0011
,
0000
1000
0000
0100
0000
1000
0000
1100
,
0000
0001
0000
0100
0000
0010
0000
0010
,
0000
0001
0000
1000
0000
0010
0010
1001
,
0000
1000
0000
0010
0000
0100
0000
0001
,
0000
0010
0000
1000
0000
0001
0000
0100
,
0000
0010
1000
0000
1000
0000
1000
2000
,
0000
0000
0000
3000
,
0000
0100
0000
0001
0000
0100
0000
1000
,
0000
0100
0000
0001
0000
0001
0000
1000
,
0000
0010
0000
1000
0000
0010
0000
0010
,
0000
0100
0000
0010
0000
0010
0000
1000
,
0000
0010
0000
0010
0000
0010
0000
0000
,
0010
0010
0000
0100
0010
0100
0000
1000
,
0001
0000
1000
0000
0000
0000
0010
0000
0100
0000
0010
0000
0000
0020
0000
0000
,
0000
0000
0000
0000
0000
0200
0000
0000
0000
0000
0000
0000
0000
0330
0000
0000
,
0000
1001
0000
0010
0100
0000
0000
0000
,
0000
0000
0011
0000
0000
1010
0000
0000
,
0000
0000
0100
0000
0000
0000
0100
0000
0100
0000
0000
0000
0000
0100
0000
0000
,
0000
1010
0000
0011
0000
0110
0000
1001
,
0000
0010
0000
0001
0010
0000
0000
0000
,
0000
0000
1010
0000
0000
0011
0000
0001
,
0000
1000
0000
0100
0000
0001
0000
1000
,
0000
0100
0000
0001
0000
0100
0100
0100
,
0000
0001
0000
1000
1000
0000
0000
0000
,
0000
0000
1001
0000
0000
1001
0000
0000
,
0000
0000
0100
0000
0000
0000
0100
0000
0100
0000
0000
0000
0000
0100
0000
0000
,
0000
0010
0000
0001
0000
1000
0000
1001
,
0000
0010
0000
1000
0001
0000
0000
0000
,
0000
0000
0110
0000
0000
1001
0000
0000
,
0000
0000
0100
0000
0000
0000
0100
0000
0100
0000
0000
0000
0000
0100
0000
0000
,
0000
0001
0000
0001
0000
1000
0000
1000
,
0000
0100
0000
0001
0000
1000
0000
0010
,
0000
0000
1001
0000
0000
1001
0000
1100
,
0000
0011
0000
1100
0000
1010
0000
1001
,
0000
0110
0000
0010
0000
0010
0000
1001
,
0000
1000
0100
1000
0000
0001
0100
0001
,
0000
0100
1000
0100
0000
0010
0001
0010
,
0000
0010
1000
0100
0000
0010
0001
0100
,
0000
1000
0000
1001
0000
1001
0000
1000
,
0100
0001
0000
1000
0100
0001
0000
0001
,
0100
1000
0000
0001
0100
1000
0000
0001
,
1000
0001
0000
0001
1000
0001
0000
2002
,
0000
3003
0000
0010
0000
0110
0000
1001;

//---------------dance-single - MANIAC----------------
#NOTES:
     dance-single:
     MANIAC:
     Hard:
     8:
     0.569,0.540,0.746,0.279,0.060,297.000,75.000,28.000,0.000,0.000:

0000
0000
0000
0000
,
0000
0000
0000
0000
,
0000
0000
0000
0000
0000
0000
0000
0000
0000
0000
0000
0000
0000
0010
0020
0000
,
0000
0000
0000
0030
2020
0000
0000
0000
0000
3030
0022
0000
0000
0000
0000
0033
,
0000
0000
0000
0000
0000
0000
0000
0000
0000
0000
0000
0000
0000
0100
0200
0000
,
0000
0000
0000
0300
2200
0000
0000
0000
0000
3300
0202
0000
0000
0000
0000
0303
,
0000
0000
0000
0000
0000
0000
0000
0000
0000
0000
0000
0000
0000
0110
0220
0000
,
0000
0000
0000
0330
0220
0000
0000
0000
0000
0330
0220
0000
0000
0000
0000
0330
,
0000
0000
0000
0000
0000
0000
1000
0001
1000
0001
1000
0001
1000
0001
0000
0000
,
0000
1001
0000
1001
0000
1001
0000
1001
,
0000
1001
0000
1001
0000
0000
0000
2002
,
0000
3003
0000
0000
0000
0000
0220
0000
0000
0330
0000
0000
0000
0000
0220
0000
,
0330
0010
0000
0010
0000
0001
0000
1000
,
0000
1100
0000
0001
0000
0100
0000
0010
,
0000
1010
0000
0010
0000
0101
0000
1100
,
0000
0100
0000
0110
0000
1001
0000
0010
,
0000
0110
0000
0010
0000
1001
0000
0100
,
0000
0110
0000
0010
0000
1001
0000
0001
,
0000
1001
0000
1000
0000
1001
0000
2002
,
0000
3003
0000
0000
0000
0000
1001
0000
0000
0000
1001
0000
0000
0000
0000
0000
,
0000
0001
0000
0010
0000
0001
0100
1000
,
0000
1000
0000
0100
0000
1000
0100
0001
,
0000
0001
0000
0001
0000
0000
0100
0010
,
0100
0010
0010
1000
1000
0001
0001
1001
,
0000
1000
0000
0001
0000
1000
0010
0001
,
0000
0001
0000
1000
0000
0001
0010
1000
,
0000
0010
0001
0000
1000
0000
1010
2000
,
3000
0020
0030
0200
0300
0002
0003
0000
,
0000
1000
0000
0001
0000
1000
1000
0100
,
0000
1000
0000
0001
0000
0001
0001
0100
,
0000
0010
0000
0100
0000
0010
0100
0001
,
0000
0100
0000
0010
0000
0010
0100
1000
,
0000
0010
0100
0100
0010
0001
1000
0001
,
0110
0110
0000
0110
0000
0110
0000
1001
,
0000
0000
0101
0000
0000
0000
1010
0000
0000
0000
0110
0000
0000
1001
0000
0000
,
0000
0000
0000
0000
0000
0110
0000
0000
0000
0000
0000
0000
0000
0000
0000
0000
,
0000
0001
1000
0010
0100
0000
0000
0000
,
0100
0100
0101
0000
0000
1100
0000
0000
,
0000
0000
1001
0000
0000
0000
0110
0000
0110
0000
0000
0000
0000
1001
0000
0000
,
0000
1000
0100
0010
0100
0010
1000
0001
,
0000
1000
1000
0001
0010
0000
0000
0000
,
0100
0010
0110
0000
0000
0101
0000
0001
,
0100
1000
1000
0100
0001
0001
0100
1000
,
1000
0100
0001
0010
0100
0100
0010
0110
,
0000
0001
0100
0010
1000
0000
0000
0000
,
0010
0010
1001
0000
0000
1001
0000
0000
,
0000
0000
0110
0000
0000
0000
1001
0000
1001
0000
0000
0000
0000
0110
0000
0000
,
0000
0010
0010
0001
1000
0010
1000
0011
,
0000
0010
0010
1000
0001
0000
0000
0000
,
0010
0100
0110
0000
0000
0110
0000
0000
,
0000
0000
1100
0000
0000
0000
0110
0000
0100
0000
0000
0000
0000
0101
0000
0000
,
0000
0001
0010
0001
0100
1000
0100
0001
,
0000
0100
0100
0001
1000
0000
0000
0000
,
0010
0100
1001
0000
0000
1001
0000
1000
,
0100
0001
0100
1000
0100
0001
0100
1000
,
0100
0001
0100
1001
0000
1001
0000
1001
,
0000
1000
0100
1000
0010
1000
0001
0010
,
0001
0100
0001
1000
0010
1000
0100
1000
,
0001
0010
0100
1000
0100
0010
0001
0010
,
0100
1000
0000
1001
0000
1001
0000
1000
,
0100
0001
0100
1000
0100
0001
0100
1000
,
0001
0100
1000
0100
0001
0100
1000
0100
,
0001
0100
1000
0001
0100
1000
0100
0001
,
1000
0000
0000
0110
0000
0110
0000
1001;
