#TITLE:YYZ;
#SUBTITLE:;
#ARTIST:Rush;
#TITLETRANSLIT:;
#SUBTITLETRANSLIT:;
#ARTISTTRANSLIT:;
#CREDIT:;
#BANNER:YYZ bn.png;
#BACKGROUND:YYZ bg.jpg;
#LYRICSPATH:;
#CDTITLE:../CDTitleGD.png;
#MUSIC:Rush - YYZ.ogg;
#OFFSET:10.289;
#SAMPLESTART:46.223;
#SAMPLELENGTH:12.000;
#SELECTABLE:YES;
#BPMS:0.000=22.824,3.000=228.205,23.000=219.205,33.000=208.205,43.000=207.805,53.000=205.205,63.000=204.905,73.000=203.105,83.000=208.405,93.000=204.205,103.000=208.005,113.000=204.605,123.000=119.275,124.000=185.115,125.000=172.705,126.000=112.495,127.000=173.985,128.000=179.575,129.000=174.135,130.000=270.165,138.000=190.445,138.500=260.435,139.000=247.195,139.500=241.775,140.000=236.945,140.500=245.005,141.000=230.975,141.500=234.245,142.000=236.595,142.500=243.555,143.000=226.545,143.500=231.945,144.000=232.925,144.500=191.805,148.500=242.745,149.000=209.455,149.500=171.135,150.000=150.425,152.000=232.995,156.000=124.725,160.000=141.245,164.000=140.005,168.000=138.085,172.000=140.065,176.000=141.565,180.000=142.875,184.000=139.195,188.000=140.555,192.000=136.995,196.000=147.315,200.000=137.355,204.000=143.995,208.000=139.235,212.000=138.995,216.000=142.245,220.000=141.515,224.000=142.795,228.000=138.955,232.000=139.195,236.000=141.355,240.000=140.155,244.000=139.835,248.000=144.595,252.000=139.115,256.000=139.795,260.000=139.675,264.000=141.875,268.000=140.155,272.000=139.875,276.000=141.635,280.000=142.275,284.000=138.475,288.000=140.035,292.000=139.395,296.000=142.315,300.000=140.795,304.000=141.235,308.000=142.515,312.000=139.915,316.000=139.555,320.000=141.835,324.000=141.955,328.000=137.955,332.000=142.115,336.000=141.875,344.000=138.075,348.000=139.625,352.000=141.155,356.000=138.955,360.000=140.115,364.000=143.435,368.000=143.205,372.000=141.835,376.000=140.725,380.000=143.045,384.000=138.365,388.000=141.405,392.000=138.525,396.000=140.445,400.000=141.765,404.000=140.085,408.000=141.925,412.000=140.485,416.000=141.405,420.000=140.325,424.000=140.765,428.000=140.005,432.000=140.965,436.000=139.445,440.000=141.325,444.000=137.005,448.000=143.045,452.000=139.505,456.000=141.125,460.000=70.405,464.000=70.325,468.000=70.685,472.000=70.085,476.000=70.565,480.000=71.005,484.000=69.405,488.000=71.485,492.000=137.325,496.000=142.445,500.000=141.725,504.000=140.645,508.000=140.885,512.000=140.845,516.000=140.485,520.000=141.445,524.000=141.925,528.000=138.125,532.000=140.605,536.000=141.445,540.000=142.045,544.000=140.685,548.000=139.765,552.000=140.885,556.000=141.765,560.000=141.605,564.000=140.285,568.000=139.525,572.000=143.285,576.000=139.045,580.000=140.405,584.000=141.085,588.000=142.845,592.000=138.765,596.000=140.725,600.000=142.325,604.000=138.685,608.000=142.405,612.000=140.565,616.000=139.365,620.000=143.125,622.000=131.805,626.000=126.305,628.000=205.235,633.500=150.365,640.500=176.565;
#STOPS:;
#BGCHANGES:;
// cache tags:
#FIRSTBEAT:13.000;
#LASTBEAT:642.000;
#SONGFILENAME:Songs/Index Fusion - Part 2/YYZ - [ExilityGD]/Rush - YYZ.sm;
#HASMUSIC:1;
#HASBANNER:1;
#MUSICLENGTH:264.614;
// end cache tags

//---------------dance-single - ----------------
#NOTES:
     dance-single:
     :
     Hard:
     10:
     0.807,1.000,0.903,0.408,0.709,1148.000,239.000,108.000,0.000,0.000:
0000
0000
0000
0000
,
0000
0000
0000
0000
,
0000
0000
0000
0000
,
0000
0000
1000
0000
0100
0010
0000
0001
,
0000
1000
0000
0100
1000
0000
0001
0000
,
0100
0000
0010
0000
0100
0001
1000
0000
,
0100
0010
0000
0001
0000
1000
0000
0001
,
0100
0010
1000
0100
,
0010
0001
1100
0000
1001
1100
0000
0011
,
0000
1001
0000
1010
0101
0000
1001
0000
,
1100
0000
0011
0000
1001
1001
1010
0000
,
0101
1001
0000
1100
0000
0011
0000
1001
,
1010
0101
1001
1100
,
0011
0011
1100
0000
1001
0101
0000
1010
,
0000
1001
0000
0011
1100
0000
1001
0000
,
0101
0000
1010
0000
1001
1001
0011
0000
,
1100
1001
0000
0110
0000
1001
0000
1010
,
0101
1001
1100
0011
,
1001
1001
1010
0000
0101
1001
0000
1010
,
0000
1001
0000
0011
1100
0000
1001
0000
,
0110
0000
1001
0000
0101
0101
1010
0000
,
1100
0011
0000
1100
0000
1001
0000
0110
,
1001
0011
1100
1001
,
0101
0101
1010
0000
1001
0011
0000
1100
,
0000
1001
0000
0101
1010
0000
1001
0000
,
0011
0000
1100
0000
1001
1001
1100
0000
,
1001
0011
0000
0101
0000
1010
0000
0101
,
1001
1010
1001
0011
,
1100
1100
0011
0000
1100
1001
0000
0110
,
0000
1001
0000
0011
1100
0000
1001
0000
,
0101
0000
1010
0000
0101
0101
1001
0000
,
1100
0011
0101
1010
,
0110
1001
1100
0000
,
0000
0000
0000
0000
,
0000
0000
0000
0000
1000
0010
1000
0001
,
0010
0100
1000
0100
0010
0100
1000
0001
,
0100
0101
0000
0000
0000
0000
0000
0000
,
0000
1000
0010
0100
0101
0000
0000
0000
,
1000
0001
0100
0010
0100
0001
1000
0100
,
0022
0000
0033
1100
,
1000
0010
0100
0010
1000
0001
0100
0000
1001
0000
0000
0000
0000
0000
0000
0000
,
1000
0001
0010
0100
1000
0001
0100
0010
1001
0000
0000
0101
0000
0000
1010
0000
,
0001
1000
0010
1000
0001
0010
0100
0000
1001
0000
0000
0000
0000
0000
0000
0000
,
1000
0010
0100
0001
0010
0001
0100
0010
1001
0000
0000
1100
0000
0000
0011
0000
,
1000
0100
0010
0100
1000
0001
0100
0000
1010
0000
0000
0000
0000
0000
0000
0000
,
1000
0001
1000
0010
1000
0001
0100
0001
1100
0000
0000
0011
0000
0000
1001
0000
,
1000
0010
0100
0001
1000
0010
0100
0000
0101
0000
0000
0000
0000
0000
0000
0000
,
1000
0100
0010
0001
0010
0100
1000
0000
0001
0100
0001
1000
0000
0100
0010
0000
,
0001
1000
0100
0010
0100
1000
0001
0000
0101
0000
0000
0000
0000
0000
0000
0000
,
1000
0001
0100
0010
1000
0100
0010
0001
1100
0000
0000
0011
0000
0000
0101
0000
,
0001
1000
0010
0100
0001
1000
0100
0000
1001
0000
0000
0000
0000
0000
0000
0000
,
1000
0001
0010
0100
0010
0001
1000
0100
0011
0000
0000
1001
0000
0000
1010
0000
,
0001
0100
0010
1000
0001
0010
0100
0000
1001
0000
0000
0000
0000
0000
0000
0000
,
1000
0010
1000
0001
0100
0010
0100
0001
1100
0000
0000
1001
0000
0000
0101
0000
,
1000
0010
1000
0001
0010
0100
0010
0000
1001
0000
0000
0000
0000
0000
0000
0000
,
1000
0001
0100
0010
1000
0000
1001
0000
0001
0100
0010
0100
0001
1000
0010
1000
,
0102
0000
0000
2003
0000
0000
3010
0000
2000
0000
0000
0000
0000
0000
0000
0000
,
3000
0001
0100
0010
2000
0000
3002
0000
,
0023
0000
0000
0230
0000
0000
1300
0000
0001
0100
0001
0100
0020
0000
0000
0000
,
0030
1000
0001
0010
0200
0000
2300
0000
,
3002
0000
0000
0203
0000
0000
0301
0000
1000
0100
0010
0100
2000
0000
0000
0000
,
3000
0000
0010
0000
1000
0000
0001
0000
0010
0100
1000
0001
0010
0100
1000
0001
,
0200
0000
0000
0320
0000
0000
1030
0000
0001
0010
0001
0100
0020
0000
0000
0000
,
0030
0000
1000
0000
0001
0000
0100
0000
0010
1000
0100
0010
0001
1000
0010
1000
,
0002
0000
0000
0203
0000
0000
0301
0000
2000
0000
0000
0000
0000
0000
0000
0000
,
3000
0001
1000
0010
0200
0000
0302
0000
,
0203
0000
0000
0320
0000
0000
1030
0000
0001
0010
0001
0010
0200
0000
0000
0000
,
0300
1000
0001
0010
0200
0000
0320
0000
,
0032
0000
0000
2003
0000
0000
3010
0000
1000
0100
0010
0001
0020
0000
0000
0000
,
0030
0000
0001
0000
0100
0000
0010
0000
0100
0001
1000
0010
1000
0001
0100
0010
,
0200
0000
0000
0302
0000
0000
1003
0000
0100
0010
0100
1000
0002
0000
0000
0000
,
0003
0000
0100
0000
0010
0000
1000
0000
0001
0010
0001
1000
0100
0010
0001
0100
,
1010
0000
0000
0101
0000
0000
1001
0000
0000
0000
1100
0000
0000
0000
0011
0000
,
0101
0000
0000
1010
0000
0000
1001
0000
0000
0000
0101
0000
0000
0000
1010
0000
,
0101
0000
0000
1001
0000
0000
1100
0000
0000
0000
0011
0000
0000
0000
1001
0000
,
1000
0100
1000
0010
0100
0001
0100
0000
0010
0000
0000
0000
1001
0000
0000
0000
,
1100
0000
0000
0011
0000
0000
1001
0000
0000
0000
1010
0000
0000
0000
0101
0000
,
1001
0000
0000
1010
0000
0000
0101
0000
0000
0000
1001
0000
0000
0000
1100
0000
,
0011
0000
0000
1001
0000
0000
1010
0000
0000
0000
0101
0000
0000
0000
1001
0000
,
1000
0000
0001
0000
0100
0000
0001
0000
0000
1000
0000
0000
0100
0000
0000
0010
0000
0000
0000
0000
0000
0001
0000
0000
0010
0000
0000
0000
0000
0000
0100
0000
0000
1000
0000
0000
0000
0000
0000
0001
0000
0000
0100
0000
0000
0000
0000
0000
,
1001
0000
0110
0000
0000
0000
0000
0000
1000
0100
1000
0001
0100
0000
0000
0000
,
1010
0000
0101
0000
0000
0000
0000
0000
0001
0100
0001
1000
0010
0000
0000
0000
,
1001
0000
1100
0000
0000
0000
0000
0000
0001
0010
0100
1000
0001
0100
0001
0000
,
1000
0100
0010
0100
1000
0001
0010
0001
0100
0010
1000
0100
0010
0001
0010
0000
,
0100
1000
0001
0010
0100
0000
0010
0001
1000
0010
0100
0010
1000
0000
0001
0100
,
0010
0100
0001
1000
0100
0000
0010
0100
1000
0100
0010
0001
0010
0000
0100
0010
,
0001
1000
0010
0100
0001
0000
0100
0010
1000
0001
0010
0001
1000
0000
0010
1000
,
0001
0000
0100
0000
0001
0000
0100
0000
0001
0000
0100
0000
0010
0000
1000
0000
0010
0000
1000
0000
0010
0000
1000
0000
0001
0000
0000
0010
0000
0000
0100
0000
0000
0010
0000
0000
0001
0000
0000
0100
0000
0000
0000
0000
0000
0000
0000
0000
,
1010
0000
0000
1000
0100
0000
0000
0000
1000
0000
0001
0000
0101
0000
0000
0000
,
0001
0000
0000
1000
0100
0000
0000
0000
0010
0000
0001
0000
0101
0000
0000
0000
,
1000
0000
0000
0010
0100
0000
0000
0000
0001
0000
0100
0000
1010
0000
0001
0000
,
1000
0001
0010
0100
1000
0010
1000
0001
0100
0000
0000
0010
1000
0000
0100
0000
,
0010
0000
0000
0000
0000
0000
0001
0000
0000
0000
0000
0000
1000
0000
0100
0000
0010
0000
0100
0000
0000
0000
0000
0000
0000
0000
0000
1000
0000
0000
0000
0000
0000
0000
0000
0000
0001
0000
0000
0000
0000
0000
0100
0000
0000
0000
0000
0000
,
2020
0000
3030
0202
0000
0000
0000
0303
,
2200
0000
3300
0022
0000
0000
0000
0033
,
0202
0000
0303
2020
0000
0000
0000
3030
,
1000
0100
0010
0001
0000
1000
0010
0000
0100
0001
1000
0010
1000
0101
0000
0000
,
1000
0000
0100
0000
0010
0000
0001
0000
0000
1000
0000
0000
0100
0000
0000
0010
0000
0000
0001
0000
0000
1000
0000
0000
0100
0000
0000
0010
0000
0000
0100
0000
0000
1000
0000
0000
0001
0000
0000
0101
0000
0000
0000
0000
0000
0000
1000
0000
,
0100
0000
0010
0000
0001
0000
0010
0000
0000
0000
0100
1000
0010
0100
0000
0000
,
0202
0000
0000
0303
0000
0000
0001
0100
0001
1000
0100
1000
,
0001
0000
0100
0010
1000
0000
0001
0000
0010
0000
0100
0000
0000
0000
1000
0001
,
0010
0100
1000
0001
0010
0100
1000
0001
,
0010
0000
0100
1000
0001
0010
0001
0100
0010
0100
0001
2000
0000
0000
0000
0000
,
3200
0000
0000
0000
0000
0000
0000
0000
0000
2300
0000
0000
0000
0000
0000
0000
0000
0000
0000
0000
0000
0000
0000
0000
3000
0000
0000
0000
0000
0000
0001
0000
0100
0000
0001
0000
1000
0000
0000
0000
0000
0000
0000
0000
0000
0000
0000
0000
,
0010
1000
0100
0010
0001
0010
0100
0010
,
0001
0100
0010
0100
0010
1000
0100
1000
,
0000
0000
0000
0000
0001
0000
0000
0100
0000
0001
0000
0000
0100
0000
0000
0000
0010
0000
0000
0000
1000
0000
0100
0000
0010
0000
0001
0000
0010
0000
0000
0000
0100
0000
0000
0000
1000
0000
0000
0000
0001
0000
0000
0000
0100
0000
0000
0000
,
0010
0000
0000
0000
0000
0000
0000
0000
0000
0000
0000
0000
0000
0000
0000
0000
0000
0000
1000
0000
0000
0100
0000
0000
0010
0000
0000
0000
0001
0000
0000
0000
0010
0000
0000
0000
0100
0000
0000
0000
1000
0000
0000
0000
0000
0000
0000
0000
,
0001
0100
0010
1000
0000
0100
0000
0000
1000
0100
0010
0001
1000
0010
0100
0001
,
1000
0200
0000
0000
0000
0000
0000
0000
0000
0000
0000
0000
0300
0000
0000
0000
,
1000
0000
0000
0000
0001
0000
0000
0000
0100
0000
0000
0000
0001
0000
0000
1000
0000
0000
0100
0000
0000
0010
0000
0000
0001
0000
0000
0000
0100
0000
0000
0000
0010
0000
0000
0000
1000
0000
0000
0000
0001
0000
0100
0000
0000
0000
0000
0000
,
0000
0000
0000
0010
0000
0000
1000
0000
0000
0001
0000
0000
0100
0000
0000
0000
0000
0000
0001
0000
0000
2000
0000
0000
0000
0000
0000
0000
0000
0000
3000
0000
0000
0000
0100
0000
0010
0000
0100
0000
1000
0000
0000
0000
0000
0000
0000
0000
,
0001
0000
0000
0000
0100
0000
0000
0000
0001
0000
0000
0000
1000
0000
0000
0010
0000
0000
1000
0000
0000
0002
0000
0000
0000
0000
0000
0000
0000
0000
0000
0000
0000
0000
0000
0000
0003
0000
0000
0000
0000
0000
0000
0000
0000
0000
0000
0000
,
1000
0100
0010
0100
1000
0100
0010
0001
0010
0100
0010
0001
0010
0100
1000
0001
,
0100
0001
1000
0100
0010
0001
1000
0010
0100
0010
1000
0001
0010
0100
0010
0001
,
2000
0000
0000
0000
0000
0000
0000
3200
0000
0000
0000
0000
0000
0000
0000
0000
,
2300
0000
0000
0000
0000
0000
0000
3002
0000
0000
0000
0000
0000
0000
0000
0000
,
0203
0000
0000
0000
0000
0310
1000
0002
0000
0000
0000
0000
0000
0000
0000
0000
,
0023
0000
0000
0000
0000
0000
0000
0230
0000
0000
0000
0000
0000
0000
0000
0000
,
2300
0000
0000
0000
0000
0000
0000
3002
0000
0000
0000
0000
0000
0000
0000
0000
,
0203
0000
0000
0000
0000
0000
0310
2000
0000
0000
0000
0000
0000
0000
0000
0000
,
3002
0000
0000
0013
0200
0000
0000
2300
0000
0000
0000
0000
0000
0000
0000
0000
,
3002
0000
0003
0000
1010
1001
0011
2100
0000
0000
0000
0000
3002
0000
0000
0000
,
0203
0000
0300
0101
,
1000
0001
0010
0100
0010
0001
0100
0000
1001
0000
0000
0000
0000
0000
0000
0000
,
1000
0010
1000
0001
0100
0010
0100
0001
1010
0000
0000
1001
0000
0000
0011
0000
,
1000
0001
0010
0100
1000
0001
1000
0000
0101
0000
0000
0000
0000
0000
0000
0000
,
1000
0010
1000
0001
1000
0010
0100
0010
1001
0000
0000
0011
0000
0000
1100
0000
,
0001
0010
0100
1000
0010
0100
0001
0000
1001
0000
0000
0000
0000
0000
0000
0000
,
1000
0010
0100
0001
0100
0010
1000
0001
0011
0000
0000
1100
0000
0000
1001
0000
,
0001
1000
0010
0100
0010
1000
0100
0000
1001
0000
0000
0000
0000
0000
0000
0000
,
0001
1000
0010
1000
0000
0001
0010
0000
0100
0010
0001
1000
0000
0100
1000
0000
,
0001
0100
0010
0100
0001
1000
0010
0101
0000
0000
0000
0000
1001
0000
0000
0000
,
1000
0010
1000
0001
0010
0001
1000
0010
1001
0000
0000
0101
0000
0000
1001
0000
,
1000
0100
0010
0001
1000
0100
0010
0000
1001
0000
0000
0000
0000
0000
0000
0000
,
0001
0100
0010
1000
0001
0010
0001
1000
1010
0000
0000
1001
0000
0000
0011
0000
,
1000
0001
0010
0100
1000
0001
0010
0000
0101
0000
0000
0000
0000
0000
0000
0000
,
1000
0010
1000
0100
1000
0001
0100
0010
1001
0000
0000
0101
0000
0000
1001
0000
,
1000
0010
0100
0001
0010
0100
1000
0000
1001
0000
0000
0000
0000
0000
0000
0000
,
1000
0000
0000
0001
0000
0000
0100
0000
0000
0010
0000
0000
1000
0000
0000
0000
0000
0000
0101
0000
0000
0000
0000
0000
1000
0000
0100
0000
0010
0000
0001
0000
0000
1000
0000
0000
0010
0000
0000
1000
0000
0000
0001
0000
0000
0010
0000
0000
,
0200
0000
0000
2300
0000
0000
3001
0000
0200
0000
0000
0000
0000
0000
0000
0000
,
0300
0001
1000
0010
2000
0000
3200
0000
,
0320
0000
0000
0032
0000
0000
1003
0000
0010
1000
0100
0010
0002
0000
0000
0000
,
0003
0010
0100
0010
0002
0000
2003
0000
,
3020
0000
0000
2030
0000
0000
3001
0000
0010
0100
1000
0001
0200
0000
0000
0000
,
0300
0000
0001
0000
1000
0000
0010
0000
1000
0001
0100
0010
0100
0001
1000
0010
,
2000
0000
0000
3200
0000
0000
0310
0000
0001
1000
0100
0010
0200
0000
0000
0000
,
0300
0000
1000
0000
0001
0000
0010
0000
0001
0100
0010
1000
0100
1000
0001
0100
,
0020
0000
0000
2030
0000
0000
3100
0000
0020
0000
0000
0000
0000
0000
0000
0000
,
0030
0001
1000
0100
0020
0000
0032
0000
,
2003
0000
0000
3020
0000
0000
0130
0000
0002
0000
0000
0000
0000
0000
0000
0000
,
0003
1000
0100
0010
0200
0000
2300
0000
,
3002
0000
0000
0203
0000
0000
0310
0000
1000
0100
1000
0001
0020
0000
0000
0000
,
0030
0000
0100
0000
0010
0000
0001
0000
1000
0010
0100
0010
1000
0100
0010
0001
,
0020
0000
0000
0230
0000
0000
1300
0000
0001
0100
0001
1000
0020
0000
0000
0000
,
0000
0000
0000
0000
0000
0000
0000
0000
0000
0000
0000
0000
0000
0000
0000
0000
0000
0000
0030
0000
0000
0000
0000
0000
1000
0000
0100
0000
0010
0000
0001
0000
0000
0000
0000
0000
1000
0000
0000
0010
0000
0000
0000
0000
0000
1000
0000
0000
,
0001
0000
0010
0001
0000
1000
0010
0100
0002
0000
0000
0000
0000
0000
0003
0000
,
1010
0000
0101
0000
1001
1100
0000
0011
,
0000
1001
0000
2020
0000
0000
0000
0000
,
0000
0000
0000
0000
0000
0000
0000
3030
,
0000
1000
0100
0010
0011
0000
0000
0000
;
