#TITLE:Sky Sanctuary Zone;
#SUBTITLE:- Sonic & Knuckles;
#ARTIST:Sonic Team;
#TITLETRANSLIT:;
#SUBTITLETRANSLIT:;
#ARTISTTRANSLIT:;
#CREDIT:;
#BANNER:Sky Sanctuary - Banner.PNG;
#BACKGROUND:Sky Sanctuary - Background.PNG;
#LYRICSPATH:;
#CDTITLE:;
#MUSIC:Sonic & Knuckles - Sky Sanctuary Zone.mp3;
#OFFSET:-5.023;
#SAMPLESTART:40.695;
#SAMPLELENGTH:12.000;
#SELECTABLE:YES;
#BPMS:0.000=147.440;
#STOPS:;
#BGCHANGES:;
// cache tags:
#FIRSTBEAT:4.000;
#LASTBEAT:310.000;
#SONGFILENAME:Songs/new cc/Sonic & Knuckles - Sky Sanctuary Zone (Crazylegz Edit)/Sky Sanctuary.sm;
#HASMUSIC:1;
#HASBANNER:1;
#MUSICLENGTH:135.471;
// end cache tags

//---------------dance-single - ----------------
#NOTES:
     dance-single:
     :
     Hard:
     9:
     0.583,0.597,0.642,0.598,0.181,385.000,87.000,81.000,0.000,1.000:
0000
0000
0000
0000
,
1001
0000
2002
0000
0000
0000
0000
0000
3003
0000
0000
0000
0000
0000
0001
0100
,
0001
0000
0000
2000
0000
3001
0000
0000
,
1000
0000
2200
0000
0000
0000
0000
0000
3300
0000
0000
0000
0000
0000
0001
0010
,
0200
0000
0000
0010
0000
0310
0000
0100
,
0010
0001
1001
0010
0100
0101
0010
0001
,
0011
0100
1000
1100
0010
0010
2020
0000
,
0000
0000
3030
0000
0001
0000
0010
0000
0100
1000
0100
0000
0010
0000
0001
1000
,
0001
0100
0010
2000
0000
0010
3010
1000
,
1010
0000
2002
0000
0000
0000
0000
0000
3003
0000
0000
0000
0000
0000
1000
0100
,
2000
0000
0000
0001
0000
3001
0000
0000
,
0011
0000
2002
0000
0000
0000
0000
0000
3003
0000
0000
0000
0000
0000
1000
0010
,
0200
0000
0000
0001
0000
0310
0000
1000
,
0010
1000
1100
0100
0010
0011
0001
0100
,
0101
0100
0010
1010
0001
1000
2002
0000
,
0000
0000
3003
0000
1000
0001
1000
0000
0001
0000
0010
0000
0100
0000
1000
0000
,
0000
0001
0100
0001
0000
1000
0020
0000
,
2030
0000
0000
3002
0000
0000
0013
0020
,
0000
0000
0100
0000
0030
0000
0100
1000
0100
0000
1000
0000
1000
0000
0001
0000
,
0200
0000
0000
0320
0000
0000
1000
1000
,
0100
0130
0000
0000
0110
0000
1001
0000
,
0001
1000
0200
0000
0000
0000
0020
0000
0300
0000
0000
0000
0031
0000
0002
0000
,
0003
1001
0000
0000
1001
0010
0011
0000
,
1100
0000
0000
0011
0000
0000
1010
0000
,
0110
0000
0101
0101
0000
1001
0010
0210
,
0010
0000
0000
0000
0000
0000
0010
0000
0010
0000
0010
0000
0300
0000
0001
1000
,
0002
0000
0000
1000
0000
0013
0000
0000
,
0022
0000
0000
0000
0000
0000
0000
0000
0033
0000
0000
0000
0000
0000
1000
0100
,
0010
0000
0000
0011
0000
2001
0000
0000
,
3010
1000
0000
0000
0000
0001
0100
0001
,
0000
0000
1000
0000
0000
0000
0010
0000
0100
0010
0100
0000
0010
0000
1000
0000
,
0002
0000
0000
2003
0000
0000
3020
0000
,
0000
2030
3002
2003
3002
0000
0200
0303
,
1001
0000
0000
0001
0000
0000
0010
0000
0011
0000
0000
0001
0000
0000
1000
0000
,
0010
0000
0000
1010
0000
0000
1000
0000
0001
0000
0000
1001
0000
0000
0001
0000
,
0100
0000
0000
0101
0000
0000
0001
0000
1000
0000
0000
1100
0000
0000
0100
0000
,
0010
0000
0000
0120
0000
0000
0001
0000
0000
0000
0001
0000
0030
0000
0000
0000
,
1010
0000
2002
0000
0000
0000
0000
0000
0000
0000
3003
0000
0000
0000
0001
1000
,
0200
0000
0000
0320
0000
0200
0030
0300
,
0110
0000
0220
0000
0000
0000
0000
0000
0000
0000
0330
0000
0000
0000
0001
0010
,
0002
0000
0000
2003
0000
0020
0000
3030
,
1010
0000
0101
0001
0010
0011
0100
1000
,
1100
0100
0010
0110
0100
1000
2002
0000
,
0000
0000
3003
0000
0001
1000
0001
0000
1000
0000
0010
0000
0100
0000
0001
0000
,
0000
0010
0100
1000
0000
0001
0101
0000
,
1010
0000
2002
0000
0000
0000
0000
0000
0000
0000
3003
0000
0000
0000
1000
0001
,
0020
0000
0030
0011
0000
1001
0000
0000
,
0010
0000
0020
0000
0000
0000
0000
0000
0000
0000
0030
0000
0000
0000
1000
0001
,
0200
0000
0000
0320
0000
2030
0000
3000
,
1100
0000
0011
0001
0010
0110
0100
1000
,
1001
0001
0100
0101
0001
0010
0022
0000
,
0000
0000
0033
0000
0001
0010
0001
0000
1000
0000
0100
0000
0010
0000
0002
0000
,
0000
0010
0010
0013
0000
0001
1000
0000
,
1010
0000
0100
0201
0000
0000
0010
0310
,
0000
0000
1001
0000
0000
0000
0001
0010
0100
1000
0100
0010
0001
1000
0001
0000
,
2001
0000
0000
3020
0000
0000
0130
0002
,
0000
0020
0003
0000
0032
0000
0203
0000
,
0310
0000
0000
1010
0000
0000
1100
1100
,
0000
0000
1001
0000
0000
0000
1000
0010
0100
0001
0010
0100
1000
0100
1000
0100
,
2000
0000
0000
3002
0000
0000
0100
0000
,
0013
0000
1000
0100
0000
1000
0000
0000
,
0020
0000
0000
0000
0000
0000
0000
0000
0000
0000
0000
0000
0030
0000
1000
0001
,
1000
0000
0000
1001
0000
0011
0000
0000
,
2200
0000
0000
0000
0000
0000
0000
0000
0000
0000
0000
0000
3300
0000
0001
0010
,
0001
0000
0000
1100
0000
1010
0000
0001
,
1000
0001
0000
0000
0000
1000
0001
2000
,
0000
3001
0000
0100
0010
0010
0000
1000
,
0001
0010
0001
0000
1000
0000
0100
1000
0100
0000
1000
0000
0001
0010
0001
0000
,
0100
0000
0010
1000
0010
0000
1000
0000
0100
0000
1000
0000
1010
0000
0000
0000
,
1001
0000
0000
0001
0000
0000
1000
0000
1100
0000
0000
0010
0000
0000
0100
0000
,
0001
0000
0000
0101
0000
0000
0001
0000
1000
0000
0000
1100
0000
0000
1000
0000
,
0010
0000
0000
0110
0000
0000
0001
0000
0010
0000
0000
0110
0000
0000
1000
0000
,
0001
0000
0000
1001
0000
0000
0101
0000
0000
0000
0101
0000
0000
0000
0000
0000
,
1000
0000
2000
0000
0000
0000
0000
0000
0000
0000
0000
0000
3000
0000
0001
0010
,
0200
0000
0000
0010
0000
0310
0000
0000
,
0110
0000
0022
0000
0000
0000
0000
0000
0000
0000
0000
0000
0033
0000
0001
1000
,
0200
0000
0000
2000
0000
0010
0000
3300
,
1001
0000
0000
0000
;

//---------------dance-single - ----------------
#NOTES:
     dance-single:
     :
     Challenge:
     11:
     0.742,0.715,0.642,0.288,0.672,578.000,87.000,39.000,225.000,0.000:
0000
0000
0000
0000
,
1001
0000
1001
0000
0000
0000
0001
0100
0001
0000
1000
0000
0000
0000
1000
0010
,
1000
0000
0010
0000
0000
0000
0001
0010
0001
0000
1000
0000
0000
0000
0010
0000
,
1000
0000
0100
0000
0000
0000
0010
0100
2000
0000
3001
0000
0000
0000
1000
0100
,
0020
0000
0031
0000
0000
0000
1000
0001
0100
0001
0100
0001
1000
0100
1000
0100
,
1000
0001
0011
0100
1000
1100
0100
0010
,
0110
0100
1000
1100
1000
0001
0202
0000
,
0303
0000
0001
1000
0010
0100
0001
0010
0001
0010
0001
0000
1000
0000
0001
0000
,
1000
0000
0010
0100
0001
0000
0100
0000
0010
1000
0010
0100
0010
1000
0010
0100
,
0020
0000
2000
0000
3030
0000
1000
0100
1000
0000
0100
0000
0000
0000
1000
0010
,
1000
0000
1010
0000
0000
0000
0001
0010
0001
0000
0011
0000
0000
0000
0200
0000
,
2300
0000
3002
0000
0003
0000
0100
0010
0200
0000
0301
0000
0000
0000
0010
0100
,
1000
0000
1100
0000
0000
0000
0100
0010
0001
1000
0001
1000
0001
0100
0001
0100
,
0001
0000
0000
0000
0101
0000
0M0M
0000
0M10
0000
0011
0000
00MM
00M0
1M00
0000
,
1100
0000
0000
0000
MM00
0000
0000
0000
0M10
0000
M000
0000
011M
0000
0000
0000
M00M
0000
0M00
0000
00M2
0M00
M000
0000
0M20
0000
0000
0000
0000
0000
0000
0000
,
0033
0000
0100
1000
0100
0000
1000
0000
0001
0000
0100
0000
0010
0000
1000
0000
,
0100
0010
0100
0000
1000
0000
0010
0000
0000
0000
0100
0000
0101
0000
0000
0000
,
0001
0100
0001
0000
0000
0000
1000
0100
1000
0000
1100
0000
0000
0000
0001
0100
,
0001
0000
0101
0000
0000
0000
1000
0010
1000
0000
1010
0000
0000
0000
0011
0000
,
0101
0000
0101
0000
0000
0000
0001
1000
0100
0000
1100
0000
0000
0000
1000
0001
,
0100
0000
0101
0000
0000
0000
1000
0001
1000
0010
1000
0010
0100
0010
0100
0001
,
0200
0000
0000
0000
0300
0000
1000
0010
0100
0000
0110
0000
0000
0000
0001
0010
,
0100
0000
0110
0000
0000
0000
1000
0001
0010
0000
0011
0000
0000
0000
0001
0000
,
1000
0000
1010
0000
0000
0000
0001
1000
0001
0000
0001
0000
0000
0000
1000
0001
,
1000
0000
1000
0000
0000
0000
0010
0100
0001
1000
0001
1000
0100
1000
0100
1000
,
0200
0000
0000
0000
0300
0000
1000
0100
1000
0000
1000
0000
0000
0000
0001
0100
,
0001
0000
0001
0000
0000
0000
1000
0010
0100
0000
0001
0000
0000
0000
0010
0000
,
0101
0000
0101
0000
0000
0000
0001
0010
0100
0000
1000
0000
0000
0000
0010
0100
,
0001
0000
0101
0000
0000
0000
0001
0010
0001
0100
0001
1000
0001
0100
0001
0010
,
0002
0000
0013
0000
0000
0000
1000
0001
1000
0000
1001
0000
0000
0000
0001
1000
,
0001
0000
1001
0000
0000
0000
0010
0100
0010
0000
0110
0000
0000
0000
0001
0000
,
M2MM
M0MM
M0MM
M32M
MM0M
MM0M
2M3M
0MMM
,
0MMM
3MM2
MMM0
MMM0
MM23
MM0M
M20M
M33M
,
0011
0000
0000
1000
0000
0000
0010
0000
1010
0000
0000
0100
0000
0000
0001
0000
,
0101
0000
0000
0001
0000
0000
0010
0000
0011
0000
0000
0100
0000
0000
1000
0000
,
1001
0000
0000
0001
0000
0000
1000
0000
1010
0000
0000
0100
0000
0000
0001
0000
,
1001
0000
0000
0200
0000
0000
0010
0000
0000
0000
0010
0300
0000
0000
0000
0000
,
1010
0000
1001
0000
0000
0000
0001
0100
0001
0000
0001
0000
0000
0000
1000
0100
,
1000
0000
1001
0000
0000
0000
0001
0100
0001
0000
1001
0000
0000
0000
0010
0000
,
1001
0000
1001
0000
0000
0000
0100
0010
0100
0000
0001
0000
0000
0000
0010
0100
,
1000
0000
0001
0000
0000
0000
0100
0001
0100
0001
0010
0001
0010
0001
1000
0001
,
1000
0000
0M00
0MM0
MMM2
0000
0MM0
00M0
MM00
00M0
2MM3
0000
00MM
0M00
0MM0
000M
,
3M2M
0000
MM0M
0000
MM00
M000
M23M
0000
M0M0
0000
00MM
00M0
M3M2
0000
MM00
0000
,
0013
0000
0100
0000
1000
0000
0001
0000
0100
0001
0100
0000
0001
0000
1000
0000
,
0000
0000
0010
0000
0100
0000
0001
0000
0000
0000
1000
0001
1000
0001
1000
0010
,
1000
0000
1001
0000
0000
0000
0001
0010
0001
0000
0011
0000
0000
0000
1000
0010
,
1000
0000
1010
0000
0000
0000
0010
0100
0010
0000
0110
0000
0000
0000
0001
0000
,
1100
0000
1100
0000
0000
0000
0010
0100
0001
0000
0101
0000
0000
0000
0010
0100
,
1000
0000
1100
0000
0000
0000
0001
1000
0001
0100
0001
0100
0001
0010
0001
0010
,
0002
0000
MMM0
00M0
1M00
00M0
MM00
0000
0MM0
0000
MM10
M000
MMM0
0000
M0M0
0000
,
1M00
0000
0000
0000
0000
0000
0MM0
0000
0000
0M00
0000
0000
M000
0000
0000
00M0
0000
0000
M100
0000
0000
00M0
0M00
0000
M0M0
0000
0000
0000
0000
0000
MMM0
0000
0000
0000
0000
0000
MM10
0000
0000
0000
0000
0000
00M3
0000
0000
0000
0000
0000
,
1001
0000
0000
0000
0000
0000
1000
0100
1000
0000
1100
0000
0000
0000
0001
0010
,
0001
0000
0011
0000
0000
0000
1000
0100
1000
0100
1000
0001
1000
0001
1000
0001
,
2000
0000
0000
0000
3000
0000
0001
0010
0001
0000
0011
0000
0000
0000
1000
0100
,
1000
0000
1100
0000
0000
0000
0001
0010
0001
0000
0001
0000
0000
0000
1010
0000
,
1100
0000
1100
0000
0000
0000
0010
0100
0001
0000
0001
0000
0000
0000
0010
0100
,
1000
0000
1000
0000
0000
0000
0001
1000
0001
0100
0001
1000
0001
0100
0001
1000
,
0001
0000
0101
0000
0000
0000
0001
0010
0100
0000
0110
0000
0000
0000
1000
0100
,
0010
0000
0110
0000
0000
0000
0001
0010
0100
0000
0110
0000
0000
0000
1100
0000
,
0110
0000
0011
0000
0000
0000
0010
0001
0100
0000
0100
0000
0000
0000
0010
1000
,
0100
0000
0100
0000
0000
0000
0010
0001
0010
0001
1000
0001
1000
0100
1000
0100
,
1000
0000
1000
0000
0000
0000
0001
0100
0001
0000
0101
0000
0000
0000
1000
0100
,
1000
0000
1100
0000
0000
0000
0001
0100
0001
0000
0101
0000
0000
0000
1000
0000
,
0101
0000
0101
0000
0000
0000
0001
1000
0001
0000
1001
0000
0000
0000
1000
0001
,
1000
0000
1001
0000
0000
0000
1000
0010
1000
0010
1000
0001
1000
0001
1000
0001
,
2000
0000
0M1M
000M
0MM0
000M
0MMM
0M00
00MM
00M0
0M01
0MM0
00M1
0M00
0MM1
0M00
,
00MM
0M00
0M1M
000M
0MM0
0M0M
001M
0M00
00M1
0M00
0M1M
0000
0MMM
0000
01MM
000M
,
32MM
M0MM
M0MM
M32M
MM0M
MM0M
MM32
MMM0
,
MMM0
0000
2MM0
0003
0MMM
0000
0MMM
0000
3M2M
0000
MM0M
0000
M20M
0000
M33M
0000
,
0110
0000
0000
0100
0000
0000
0001
0000
0101
0000
0000
0001
0000
0000
1000
0000
,
1100
0000
0000
1000
0000
0000
0010
0000
1010
0000
0000
0100
0000
0000
0001
0000
,
0011
0000
0000
0100
0000
0000
0010
0000
0110
0000
0000
0001
0000
0000
1000
0000
,
1001
0000
0000
0200
0000
0000
0001
0000
000M
0000
0001
0000
030M
0000
0000
0000
,
1001
0000
1001
0000
0000
0000
0001
0100
0001
0000
1000
0000
0000
0000
1000
0100
,
1000
0000
0001
0000
0000
0000
0001
0100
0001
0000
0010
0000
0000
0000
1010
0000
,
1000
0000
0100
0000
0000
0000
0010
0001
0010
0000
0001
0000
0000
0000
1000
0010
,
1000
0000
0100
0000
0000
0000
0010
0001
0010
0001
1000
0100
1000
0100
1000
0001
,
2002
0MM0
0000
0MM0
3003
0000
0000
0000
;

//---------------dance-single - ----------------
#NOTES:
     dance-single:
     :
     Medium:
     6:
     0.394,0.399,0.303,0.362,0.000,284.000,41.000,49.000,0.000,0.000:
0000
0000
0000
0000
,
1000
2000
0000
0000
0000
0000
3000
0001
,
0010
0000
0000
0110
0000
1100
0000
0000
,
1000
0020
0000
0000
0000
0000
0030
0100
,
0001
0000
0000
0101
0000
1001
0000
0000
,
0000
0000
1000
0010
0000
0010
0100
0000
,
0100
0001
0000
0001
1000
0000
1002
0000
,
0000
0000
0003
1000
0010
0100
0001
1000
,
0000
0001
1000
0001
0000
0000
0020
0030
,
1000
1000
0000
0000
0000
0000
0000
1000
,
0100
0000
0000
0010
0000
0001
0000
0000
,
0001
0001
0000
0000
0000
0000
0000
0001
,
0100
0000
0000
0010
0000
1000
0000
0000
,
0000
0000
1000
0100
0000
0100
0010
0000
,
0010
0001
0000
0001
1000
0000
1002
0000
,
0000
0000
0000
1003
0001
0100
0010
1000
,
0000
0001
1000
0001
0000
1000
0100
0000
,
0010
0000
0010
0001
0000
0001
0100
0100
,
0000
0101
0000
0000
0000
0000
0000
0000
,
0100
0000
0100
0010
0000
0010
1000
1000
,
0000
1010
0000
0000
1001
0000
1100
0000
,
1000
0000
1000
0100
0000
0100
0010
0010
,
0000
0011
0000
0000
0000
0000
0000
0000
,
0002
0000
0000
0023
0000
0000
0200
0030
,
2300
0000
3002
2003
0000
3002
0000
0000
,
0203
0000
0000
0300
0000
0000
0000
0010
,
1000
0000
0000
1010
0000
1001
0000
0000
,
0022
0000
0000
0000
0033
0000
0000
0001
,
0010
0000
0000
0100
0000
1000
0000
0000
,
0010
1000
0000
0000
0000
0001
1000
0001
,
0000
1000
0000
0100
1000
0100
1000
0100
,
0020
0000
0000
0002
0030
0000
0200
0003
,
0000
0000
0020
0000
0300
0000
0000
0000
2000
0030
0000
0000
3001
0000
0000
0000
,
1001
0000
0001
1000
0100
0000
1000
0001
,
0100
0000
0001
0010
0001
0000
1000
0100
,
1000
0000
0001
1000
0010
0000
1000
0001
,
0010
0010
0000
0100
0000
0100
0000
0000
,
1000
2200
0000
0000
3300
0000
0000
1000
,
0010
0000
0000
0100
0000
0001
0000
0100
,
0001
0202
0000
0000
0303
0000
0000
0001
,
0010
0000
0000
0100
0000
1000
0000
0000
,
0000
0000
2010
0000
0000
0001
0000
0000
,
0100
0000
0000
0001
0000
0000
0001
0000
,
3000
0000
0000
1000
0010
0100
0001
1000
,
0000
0001
1000
0001
0000
1000
0010
0000
,
1000
2020
0000
0000
3030
0000
0000
1000
,
0100
0000
0000
1100
0000
1001
0000
0000
,
0010
2020
0000
0000
3030
0000
0000
0100
,
0001
0000
0000
0101
0000
1001
0000
0000
,
0000
0000
0012
0000
0000
1000
0000
0000
,
0100
0000
0000
1000
0000
0000
1000
0000
,
0003
0000
0000
0001
0010
0100
1000
0001
,
0000
1000
0001
1000
0000
0001
0010
0000
,
0011
0000
0000
0110
0000
0000
1000
1100
,
0000
2200
0000
0000
0000
3300
0000
0000
,
1001
0000
0000
1010
0000
0000
0100
0001
,
0000
0020
0000
0000
0031
0000
1000
0000
,
1001
0000
0000
0110
0000
0000
0001
1000
,
0000
1001
0000
0000
0000
0000
0000
0000
,
2000
0000
0000
0200
3000
0000
0320
0000
,
0002
0030
0203
0002
0300
2000
0003
0000
,
0200
0000
0000
0000
0000
3300
0000
1000
,
0100
0000
0000
1100
0000
0110
0000
0000
,
0022
0000
0000
0000
0000
0033
0000
0001
,
0010
0000
0000
0100
0000
1000
0000
0000
,
0010
1000
0000
0000
0000
0010
0100
0001
,
0000
1000
0000
0001
1000
0001
0000
1000
,
0100
0000
0100
0010
0000
0010
0001
0000
,
0001
1000
0000
1000
0001
1000
0010
0000
,
1001
0000
1000
0010
1000
0000
0001
1000
,
0001
0000
0100
0001
0100
0000
0001
0010
,
0001
0000
0010
0100
0010
0000
0100
1000
,
0001
1000
0000
0010
0000
0010
0000
0000
,
2002
0000
0000
0000
3003
0000
0000
1000
,
0100
0000
0000
0010
0000
0001
0000
0000
,
0100
0202
0000
0000
0000
0303
0000
0001
,
0100
0000
0000
0010
0000
1000
0000
0000
,
2002
3003
0000
0000
;

//---------------dance-single - Copied from----------------
#NOTES:
     dance-single:
     Copied from:
     Easy:
     3:
     0.271,0.284,0.096,0.162,0.000,222.000,13.000,22.000,0.000,0.000:
0000
0000
0000
0000
,
0001
2000
0000
0000
0000
0000
3000
0000
,
0010
0000
0000
0100
0000
1000
0000
0000
,
1000
0020
0000
0000
0000
0000
0030
0000
,
0100
0000
0000
0001
0000
1000
0000
0000
,
0000
0000
1000
0000
0000
0010
0000
0000
,
0100
0000
0000
0001
0000
0000
0002
0000
,
0000
0000
0013
1000
,
0010
0001
1000
0010
,
1000
0002
0000
0000
0000
0000
0003
0000
,
0100
0000
0000
0010
0000
0001
0000
0000
,
0001
2000
0000
0000
0000
0000
3000
0000
,
0100
0000
0000
0010
0000
1000
0000
0000
,
0000
0000
0010
0000
0000
0001
0000
0000
,
0100
0000
0000
0010
0000
0000
0020
0000
,
0000
0030
1000
0010
,
0001
0100
0010
0100
,
0010
0000
0000
0001
0000
0000
0000
0001
,
0100
0001
0100
0010
,
0100
0000
0000
0010
0000
0000
0000
0010
,
1000
0001
0001
1000
,
0100
0000
0000
0010
0000
0000
0000
0001
,
0010
0001
1000
0001
,
0001
0000
0000
0010
0000
0000
0100
0000
,
1000
0001
0100
0010
,
0100
0000
0000
0000
0000
0000
0000
0010
,
1000
0000
0000
1000
0000
0001
0000
0000
,
0022
0000
0033
0000
,
0010
0000
0000
0100
0000
1000
0000
0000
,
0010
0000
0100
0000
,
0001
0000
0100
0100
,
0010
0000
0000
0001
0000
0000
0100
0000
,
0000
0010
0000
0000
1000
0000
0001
0000
,
1001
0001
0100
1000
,
0100
0010
0100
1000
,
0001
0100
0010
1000
,
0010
0000
0000
0100
0000
0100
0000
0000
,
2200
0000
0000
0000
3300
0000
0000
1000
,
0010
0000
0000
0100
0000
0001
0000
0000
,
0202
0000
0000
0000
0303
0000
0000
0001
,
0010
0000
0000
0100
0000
1000
0000
0000
,
0000
0000
1001
0000
0000
0001
0000
0000
,
0100
0000
0000
0001
0000
0000
0101
0000
,
0000
0000
0000
0001
1000
0000
0001
0000
,
0010
0010
0001
1000
,
0020
0000
0030
0000
,
0100
0000
0000
1000
0000
0001
0000
0000
,
0020
0000
0030
0000
,
0001
0000
0000
0100
0000
1000
0000
0000
,
0000
0000
0100
0000
0000
0001
0000
0000
,
0010
0000
0000
0100
0000
0000
1100
0000
,
0000
0000
0000
0001
0010
0000
1000
0000
,
0010
0001
1000
0010
,
0100
0000
0000
0010
0000
0000
0000
0100
,
1000
0001
0100
0010
,
1000
0000
0000
0010
0000
0000
0000
0100
,
1000
0001
0100
0100
,
1001
0000
0000
0200
0000
0000
0300
0001
,
1000
0100
0010
0001
,
1000
0000
0000
0100
0000
0000
0010
0000
,
0001
0100
0001
1000
,
0200
0000
0000
0000
0000
0300
0000
0000
,
0100
0000
0000
1000
0000
0100
0000
0000
,
0022
0000
0000
0000
0000
0033
0000
0000
,
0010
0000
0000
0100
0000
1000
0000
0000
,
0010
1000
0000
0000
0000
0010
0000
0100
,
0001
1000
0100
0100
,
0010
0000
0000
0001
0000
0000
0100
0000
,
0000
0010
0000
0000
1000
0000
1000
0000
,
1001
1000
0001
0100
,
0001
0010
0100
1000
,
0010
0001
0010
1000
,
0001
1000
0000
0010
0000
0010
0000
0000
,
2002
0000
3003
0000
,
0100
0000
0000
0010
0000
0001
0000
0000
,
0202
0000
0000
0000
0000
0303
0000
0000
,
0100
0000
0000
0010
0000
1000
0000
0000
,
1001
0000
0000
0000
;
