#TITLE:Utopia;
#SUBTITLE:;
#ARTIST:KaW/ DM Overseer;
#TITLETRANSLIT:;
#SUBTITLETRANSLIT:;
#ARTISTTRANSLIT:;
#CREDIT:;
#BANNER:Utopia.banner.bmp;
#BACKGROUND:Utopia.background.bmp;
#LYRICSPATH:;
#CDTITLE:C;
#MUSIC:Utopia.mp3;
#OFFSET:0.010;
#SAMPLESTART:36.145;
#SAMPLELENGTH:12.000;
#SELECTABLE:YES;
#BPMS:0.000=166.000,323.500=150.000,325.500=130.000,326.000=125.000,326.500=112.000,327.000=90.000;
#STOPS:;
#BGCHANGES:;
// cache tags:
#FIRSTBEAT:0.000;
#LASTBEAT:328.250;
#SONGFILENAME:Songs/keyboard/Utopia/Utopia.sm;
#HASMUSIC:1;
#HASBANNER:1;
#MUSICLENGTH:124.478;
// end cache tags

//---------------dance-single - ----------------
#NOTES:
     dance-single:
     :
     Easy:
     4:
     0.337,0.428,0.112,0.241,0.000,250.000,14.000,30.000,0.000,0.000:
0010
0010
0010
0010
,
0010
0000
0000
0000
,
0100
0100
0100
0100
,
0100
0000
0000
0000
,
1000
0000
0000
0000
,
0000
0000
0000
0001
,
1000
0000
0000
0000
,
0010
0000
0110
0110
,
0010
1000
0010
1000
,
0001
0100
0001
0100
,
0010
1000
0001
1000
,
0001
0100
0010
0100
,
0010
1000
1000
0001
,
0001
0100
0100
0010
,
0010
1000
0100
0010
,
0001
0010
0100
1000
,
2000
3001
0002
0103
,
0200
0310
0020
1030
,
2000
3001
0002
0103
,
0000
0000
0000
0000
,
0001
1001
1000
1001
,
0010
0110
0100
0110
,
0010
1010
1000
1010
,
0001
0101
0100
0101
,
0001
0100
0010
1000
,
0001
0100
0010
1000
,
0010
1000
0100
0010
,
0001
1010
0100
0011
,
0000
0001
0000
1000
,
0000
0010
0000
0100
,
0000
0001
0000
0001
,
0000
1000
0000
1000
,
0000
0010
0000
0010
,
0000
0100
0000
0100
,
0000
0010
0000
1000
,
0000
0010
0000
1000
,
0000
0001
0000
0010
,
0000
0001
0000
0010
,
0000
0001
0000
1000
,
0000
0001
0000
1000
,
0001
1000
0001
0100
,
0010
0100
0010
1000
,
0001
1000
0001
1000
,
0100
0010
0001
0100
,
0010
1000
0100
0010
,
0001
0000
0000
0010
,
0100
1000
0010
0100
,
0001
0000
0000
1000
,
0010
0100
0001
0100
,
0010
0000
0000
0100
,
0010
1000
0001
0100
,
0001
0000
0000
0000
,
0000
0001
0000
1000
,
0000
0001
0000
1000
,
0000
0010
0000
0100
,
0000
0010
0000
0100
,
0000
0001
0000
0010
,
0000
0001
0000
1000
,
0000
0010
0000
1000
,
0000
0001
0000
0100
,
0010
0000
0100
0100
,
0100
0000
0011
1100
,
2000
3010
0020
0130
,
0200
0301
0002
1003
,
2000
3010
0020
1030
,
2000
3010
0020
0130
,
0200
0301
0002
0103
,
0200
0310
0020
0130
,
0200
0310
0020
1030
,
2000
3001
0002
0103
,
0200
0310
0020
1030
,
2000
3100
0200
0310
,
0020
0031
0002
0013
,
0020
0130
0200
1300
,
1000
1000
0000
0000
,
0001
0001
0000
0000
,
0100
0100
0000
0000
,
0010
0010
0000
0000
,
1000
0100
0010
0001
,
0010
0100
1000
0000
,
1000
0000
0010
0000
0100
0000
0000
0001
,
0000
0000
0000
0001
0100
0001
1000
0010
,
0010
0000
0000
0000
;

//---------------dance-single - Copied from----------------
#NOTES:
     dance-single:
     Copied from:
     Beginner:
     3:
     0.257,0.329,0.161,0.016,0.000,202.000,20.000,2.000,0.000,0.000:
0010
0000
0000
0000
,
0010
0000
0000
0000
,
0100
0000
0000
0000
,
0100
0000
0000
0000
,
1000
0000
0000
0001
,
1000
0000
0000
0001
,
1000
0000
0000
0000
,
0010
0000
1001
1001
,
1000
1000
1000
1000
,
1000
0000
1001
0000
,
0001
0001
0001
0001
,
0001
0000
0101
0000
,
1000
0100
0001
0010
,
1000
0100
1001
0000
,
1001
0001
0100
0001
,
0100
0010
1000
0010
,
1000
1000
0000
1000
,
0000
0001
0000
0001
,
0000
0100
0000
0100
,
0000
0010
0000
0010
,
0000
1000
1000
1000
,
0000
0010
0010
0010
,
0000
0100
0100
0100
,
0000
0001
0001
0002
,
1003
0100
0001
0100
,
0010
1000
0010
2000
,
3001
0010
0100
1000
,
0000
1001
0000
1001
,
0001
0000
1000
0000
,
0010
0000
0100
0000
,
0010
0000
1000
0000
,
0001
0000
0010
0000
,
0001
0000
1000
0000
,
0010
0000
0100
0000
,
0001
0000
0001
0000
,
1000
0000
1000
0000
,
0010
0000
0010
0000
,
0100
0000
0100
0000
,
0001
0000
0001
0000
,
1000
0000
0010
0000
,
1000
0000
0001
0000
,
0010
0000
0001
0000
,
1000
0000
0001
0000
,
1000
0000
1000
0001
,
0100
1000
0010
0001
,
0100
0000
0000
0010
,
0100
0000
1000
0001
,
0001
0000
0000
0001
,
1000
1000
0010
0100
,
0100
0000
0000
0101
,
0010
1000
0001
0010
,
1000
0000
0000
0000
,
0000
1000
0000
1100
,
0000
0100
0000
0101
,
0000
0001
0000
0011
,
0000
0010
0000
1010
,
0000
1001
0000
1001
,
0000
0001
0000
1000
,
0000
0010
0000
0100
,
0000
0010
0000
1000
,
0001
0000
1000
1000
,
1000
0000
1001
1001
,
0000
0001
0000
0100
,
0000
1000
0000
0010
,
0000
0001
0000
0100
,
0000
1000
0000
0100
,
0000
0001
0000
0010
,
0000
1000
0000
0100
,
0000
0001
0000
1000
,
0000
1001
0000
1001
,
0000
1000
0100
0010
,
0001
0000
0000
0000
,
0001
0010
0100
1000
,
1000
0100
0010
0001
,
0000
0001
1000
0010
,
0010
0000
1000
0001
,
1000
0001
0000
0010
,
0100
0001
1000
0000
,
0001
0100
0001
1000
,
1001
0000
0000
0000
,
0001
0000
1000
0000
,
0001
0000
1000
0010
,
0010
0000
0000
0000
;

//---------------dance-single - Copied from Copied f----------------
#NOTES:
     dance-single:
     Copied from Copied f:
     Medium:
     7:
     0.526,0.494,0.362,0.096,0.000,401.000,45.000,12.000,0.000,0.000:
0010
1000
0010
0000
1000
0001
0001
2000
,
0000
0001
0000
3001
0001
0000
1000
0001
,
0100
0000
0010
1000
0010
0100
0000
0001
,
0000
1000
0100
0000
0001
0100
0010
0000
,
1000
0001
0100
0000
0010
1000
0001
0100
,
0000
0100
0000
0001
0100
0010
1000
0001
,
0100
0000
0010
1000
0010
0000
1000
0001
,
0100
0000
0001
1000
0001
0000
1000
0000
,
1000
1000
0001
0001
1000
1000
0001
0001
,
0000
1000
0000
0000
0100
0000
0100
0000
,
0001
0010
0100
1000
0010
0000
1000
0020
,
0000
1030
1000
0010
0010
1000
0010
1000
,
0000
1000
0100
1000
0000
0001
0100
0001
,
0000
0001
0010
0001
0000
1000
0010
1000
,
0000
1000
0100
1000
0000
1000
0100
0010
,
0001
0100
0010
1000
0001
0100
0001
1000
,
0100
1000
0001
0000
0000
0000
1000
0000
,
0000
0100
0000
0001
,
0000
0100
0000
1000
,
1000
0100
0001
0100
1000
0100
0001
0100
,
1000
1100
0001
0101
,
0001
0011
1000
1010
,
0100
1010
0100
1010
,
0010
0101
0010
0101
,
0001
0000
1000
0000
0010
1000
0001
0000
,
1000
0100
0001
0100
,
1000
1001
0001
1001
,
0000
0110
0000
0110
,
0010
0000
1000
0000
0001
0100
0000
0100
,
0010
0000
0010
1000
0001
0000
0001
1000
,
0001
0000
1000
0001
0100
0000
0100
0010
,
1000
0000
1000
0001
0100
0000
0101
0000
,
0001
1000
0001
0000
0001
1000
0000
1000
,
0010
0000
0010
1000
0001
0000
0001
0010
,
0100
0000
0100
0010
1000
0000
1000
0100
,
0010
1000
0001
1000
,
0001
0000
1001
0000
0010
0100
0010
0000
,
1010
0000
0101
0000
0001
1000
0010
0000
,
1010
0000
0100
0000
0010
1000
0001
0000
,
1000
0001
0100
0010
,
1000
0000
1100
0000
1000
0001
0100
0000
,
0101
0000
0010
0000
0100
0001
1000
0000
,
1001
0100
1001
0010
,
1001
0100
0010
0110
,
0001
0110
1000
0110
,
0001
0000
0000
0000
0000
1000
0100
0010
,
0001
0000
0000
0000
1000
0010
0010
0100
,
0001
0000
0000
0000
0000
0001
1000
0010
,
0000
0000
1000
0000
0100
0000
0000
0001
,
0000
0100
0000
0000
0000
0001
1000
0010
,
0100
0000
0000
0001
1000
0010
1000
0001
,
0100
0001
1000
0001
,
0012
1000
0100
0010
,
0100
1000
0010
1003
,
0120
1000
0100
0001
,
0100
1000
0100
0031
,
2100
0010
0001
0100
,
0010
0001
0100
3010
,
2010
0010
0001
0001
,
0100
0100
0010
3010
,
0010
0000
0000
0010
1000
0000
1010
0000
,
0101
0000
0110
0010
,
0020
1030
2000
3001
,
0002
0103
0200
0310
,
0020
0130
0200
0310
,
0000
1000
0100
0000
0000
0010
0001
0000
,
1000
0000
0001
0100
0100
0001
0001
1000
,
0000
0000
0000
0010
0100
0001
1000
0010
,
0000
0000
1000
0100
0010
0100
1000
0100
,
0010
0001
0100
0000
0000
0010
1000
0000
,
1000
1100
1000
1100
,
0100
1010
0100
1010
,
0001
0101
0001
0101
,
0001
0100
0000
0010
1000
0010
1000
0000
,
1000
0000
1100
0000
1000
0001
0100
0000
,
0101
0000
1010
0000
0010
1000
0001
0000
,
1001
0000
0110
0000
0100
0001
1000
0000
,
1001
0000
1000
0001
0100
0000
0101
0000
,
0001
0100
0001
0100
0010
1000
0010
1000
,
0000
0010
0000
0100
0010
1000
0001
1000
,
0001
0000
1000
0000
0010
0000
1000
0001
,
0000
0000
0000
1000
0010
0100
0001
1000
,
0001
0000
0000
0000
;

//---------------dance-single - ----------------
#NOTES:
     dance-single:
     :
     Hard:
     9:
     0.651,0.626,0.370,0.016,0.173,519.000,46.000,2.000,0.000,0.000:
0010
1000
0001
1000
0010
1000
0001
0101
,
0000
0000
0110
0000
0000
0000
0010
1000
0010
0000
1000
0000
0001
0000
1000
0000
,
0001
1000
0010
0100
0010
0100
0010
0110
,
0000
0000
0010
0100
0010
0000
1000
0000
0001
0000
0100
0000
0001
0000
0100
0000
,
0101
0001
0100
0001
0100
0010
1000
0010
,
0000
0000
1010
0000
0000
0000
1000
0001
1000
0000
0001
0000
0001
0000
0100
0000
,
0001
1000
0100
1000
0001
0100
0001
1000
,
0000
0000
0010
1000
0001
0000
1000
0000
1100
0000
0000
0000
0101
0000
0000
0000
,
0001
0100
0010
1000
0001
0010
0001
1000
,
0000
0000
1001
0000
0000
0000
0010
0100
0010
0000
1000
0000
0010
0000
1000
0000
,
0001
0010
0001
0010
0001
0100
0001
0100
,
0000
0101
0001
1000
0001
1000
0001
1000
,
0000
0001
0100
0001
0000
1000
0100
1000
,
0000
1000
0010
1000
0000
0001
0010
0001
,
0000
0001
0100
0001
0000
0001
1000
0010
,
0100
0001
1000
0100
0001
0100
1000
0100
,
0001
1100
0001
1100
,
1000
0101
1000
0101
,
0010
0101
0010
0101
,
0000
0001
1000
0000
0000
0001
1000
0000
0001
1000
0001
1000
0001
0000
1000
0000
,
0001
0000
0101
0000
0010
0000
1000
0100
,
0001
0000
0000
0000
1001
0000
0000
0000
1000
0000
0000
0100
0000
0000
0001
0000
,
1000
0000
1001
0000
0010
0000
0100
0001
,
1000
0000
0000
0000
0100
0000
0000
0000
0010
0000
0000
0001
0000
0000
1000
0000
,
0001
0000
0000
0001
0100
0000
0000
0100
0010
0000
0000
0010
1000
0000
0001
0000
,
1000
0000
0000
1000
0010
0000
0000
0010
0100
0000
0000
0100
0001
0000
1000
0000
,
0001
0000
0000
0001
1000
0000
0000
1000
0010
0000
0000
0010
0100
0000
0001
0000
,
0100
0001
0100
0000
0000
0010
1000
0000
,
1001
0000
0010
0000
1000
0001
0010
0001
,
1000
0000
1000
0010
0001
0000
0001
0100
,
1000
0000
0100
0000
0001
0100
0000
1000
,
0001
0000
0001
1000
0000
1000
0001
0000
,
0011
0000
1010
0000
1000
0001
0100
0000
,
0110
0000
1001
0000
0001
0100
1000
0000
,
0001
0000
1000
0000
0010
1000
0000
1010
,
0000
0010
1000
0000
0000
0010
1000
0000
0010
1000
0010
1000
0010
0000
0000
0000
,
0000
1000
0000
0001
1000
0010
0000
0100
,
0001
0000
0001
0100
1000
0000
1000
0010
,
0100
0000
0001
0000
0100
0010
0000
1000
,
0001
0001
0010
0100
,
1000
1100
0001
0101
,
0010
0101
0100
1010
,
0100
0000
1010
0000
1000
0001
0000
0001
,
1000
0010
1000
0000
0000
0010
1000
0000
0010
1000
0010
1000
0010
0000
0000
0000
,
1100
0011
1001
1010
,
0200
0000
0300
0000
0000
0001
0010
0100
,
1000
0000
1001
0000
1000
0100
0010
0100
,
1000
0000
0000
0000
1001
0000
0000
0000
0000
0000
1000
0000
0000
0010
1000
0000
,
0010
1000
0000
0000
1000
0001
1000
0000
0001
0000
0000
0000
0001
1000
0000
0000
,
0010
0000
0000
0000
0000
0010
1000
0001
,
1000
0001
0000
0000
0001
0000
0100
0000
0010
0000
1000
0000
0010
0000
0100
0000
,
0020
0100
1000
0031
,
1000
0100
1000
0100
0010
0001
0010
0001
,
1000
0001
1000
0010
0100
0010
0100
0000
,
0001
0100
0001
0100
0010
1000
0010
1000
,
0100
1000
0100
0010
0001
0010
0001
0000
,
0001
0100
0001
0100
0010
0100
0010
1000
,
0010
1000
0010
0100
0010
0100
0001
0100
,
0010
1000
0010
0100
0010
0001
0010
0100
,
0010
1000
0010
0100
0010
0001
0010
0100
,
0010
0000
0000
0010
1000
0000
0010
0000
,
1001
0000
0011
1010
,
0011
0000
0001
1000
0010
1000
0001
1000
,
0000
0000
0000
0000
0000
0000
0001
0100
0001
0000
0100
0000
0001
0000
1000
0000
,
0000
0010
0100
0001
1000
0010
0100
0010
,
1000
0001
0100
0000
0000
0010
1000
0000
,
1010
0000
1000
0010
1000
0001
0100
0001
,
0000
0000
0000
0000
0000
0000
0001
1000
0001
0000
0100
0000
0010
0000
1000
0000
,
0000
0001
0010
0001
1000
0001
0100
0001
,
0100
0010
0010
0000
0000
1000
1000
0000
,
1001
0000
0010
0100
0010
0100
0001
1000
,
0010
0000
0000
0000
0100
0000
0010
0100
0010
0000
0100
0000
0010
0000
1000
0000
,
0000
1000
0100
0001
0100
1000
0100
1000
,
0001
1000
0001
0000
0000
1000
0001
0000
1000
0001
1000
0001
1000
0000
0000
0000
,
1001
0100
1010
0100
,
1010
0010
0101
0010
,
0101
0000
0010
0000
0100
0010
0000
0010
,
1000
0000
1000
0010
0000
0010
0100
0000
,
0010
1000
0010
0100
0010
0001
0010
0100
,
0000
0000
1000
0000
0000
0000
0010
1000
0010
0000
1000
0000
0001
0000
0100
0000
,
0010
0000
1000
0100
1000
0001
0100
0001
,
0000
0000
1000
0000
0001
1000
0001
0000
0100
0000
0010
0000
1000
0000
0010
0000
,
0000
1000
0000
0000
0000
0000
0000
0000
0000
0000
0000
0000
0000
0000
0000
0000
;
