#TITLE:La Combi Completa;
#SUBTITLE:;
#ARTIST:Nicky Jam feat. Nejo;
#TITLETRANSLIT:;
#SUBTITLETRANSLIT:;
#ARTISTTRANSLIT:;
#CREDIT:;
#BANNER:La Combi Completa-banner.PNG;
#BACKGROUND:;
#LYRICSPATH:;
#CDTITLE:!tizaTitle.png;
#MUSIC:NICKY JAM Y NEJO (LA COMBI).ogg;
#OFFSET:1.200;
#SAMPLESTART:107.101;
#SAMPLELENGTH:10.400;
#SELECTABLE:YES;
#BPMS:0.000=93.000,208.000=46.500,216.000=93.000;
#STOPS:141.000=0.160
,142.750=0.160
,149.500=0.480
,164.250=0.160
,166.500=2.260
,169.250=0.160
,174.750=0.480
,175.000=0.480
,175.250=0.480
,175.500=0.340
;
#BGCHANGES:;
// cache tags:
#FIRSTBEAT:8.000;
#LASTBEAT:280.000;
#SONGFILENAME:Songs/Reggaeton and more/La Combi/Pasto Pelu.sm;
#HASMUSIC:1;
#HASBANNER:1;
#MUSICLENGTH:192.953;
// end cache tags

//---------------dance-single - ----------------
#NOTES:
     dance-single:
     :
     Challenge:
     10:
     0.683,0.762,0.757,0.073,0.923,759.000,146.000,14.000,0.000,20.000:

0000
0000
0000
0000
,
0000
0000
0000
0000
,
1001
0000
0000
0000
0100
0000
0000
0000
1000
0000
0100
0000
0010
0000
0001
0000
0000
0000
0001
0000
0100
0000
0000
0000
0010
0000
0000
1000
0000
0000
0000
0000
,
1001
0000
0000
0000
,
1001
0000
0000
0000
0010
0000
0000
0000
0001
0000
0010
0000
0100
0000
1000
0000
0000
0000
0100
0000
0010
0000
0000
0000
0001
0000
0000
0100
0000
0000
0000
0000
,
1001
0000
0000
0000
,
0000
1000
0010
0100
0001
0000
0001
1001
0000
1001
1000
0100
0010
0000
0011
0000
,
1001
0000
1001
1000
0100
0001
1000
0010
0000
0001
0001
0010
0100
0000
1100
0000
,
0110
0000
0011
0010
0001
0100
0010
1010
0000
0110
0101
0100
0010
0000
1010
0000
,
0101
0000
1000
0100
0010
0001
0010
0100
0000
1000
0010
0100
0001
0000
1001
0000
,
1001
0100
0010
0001
0010
0000
0100
1100
0000
0110
0010
0001
0020
0000
0002
0033
,
1001
0000
1000
0100
0010
0100
1000
1010
0000
0101
0001
0100
0020
0000
2000
0000
,
3131
0000
0001
0100
0010
1000
0100
0110
0000
0110
0010
0001
0011
0000
1001
0000
,
1100
0000
0100
0010
0001
1000
0001
0010
0110
0000
0000
1100
0000
0000
0110
0000
,
1100
0100
1000
0010
0100
0001
0010
0100
0010
0001
0010
1000
0001
0100
1000
0001
,
1001
1000
0010
0100
0001
0100
0010
1000
0100
0010
0100
1000
1001
0101
0000
0000
,
0011
0010
0001
0100
0010
1000
0100
0010
0100
1000
0100
0001
1000
0010
0001
1000
,
1001
0001
0100
0010
1000
0010
0100
0001
0010
0100
0010
0001
1001
1010
0000
0000
,
0101
0001
0100
1000
0001
0010
1000
0001
1000
0010
1000
0100
0010
0001
0100
0010
,
0110
0100
1000
0001
0010
0001
1000
0100
0001
1000
0001
0100
0110
0011
0000
0000
,
1010
1000
0010
0001
1000
0100
0001
1000
0001
0100
0001
0010
0100
1000
0010
0100
,
0110
0010
0001
1000
0100
1000
0001
0010
1000
0001
1000
0010
0110
1100
0000
0000
,
0000
0000
0000
0000
1001
0000
0000
0000
1000
0000
0100
0000
0010
0000
0001
0000
0000
0000
0001
0000
0010
0000
0000
0000
0100
0000
0000
1000
0000
0000
0000
0000
,
1001
0000
0000
0000
,
0000
0000
0000
0000
0110
0000
0000
0000
0010
0000
0010
0000
0010
0000
0010
0000
0000
0000
0100
0000
0100
0000
0000
0000
1000
0000
0000
1000
0000
0000
0000
0000
,
0111
0000
0000
0000
,
0000
1000
0100
0010
0001
0000
0010
0001
0000
0001
0100
0010
1000
0000
1010
0000
,
1001
1000
0100
0010
1000
0010
1000
0010
0000
0010
0001
0100
0010
0000
1001
0000
,
1001
0000
1000
0100
0010
0100
1000
0011
0000
0011
0010
0001
0100
0000
1010
0000
,
0101
0000
1000
0100
0010
0001
0010
0100
0000
1000
0010
0100
0001
0000
1001
0000
,
0000
1000
0010
0100
0001
0000
0010
0100
0000
0100
0010
0001
0100
0000
2020
0000
,
0000
3030
1000
0010
0001
1000
0100
0001
0000
0001
0010
0100
1000
0000
1010
0000
,
0101
0000
1000
0010
1000
0100
0010
0001
0000
0001
0100
0010
1000
0000
1010
0000
,
0000
1000
0010
0100
1000
0100
0001
0001
0011
0000
0000
0110
0000
0000
1100
0000
,
1001
0000
0110
0000
1100
1100
0110
1100
0000
0110
0011
0000
0011
0110
1000
0100
,
0010
0001
0010
0100
1000
0100
0010
0001
0010
0100
1000
1001
0000
0000
0000
1000
,
0100
0010
0000
0001
0100
0010
1100
0100
0010
0001
0010
0100
1000
1100
0000
1000
,
0100
0010
0001
0010
0100
1000
1010
0000
0000
1010
0000
0101
0000
1000
0100
0010
,
0100
1000
0010
0000
0100
0010
1000
0100
0010
0000
0001
0011
0000
1000
0100
0010
,
0100
0000
1000
0000
1001
0000
0000
0000
1001
0000
0001
0000
0010
0000
0100
0000
1100
0000
1000
0000
0010
0000
0100
0000
0001
0100
0001
0000
0010
0000
0100
0000
,
1000
0100
0011
0000
1000
0100
0010
0001
0010
0100
1000
0010
0100
0001
0100
0010
,
1000
0000
0000
0000
0100
0000
0000
0000
0010
0000
0000
0000
1000
0000
0000
0000
0001
0000
0000
0000
0100
0000
0000
0000
1000
0000
0000
0000
1100
0000
0000
0000
0001
0000
0000
0000
0101
0000
0000
0000
2002
3003
0000
0000
0000
0000
0000
0000
1001
0000
0000
0000
0000
0000
0000
0000
0000
0000
0000
0000
0000
0000
0000
0000
,
1100
0000
1000
0100
0010
0000
0000
0100
0010
0000
0001
0010
0000
1100
0000
0100
,
1000
0000
0000
0000
0010
0000
0000
0000
0100
0000
0000
0000
0000
0000
0000
0000
0100
0000
0000
0000
0001
0000
0000
0000
0000
0000
0000
0000
0101
0000
0000
0000
0000
0110
0000
0000
0000
0000
0000
0000
0000
0000
0000
0000
1001
0000
0000
0000
0011
0000
0000
0000
0110
0000
0000
0000
1100
0000
0000
0000
0000
0000
0000
0000
,
1001
1000
0100
1000
0100
0010
0001
0010
0100
1000
0010
0100
0001
0010
0100
1000
,
1001
0001
0100
0010
0100
0010
0001
0010
1000
0100
0010
0100
1000
0100
0010
0001
,
0000
1000
0001
0010
0001
0010
0100
1000
0100
0010
0001
0100
0010
1000
0100
0010
,
1001
0001
1000
0010
0100
0010
0100
1000
1100
1000
0100
0001
0101
0001
0010
0100
,
1001
0001
0010
0100
1000
0100
0010
0001
0100
1000
0001
0010
1000
0100
0010
0001
,
0010
0100
1000
1000
0100
0100
0010
0010
0001
0001
0010
0100
1000
0100
0010
0001
,
1001
0000
1000
0000
0010
0000
0100
0000
0001
0000
0010
0000
0100
0000
1000
0100
0010
0000
0100
0000
1000
0000
0010
0000
0001
0000
1000
0000
0100
0000
0001
0000
,
0010
0100
1000
0000
0100
0000
1000
0000
0010
0000
0100
0000
0001
0000
0010
0000
0001
0100
0010
0000
1000
0100
0010
0000
0001
0010
0100
1000
0100
0010
0001
1000
,
0001
1100
0000
0110
0000
0011
0000
1001
0000
0011
0000
1100
0000
1010
0000
0111
,
0000
0000
0110
0000
0000
0000
1100
0000
0000
0000
0110
0000
0000
0000
1110
0000
0000
0000
1100
0000
0010
0000
0101
0000
1000
0100
0000
0010
0001
0000
1000
0010
,
1010
0000
1000
0100
0010
0100
1000
0001
0010
0100
0010
0001
1000
0100
0001
1000
,
0010
0001
1000
0100
0010
0100
1000
0100
0010
0001
0010
0100
1000
0100
0010
0001
,
0010
0100
0010
0001
0010
0100
1000
0100
0010
0001
0100
1000
0001
0010
1000
0001
,
1001
0000
1000
0010
0100
0001
1000
0100
0011
0000
0000
0110
0000
0000
1100
0000
,
0220
0000
0000
1000
0000
0000
1000
0000
1000
0000
0000
0001
0000
0000
0331
0000
,
0202
0000
0000
0010
0000
0000
1000
0000
1010
0000
0000
1000
0000
0000
0313
0000
,
2200
0000
0000
0010
0000
0000
0001
0000
0011
0000
0000
0001
0000
0000
3310
0000
,
0011
0000
0000
0000
0000
0000
0000
0000
1011
0000
0000
0100
0000
0000
0010
0000
,
1001
0000
0000
1100
0000
0000
0110
0000
0000
0001
0000
1000
0000
0000
1001
0000
,
0000
0000
0000
1000
0000
0000
0010
0000
0000
0100
0000
0001
0000
0000
1001
0000
,
0000
0000
0000
1100
0000
0000
0110
0000
0000
0011
0000
0001
0100
0000
0011
0000
,
0000
1000
0100
0100
0010
0010
0001
0001
,
1001
1000
0000
0010
0000
0100
0000
0001
,
0000
0010
0000
0100
0000
1000
0000
0010
,
0000
0001
0000
1000
0000
0100
0000
0001
,
0000
0000
1000
0000
0100
0000
0010
0000
0100
0000
1000
0100
0010
0001
0010
0100
,
1001
0000
0000
0000
;
