#TITLE:Doodah;
#SUBTITLE:[Seph Cut];
#ARTIST:Cartoons;
#TITLETRANSLIT:;
#SUBTITLETRANSLIT:;
#ARTISTTRANSLIT:;
#CREDIT:;
#BANNER:../thisandthat-bn.png;
#BACKGROUND:../thisnthat-bg.png;
#LYRICSPATH:;
#CDTITLE:;
#MUSIC:03 - Doodah.ogg;
#OFFSET:-0.424;
#SAMPLESTART:44.590;
#SAMPLELENGTH:12.000;
#SELECTABLE:YES;
#DISPLAYBPM:136.000;
#BPMS:0.000=136.010,40.000=68.005,41.000=272.020,44.000=136.010,120.000=68.005,121.500=136.010,230.000=272.020,234.000=136.010,358.000=68.005,359.000=272.020,361.000=10.000;
#STOPS:43.000=0.221
,121.500=0.221
,230.000=0.662
,233.000=0.221
,361.000=0.100
;
#BGCHANGES:;
// cache tags:
#FIRSTBEAT:16.000;
#LASTBEAT:361.000;
#SONGFILENAME:Songs/Seph, Gson & Shpadoinkle's Pack of This 'n That/Doodah [11]/Doodah.sm;
#HASMUSIC:1;
#HASBANNER:1;
#MUSICLENGTH:105.000;
// end cache tags

//---------------dance-single - ----------------
#NOTES:
     dance-single:
     :
     Challenge:
     11:
     1.000,1.000,0.086,1.000,1.000,878.000,9.000,117.000,27.000,0.000:

0000
0000
0000
0000
,
0000
0000
0000
0000
,
0000
0000
0000
0000
,
0000
0000
0000
0000
,
1000
1000
0100
0010
0001
1000
0200
0300
,
0100
0000
0000
0000
0000
0000
0000
0000
2000
0000
0000
0000
0000
0000
0000
0000
0000
0000
0000
0000
0000
0000
0000
0000
3000
0000
0000
0000
0000
0000
0000
0000
0100
0000
0000
0000
0000
0000
0000
0000
2000
0000
0000
0000
0000
0000
0000
0000
0000
0000
0000
0000
0000
0000
0000
0000
3200
0300
0000
0000
0000
0000
0000
0000
,
0001
0001
0100
1000
0010
0100
0002
0000
,
2003
0000
0000
0000
0000
3000
0020
0000
0032
0000
0000
0000
0023
0000
0000
0000
,
1030
0000
1000
0100
1000
0000
1000
0001
1000
0000
1000
0010
1000
0000
1000
0100
,
1000
0100
0010
0001
0010
0100
1000
0100
,
1000
0000
0000
0010
0001
0000
0010
0000
2000
0000
0000
0000
0000
0000
0000
0000
0000
0000
0000
0000
0000
0000
0000
0000
3100
0000
0000
0000
0000
0000
0000
0000
,
1000
1000
0100
1000
0100
0010
0002
0000
,
1003
0000
0000
0000
0100
0000
0000
0000
1000
0000
0000
0000
0000
0000
0000
0000
0100
0000
0000
0000
0000
0000
0000
0000
0100
0000
0000
0000
0000
0000
0000
0000
1000
0000
0000
0000
0100
0000
0000
0000
0010
0000
0000
0000
0000
0000
0000
0000
0001
0000
0000
0000
0000
0000
0000
0000
0002
0003
0000
0000
0000
0000
0000
0000
,
0010
0010
0001
1000
0100
0010
0002
0000
,
2003
0000
0000
3100
0020
0000
0031
0000
0010
0001
1000
0000
1000
0100
0010
0001
,
1000
1000
0001
0010
0100
1000
0200
0000
,
2300
0000
0000
0000
0000
0000
0000
0000
3200
0000
0000
0000
0000
0000
0000
0000
0000
0000
0000
0000
0000
0000
0000
0000
0000
0000
0000
0000
0000
0000
0000
0000
2300
0000
0000
0000
0000
0000
0000
0000
3200
0000
0000
0000
0000
0000
0000
0000
0000
0000
0000
0000
0000
0000
0000
0000
2300
3000
0000
0000
0000
0000
0000
0000
,
0001
0001
0010
0100
1000
0100
2000
0000
,
3020
0000
0000
0130
0001
0000
1000
0000
0200
0000
0010
0000
0300
0000
0001
0010
,
0100
1000
0001
0000
0001
0000
1000
0010
0010
0001
0010
0010
1000
0100
0100
0001
,
0100
0100
1000
0000
1000
0000
0001
0010
0100
1000
0100
0000
0100
0000
1000
0100
,
0010
0001
0010
0000
0010
0000
0001
0010
0010
1000
0010
0010
0001
0100
0100
1000
,
0001
1000
0000
1000
0000
1000
0000
1000
0010
0100
0001
0000
0001
0000
0000
0000
,
MM1M
0001
0010
0100
1000
0100
2000
0000
,
3001
0000
0000
0000
0000
0000
0000
0000
0000
0000
0000
0000
0000
0000
0000
0000
0001
0000
0000
0000
0000
0000
0000
0000
1M00
0000
0000
0000
0000
0000
0000
0000
2000
0000
0000
0000
0000
0000
0000
0000
3200
0000
0000
0000
0000
0000
0000
0000
0320
0000
0000
0000
0000
0000
0000
0000
0032
0000
0000
0000
0000
0000
0000
0003
,
0001
0000
1000
0000
0010
0000
0100
0000
0001
0000
0001
0010
0002
0000
0003
0000
,
2000
0000
0000
0000
0000
0000
0000
3000
2000
0000
0000
0000
0000
0000
0000
0000
3100
0000
0000
0000
0000
0000
0000
0000
1000
0000
0000
0000
0000
0000
0000
0000
0100
0000
0000
0000
0000
0000
0000
0000
0010
0000
0000
0000
0000
0000
0000
0000
0002
0000
0000
0000
0000
0000
0000
0000
0000
0000
0000
0000
0000
0000
0000
0000
,
1003
0100
1000
0001
1000
0100
0010
0001
1000
0010
0100
0001
0010
0100
1000
0100
,
0010
0000
0001
0000
0100
0000
0010
0000
1000
0000
0001
0000
1000
0000
0100
0000
0010
0000
0100
0000
1000
0000
0100
0000
0010
0000
0001
0000
0020
0030
0100
0000
,
2000
3000
0100
0000
0010
0000
0100
0000
1000
0000
0001
0000
1000
0000
0010
0000
0100
0000
0001
0000
0010
0000
0100
0000
1000
0000
0010
0000
0200
0300
0010
0000
,
2000
3000
0000
0000
0M00
0000
0000
0000
00M0
0000
0000
0000
MMMM
0000
0000
0000
1000
0000
0100
0000
0010
0000
0000
0000
0001
0000
0010
0000
0001
0000
0000
0000
,
0010
0100
1000
0100
0010
0000
0001
0000
1000
0100
1000
0000
0001
0010
0100
0000
,
1000
0000
0000
0000
0100
0000
0000
0000
0010
0000
0000
0000
0001
0000
0000
0000
1000
0000
0000
0000
0000
0000
0000
0000
0200
0300
0000
0000
0000
0000
0000
0000
1000
0000
0000
0000
0100
0000
0000
0000
1000
0000
0000
0000
0000
0000
0000
0000
0010
0000
0000
0000
0100
0000
0000
0000
0010
0000
0000
0000
0000
0000
0000
0000
,
1000
0100
0010
0100
0020
0000
0000
0000
0032
0000
0000
0013
0002
0000
2003
0000
,
3020
0000
0000
0000
MM3M
0000
0000
0000
1000
0100
1000
0000
0010
0100
0001
0000
,
1000
0100
0010
0001
1000
0000
1000
0000
0010
0100
0001
0000
0010
0100
1000
0000
,
0001
0000
0000
0000
0010
0000
0000
0000
0100
0000
0000
0000
1000
0000
0000
0000
0001
0000
0000
0000
0000
0000
0000
0000
0002
0003
0000
0000
0000
0000
0000
0000
1000
0000
0000
0000
0001
0000
0000
0000
1000
0000
0000
0000
0000
0000
0000
0000
0010
0000
0000
0000
0100
0000
0000
0000
0001
0000
0000
0000
0000
0000
0000
0000
,
0010
0100
1000
0100
0010
0000
0010
0000
0002
0000
0000
0013
0002
0000
0013
0000
,
0200
0000
1000
0000
1300
0000
0000
0000
2000
0000
0000
3100
0020
0000
2030
0000
,
3020
0000
0000
0000
0000
0000
0000
0000
0032
0000
0000
0103
2000
0000
3200
0000
,
0320
0000
0000
0000
0000
0000
0000
0000
0000
0000
0000
0000
0000
0000
0000
0000
0030
0000
0000
0000
0000
0000
0000
0000
2000
3000
0000
0000
0000
0000
0000
0000
0001
0000
0000
0000
0000
0000
0000
0000
0001
0000
0000
0000
0000
0000
0000
0000
0010
0000
0000
0000
0000
0000
0000
0000
0100
0000
0000
0000
0000
0000
0000
0000
,
1000
0000
0100
0000
2000
0000
0000
0000
3200
0000
0300
0010
0002
0000
0023
0000
,
0032
0000
0010
0000
0003
0000
0001
0010
0100
1000
0100
0000
0100
0000
1000
0100
,
0100
0001
0100
0100
1000
0010
0010
0001
0010
0010
1000
0000
1000
0000
0001
0010
,
0100
0010
0001
0000
0001
0000
1000
0100
1000
0100
0010
0000
0010
0000
0001
0100
,
0100
1000
0100
0100
0001
0010
0010
1000
0001
1000
0000
1000
0000
1000
0000
1000
,
0100
0000
0000
0000
0010
0000
0000
0000
0001
0000
0000
0000
0000
0000
0000
0000
0001
0000
0000
0000
0000
0000
0000
0000
1000
0000
0000
0000
0100
0000
0000
0000
0010
0000
0000
0000
0001
0000
0000
0000
0020
0030
0000
0000
0000
0000
0000
0000
0010
0000
0000
0000
0000
0000
0000
0000
0002
0003
0000
0000
0010
0000
0000
0000
,
0010
0000
0000
0000
1000
0000
0000
0000
0020
0030
0000
0000
0010
0000
0000
0000
0002
0003
0000
0000
0100
0000
0000
0000
0100
0000
0000
0000
1000
0000
0000
0000
0100
0000
0000
0000
0100
0000
0000
0000
0002
0003
0000
0000
0000
0000
0000
0000
0001
0000
0000
0000
0000
0000
0000
0000
2000
3000
0000
0000
0100
0000
0000
0000
,
0010
0000
0000
0000
0100
0000
0000
0000
2000
3000
0000
0000
0000
0000
0000
0000
2000
3000
0000
0000
0000
0000
0000
0000
0001
0000
0000
0000
0010
0000
0000
0000
0001
0000
0000
0000
0010
0000
0000
0000
0200
0300
0000
0000
0000
0000
0000
0000
0100
0000
0000
0000
0000
0000
0000
0000
2000
3000
0000
0000
0010
0000
0000
0000
,
0010
0000
0000
0000
0001
0000
0000
0000
0020
0030
0000
0000
0010
0000
0000
0000
2000
3000
0000
0000
0100
0000
0000
0000
0100
0000
0000
0000
0001
0000
0000
0000
1000
0000
0000
0000
0001
0000
0000
0000
0000
0000
0000
0000
0001
0000
0000
0000
0000
0000
0000
0000
0001
0000
0000
0000
0000
0000
0000
0000
0001
0000
0000
0000
,
0010
0000
0000
0000
0100
0000
0000
0000
2000
3000
0000
0000
0000
0000
0000
0000
2000
3000
0000
0000
0000
0000
0000
0000
0000
0000
0000
0000
0000
0000
0000
0000
1MMM
0000
0000
0000
0000
0000
0000
0000
0010
0000
0000
0000
0000
0000
0000
0000
0100
0000
0000
0000
0000
0000
0000
0000
0001
0000
0000
0000
0000
0000
0000
0000
,
1000
1000
0002
0000
0103
0000
0010
1000
,
2000
0000
0000
0000
0000
0000
0000
0000
3200
0000
0000
0000
0000
0000
0000
0000
0320
0000
0000
0000
0000
0000
0000
0000
0032
0000
0000
0000
0000
0000
0000
0003
0001
0000
0000
0000
0000
0000
0000
0000
1000
0000
0000
0000
0000
0000
0000
0000
0010
0000
0000
0000
0000
0000
0000
0000
0100
0000
0000
0000
0000
0000
0000
0000
,
0010
0000
0000
0000
0000
0000
0000
0000
0010
0000
0000
0000
0100
0000
0000
0000
0020
0000
0000
0000
0000
0000
0000
0000
0030
0000
0000
0000
0000
0000
0000
0000
2000
0000
0000
0000
0000
0000
0000
3000
2000
0000
0000
0000
0000
0000
0000
0000
3100
0000
0000
0000
0000
0000
0000
0000
1000
0000
0000
0000
0000
0000
0000
0000
,
0100
0000
0010
0000
0002
0000
0000
0000
1003
0100
0010
0001
0010
0100
0010
0001
,
0010
0100
1000
0010
0100
0001
0010
0100
1000
0001
1000
0010
1000
0100
0010
0100
,
1000
0000
0000
0000
0001
0000
0000
0000
1000
0000
0000
0000
0001
0000
0000
0000
1000
0000
0000
0000
0010
0000
0000
0000
2000
3000
0000
0000
0100
0000
0000
0000
0020
0030
0000
0000
0100
0000
0000
0000
1000
0000
0000
0000
0010
0000
0000
0000
1000
0000
0000
0000
0100
0000
0000
0000
0010
0000
0000
0000
0001
0000
0000
0000
,
1000
0000
0000
0000
0100
0000
0000
0000
0010
0000
0000
0000
0001
0000
0000
0000
0010
0000
0000
0000
0100
0000
0000
0000
2000
3000
0000
0000
0000
0000
0000
0000
0002
0003
0000
0000
0000
0000
0000
0000
0000
0000
0000
0000
0000
0000
0000
0000
000M
0000
0000
0000
00M0
0000
0000
0000
0M00
0000
0000
0000
0000
0000
0000
0000
,
M000
0M00
00M0
0000
MMMM
0000
0000
0000
0001
0010
0100
0000
1000
0100
0010
0000
,
0001
0010
0100
1000
0100
0000
0100
0000
0010
0001
0010
0000
0100
1000
0100
0000
,
0010
0001
0100
0010
1000
0000
1000
0000
0001
1000
0001
0000
1000
0100
1000
0000
,
0001
0010
0100
0010
0001
0000
0001
0000
2000
0000
3000
0100
2000
0000
3200
0000
,
2300
0000
0000
0000
0000
0000
0000
0000
0002
0003
0000
0000
0000
0000
0000
0000
3000
0000
0000
0000
0000
0000
0000
0000
0000
0000
0000
0000
0000
0000
0000
0000
2000
0000
0000
0000
0000
0000
0000
0000
0000
0000
0000
0000
3100
0000
0000
0000
2000
0000
0000
0000
0000
0000
0000
0000
3002
0000
0000
0000
0000
0000
0000
0000
,
0023
0000
0000
0000
0000
0000
0000
0000
0230
0000
0000
1300
0200
0000
0320
0000
,
0032
0000
0000
0000
0000
0000
0000
0000
0000
0000
0000
0000
0000
0000
0000
0000
0000
0000
0000
0000
0000
0000
0000
0000
2003
3000
0000
0000
0000
0000
0000
0000
0001
0000
0000
0000
0000
0000
0000
0000
0001
0000
0000
0000
0000
0000
0000
0000
0010
0000
0000
0000
0000
0000
0000
0000
0100
0000
0000
0000
0000
0000
0000
0000
,
1000
0000
0100
0000
0020
0000
0000
0000
0032
0000
0000
1003
0002
0000
0023
0000
,
0230
0000
0000
0000
0000
0000
0000
0000
2000
3000
0000
0000
0000
0000
0000
0000
0300
0000
0000
0000
0000
0000
0000
0000
0000
0000
0000
0000
0000
0000
0000
0000
1000
0000
0000
0000
0100
0000
0000
0000
0010
0000
0000
0000
0001
0000
0000
0000
0010
0000
0000
0000
0100
0000
0000
0000
1000
0000
0000
0000
0010
0000
0000
0000
,
0100
0001
1000
0010
0100
0001
1000
0100
0010
0001
0100
0010
1000
0100
0010
0100
,
1000
0100
0010
0001
1000
0100
0010
0001
1000
0001
0010
0100
0010
0001
0100
0010
,
1000
0100
1000
0010
1000
0001
1000
0100
0010
0001
0010
0100
1000
0100
0010
0001
,
2000
0000
0000
3100
0010
0000
0002
0000
1003
0100
0010
0001
1000
0010
0100
0001
,
0010
0100
1000
0010
1000
0100
1000
0100
0010
0001
0100
0010
0100
0001
0010
0100
,
1000
0100
1000
0100
0010
0100
0010
0001
2000
0000
0000
3100
1000
0000
0001
0000
,
0200
0000
0000
0310
0100
0000
0001
0000
0020
0000
0000
0130
2000
0000
3010
0000
,
2000
0000
3000
0100
0010
0000
0001
0010
0100
1000
0100
0000
0100
0000
1000
0100
,
0010
0001
0010
0100
1000
0100
0010
0001
1000
0001
1000
0000
1000
0000
0001
0010
,
0100
1000
0001
0000
0001
0000
0010
0100
1000
0100
0010
0000
0010
0000
0001
0100
,
0010
1000
0001
1000
0010
1000
0100
0010
0001
0100
0000
0100
0000
0100
0000
0001
,
0010
0100
1000
0000
1000
0000
0010
0000
1000
0100
0010
0000
0010
0000
0001
0010
,
0010
1000
0010
0010
0001
0100
0100
1000
0100
0100
0001
0000
0001
0000
0010
0100
,
1000
0100
1000
0000
1000
0000
0100
0010
0001
0010
0100
0000
0100
0000
1000
0100
,
0100
0001
0100
0100
1000
0100
0010
0001
1000
0001
0000
0001
0000
0001
0000
0010
,
0100
1000
0100
0000
0100
0000
0010
0100
1000
0001
1000
0000
1000
0000
0001
0010
,
0010
1000
0010
0010
0001
0100
0100
1000
0100
0100
0001
0000
0001
0000
1000
0100
,
0010
0100
1000
0000
1000
0000
0010
0100
0001
0010
0100
0000
0100
0000
1000
0100
,
0100
0001
0100
0100
1000
0010
0100
0001
1000
0100
0000
0100
0000
0100
0000
1000
,
0100
0010
0001
0000
0001
0000
1000
0100
1000
0000
1100
0000
0000
0000
0110
0000
,
0000
0000
0001
0000
0011
0000
0001
0010
0100
0000
1100
0000
0000
0000
1100
0000
,
0000
0000
0001
0000
1001
0000
1000
0100
0010
0000
0011
0000
0000
0000
0101
0000
,
0000
0000
0000
0000
0010
0000
0000
0000
1010
0000
0000
0000
1000
0000
0100
0000
2000
0000
0000
3100
0010
0000
0001
0000
20M0
0000
0000
0000
0000
0000
0000
0000
,
0000
3010
0000
0000
;
