#TITLE:The Quickest Way To The Center Of The Hearth;
#SUBTITLE:Feels The Arrow;
#ARTIST:GORESHIT;
#TITLETRANSLIT:;
#SUBTITLETRANSLIT:;
#ARTISTTRANSLIT:;
#CREDIT:Ov3rHell3XoduZ;
#BANNER:../bn.png;
#BACKGROUND:../bg.png;
#LYRICSPATH:;
#CDTITLE:;
#MUSIC:TQWTTCOTH.ogg;
#OFFSET:-0.176;
#SAMPLESTART:43.839;
#SAMPLELENGTH:12.000;
#SELECTABLE:YES;
#BPMS:0.000=186.960;
#STOPS:;
#BGCHANGES:;
// cache tags:
#FIRSTBEAT:4.000;
#LASTBEAT:764.000;
#SONGFILENAME:Songs/EXoduz' Feels The Arrow/TQWTTCOTH - [Ov3rHell3XoduZ]/TQWTTCOTH.sm;
#HASMUSIC:1;
#HASBANNER:1;
#MUSICLENGTH:251.840;
// end cache tags

//---------------dance-single - Ov3rHell3XoduZ----------------
#NOTES:
     dance-single:
     Ov3rHell3XoduZ:
     Challenge:
     15:
     1.000,1.000,0.071,0.421,1.000,1695.000,18.000,106.000,10.000,0.000:

0000
0000
0000
0000
,
2000
0000
0000
0000
,
3002
0000
0000
0000
,
0203
0000
0000
0000
,
0320
0000
0000
0000
,
2030
0000
0000
0000
,
3200
0000
0000
0000
,
0320
0000
0000
0000
,
0032
0000
0000
0000
,
2003
0000
0000
0000
,
3002
0000
0000
0000
,
0023
0000
0000
0000
,
0230
0000
0000
0000
,
2300
0000
0000
0000
,
3002
0000
0000
0000
,
0203
0000
0000
0000
,
0320
0000
0000
0000
,
2030
0000
0000
0000
,
3200
0000
0000
0000
,
0320
0000
0000
0000
,
0032
0000
0000
0000
,
2003
0000
0000
0000
,
3200
0000
0000
0000
,
2300
0000
0000
0000
,
3001
0100
0010
0000
1000
0100
1000
0000
0001
0010
0100
0000
1000
0010
0100
0000
,
0001
1000
0100
0000
0010
0001
1000
0000
0001
0100
0001
0000
1000
0100
0010
0000
,
0001
0100
0010
0000
1000
0001
0010
0000
0100
1000
0001
0000
1000
0010
0100
0000
,
0001
0010
0001
0000
1000
0100
0010
0000
0001
1000
0001
0000
1000
0100
1000
0000
,
0010
0100
0001
0000
1000
0100
1000
0000
0001
1000
0001
0000
0100
0010
1000
0000
,
0001
0010
0100
0000
1000
0001
0100
0000
0010
1000
0001
0000
0010
0100
1000
0000
,
0001
0100
0001
0000
1000
0100
0010
0000
0001
1000
0010
0000
0100
0001
1000
0000
,
0100
0010
0100
0000
1000
0010
0100
0000
0001
0010
0001
0000
1000
0100
0010
0000
,
0001
1000
0001
0000
1000
0100
1000
0000
0010
0100
0001
0000
1000
0001
1000
0000
,
0001
0100
0001
0000
0010
0100
1000
0000
0001
0100
0010
0000
1000
0100
1000
0000
,
0001
0010
0100
0000
1000
0001
0100
0000
0010
1000
0100
0000
0010
0100
1000
0000
,
0001
0100
0001
0000
1000
0010
1000
0000
0100
1000
0010
0000
0100
0001
0100
0000
,
0010
1000
0001
0000
0010
0100
1000
0000
0001
0100
0001
0000
1000
0100
0010
0000
,
0001
1000
0001
0000
1000
0010
1000
0000
0001
0100
0001
0000
1000
0100
0010
0000
,
0001
1000
0010
0000
0100
0001
1000
0000
0100
1000
0100
0000
1000
0001
1000
0000
,
0010
0100
0001
0000
1000
0100
1000
0000
0001
0010
0001
0000
1000
0100
1000
0000
,
0002
0000
0203
0000
0320
0000
1030
0100
,
0020
0030
0022
0033
0202
0000
0000
0303
,
0020
0000
2030
0000
3002
0000
0103
0010
,
2000
0000
3200
0000
0320
0000
0030
0001
,
0201
0000
0320
0000
2030
0000
0000
3100
,
0120
0032
2003
0000
,
3002
0000
0203
0000
0320
0000
0000
1030
,
2200
3300
0220
0330
0022
0033
0000
0001
,
2000
0000
3200
0000
0320
0000
0030
0001
,
0202
0303
0220
0330
2020
0000
0000
3030
,
2100
0000
3200
0000
0320
0000
0000
0031
,
0201
0000
0320
0000
2030
0000
0000
3100
,
0020
0000
0032
0000
2003
0000
0000
3001
,
2001
3200
2300
0000
,
3002
0000
0203
0000
0320
0000
0030
1000
,
2200
3300
0220
0330
2200
3300
0000
0001
,
2001
0000
3200
0000
0320
0000
0030
0001
,
0101
0000
0000
0000
1000
0100
0010
0001
1000
0000
0000
0000
0010
0100
0001
1000
,
0100
0000
0000
0000
0010
0001
1000
0001
0010
0000
0000
0000
0100
1000
0100
1000
,
0010
0000
0000
0000
0100
0001
0010
0100
1000
0000
0000
0000
0001
0100
0001
1000
,
0100
0000
0000
0000
0010
0001
1000
0001
0010
0000
0000
0000
0100
1000
0100
1000
,
0010
0000
0000
0000
0100
0001
0010
0001
0010
0000
0000
0000
0100
1000
0001
0100
,
0010
0000
0000
0000
1000
0100
1000
0001
0010
0000
0000
0000
0100
1000
0001
0010
,
0100
0000
0000
0000
1000
0001
0100
0010
1000
0000
0000
0000
0001
0010
0100
0010
,
0001
0000
0000
0000
1000
0100
0010
0100
1000
0000
0000
0000
0001
0100
0010
1000
,
0001
0000
0000
0000
1000
0100
1000
0001
0010
0000
0000
0000
0100
1000
0001
0100
,
0001
0000
0000
0000
1000
0100
1000
0010
0100
0000
0000
0000
0001
0010
0100
1000
,
0001
0000
0000
0000
1000
0010
0100
0001
1000
0000
0000
0000
0100
1000
0010
0100
,
0001
0000
0000
0000
0010
0001
1000
0100
0010
0000
0000
0000
0001
1000
0100
1000
,
0001
0000
0000
0000
0010
0100
1000
0001
0100
0000
0000
0000
0010
1000
0001
0100
,
0010
0000
0000
0000
1000
0100
1000
0001
0010
0000
0000
0000
0100
1000
0001
1000
,
0100
0000
0000
0000
0010
0001
1000
0010
0100
0000
0000
0000
0001
0010
0100
1000
,
0001
0010
0001
1000
0100
0010
0001
1000
0001
0100
0001
0010
0100
1000
0001
0100
,
0001
1000
0100
1000
0010
0100
0001
1000
0001
0010
0001
1000
0100
0010
0100
1000
,
0010
0100
0001
0010
0001
1000
0100
0010
0001
1000
0010
0100
0001
1000
0001
0010
,
0001
1000
0100
0010
0100
1000
0010
0100
0001
0010
0001
1000
0100
0010
0001
1000
,
0010
0100
0010
1000
0001
0100
0001
1000
0100
0010
0001
1000
0010
1000
0001
0100
,
0001
0010
0100
1000
0010
0100
0001
1000
0100
1000
0010
0100
0001
0010
0100
1000
,
0001
0100
0001
1000
0100
0010
0001
1000
0010
1000
0001
0100
0010
1000
0001
0010
,
0100
1000
0001
0100
0001
1000
0100
0010
0100
1000
0001
0100
0001
1000
0010
0100
,
0001
0010
0001
1000
0100
0010
0100
1000
0010
0100
0001
1000
0001
0010
0100
1000
,
0001
0100
0001
1000
0100
0010
0001
1000
0010
1000
0001
0100
0010
1000
0001
0010
,
0001
1000
0100
0010
0100
1000
0001
0100
0001
1000
0100
0010
0001
1000
0010
0100
,
0001
1000
0001
0010
0100
1000
0001
0100
0001
1000
0100
0010
0001
1000
0001
0100
,
0001
0010
0100
1000
0001
0100
0001
1000
0100
0010
0100
1000
0001
0100
0010
1000
,
0001
0010
0001
1000
0100
0010
0100
1000
0010
0100
0001
1000
0001
0010
0100
1000
,
0010
0100
0010
1000
0100
0010
0001
1000
0001
0100
0001
0010
0100
1000
0010
0100
,
0001
1000
0100
1000
0001
0100
0010
1000
0001
0010
0100
1000
0100
0010
0001
1000
,
0002
0000
0000
0000
,
2003
0000
0000
0000
,
3200
0000
0000
0000
,
2300
0000
0000
0000
,
3020
0000
0000
0000
,
0230
0000
0000
0000
,
0302
0000
0000
0000
,
2003
0000
0000
0000
,
3002
0000
0000
0000
,
0023
0000
0000
0000
,
0230
0000
0000
0000
,
2300
0000
0000
0000
,
3200
0000
0000
0000
,
0320
0000
0000
0000
,
0031
0100
0001
1000
0100
0010
0001
1000
,
0100
1000
0010
0100
0001
0010
0100
1000
,
0001
0M00
000M
M000
,
0M00
M000
00M0
0M00
,
000M
00M0
0M00
0000
,
0000
0000
0000
0000
,
1000
0100
0010
0001
1000
0100
0010
0001
1000
0010
0100
0010
1000
0001
0100
0001
,
1000
0100
0010
0001
1000
0100
0010
0001
1000
0010
1000
0100
1000
0001
0100
0010
,
1000
0100
0010
0001
1000
0100
0010
0001
1000
0001
0100
0001
0010
0001
1000
0100
,
1000
0001
0100
0010
1000
0001
0100
0010
1000
0001
0010
0001
1000
0100
1000
0001
,
0100
0010
1000
0001
0100
0010
1000
0001
0100
0001
0010
0001
1000
0100
0010
0001
,
1000
0010
0100
0001
1000
0010
0100
0001
1000
0100
1000
0010
0100
0001
0010
0001
,
1000
0100
0010
0001
1000
0100
0010
0001
1000
0100
1000
0001
0100
0001
0010
0001
,
1000
0100
0010
0001
1000
0100
0010
0001
1000
0010
1000
0001
1000
0100
1000
0001
,
0100
0010
1000
0001
0100
0010
1000
0001
0100
0001
0010
0001
1000
0100
0010
0001
,
1000
0010
0100
0001
1000
0010
0100
0001
1000
0100
1000
0010
0100
0001
0010
0001
,
1000
0100
0010
0001
1000
0100
0010
0001
1000
0100
1000
0001
0100
0001
1000
0010
,
1000
0100
0010
0001
1000
0100
0010
0001
1000
0100
1000
0010
0100
0001
1000
0001
,
0010
0100
1000
0001
0010
0100
1000
0001
0010
0001
1000
0100
1000
0010
0100
0001
,
1000
0100
0010
0001
1000
0100
0010
0001
1000
0010
1000
0001
0100
0010
1000
0001
,
1000
0100
0010
0001
1000
0100
0010
0001
1000
0100
1000
0001
0100
0010
1000
0001
,
1000
0001
0100
0010
1000
0001
0100
0010
1000
0100
1000
0001
0010
0100
1000
0001
,
0100
0010
1000
0001
0100
0010
1000
0001
0100
0001
0010
0100
1000
0001
0100
0001
,
1000
0100
0010
0001
1000
0100
0010
0001
1000
0010
1000
0001
0100
0001
0010
0100
,
1000
0001
0100
0010
1000
0001
0100
0010
1000
0001
0010
0001
1000
0010
1000
0001
,
0100
0010
1000
0001
0100
0010
1000
0001
0100
0001
0010
0100
0010
0001
1000
0100
,
1000
0001
0100
0010
1000
0001
0100
0010
1000
0001
0010
0001
1000
0100
1000
0010
,
0100
0001
0010
0100
1000
0001
0010
0100
1000
0001
0100
0001
1000
0100
0010
0001
,
1000
0010
0100
0001
1000
0010
0100
0001
0010
0001
1000
0100
0010
0100
1000
0001
,
0100
0010
1000
0001
0100
0010
1000
0001
0100
0001
0010
0001
1000
0100
0010
0001
,
1000
0010
0100
0001
1000
0010
0100
0001
0010
0001
1000
0100
0010
0100
1000
0001
,
1000
0100
0010
0001
1000
0100
0010
0001
1000
0010
1000
0100
1000
0010
0100
0001
,
1000
0100
0010
0001
1000
0100
0010
0001
1000
0001
0100
0001
0010
0001
0010
0100
,
1000
0001
0100
0010
1000
0001
0100
0010
1000
0001
0100
0001
0010
0001
1000
0010
,
0100
0001
0010
0100
1000
0001
0010
0100
1000
0001
0100
0001
1000
0100
1000
0001
,
0100
0010
1000
0001
0100
0010
1000
0001
0100
0010
1000
0100
1000
0010
0100
0001
,
1000
0100
0010
0001
1000
0100
0010
0001
1000
0001
0100
0001
0010
0100
1000
0001
,
1000
0100
0010
0001
1000
0100
0010
0001
1000
0100
1000
0001
0100
0001
0010
0100
,
1000
0001
0100
0010
1000
0001
0100
0010
1000
0001
0010
0001
1000
0100
0010
0001
,
1000
0001
0100
0010
1000
0001
0100
0010
1000
0001
0100
0001
0010
0001
0100
0001
,
1000
0100
0010
0001
1000
0100
0010
0001
1000
0010
1000
0001
0100
0001
1000
0100
,
1000
0001
0100
0010
1000
0001
0100
0010
1000
0001
0010
0001
1000
0100
0010
0001
,
1000
0010
0100
0001
1000
0010
0100
0001
1000
0100
1000
0010
0100
0001
0010
0001
,
1000
0100
0010
0001
1000
0100
0010
0001
1000
0001
0100
0001
0010
0001
0100
0001
,
1000
0100
0010
0001
1000
0100
0010
0001
1000
0100
1000
0010
1000
0001
1000
0100
,
1000
0010
0100
0001
1000
0010
0100
0001
0010
0100
1000
0001
0100
0001
1000
0100
,
1000
0100
0010
0001
1000
0100
0010
0001
1000
0100
1000
0001
0100
0001
0010
0100
,
1000
0100
0010
0001
1000
0100
0010
0001
1000
0010
1000
0001
0100
0001
0010
0100
,
1000
0001
0100
0010
1000
0001
0100
0010
1000
0001
0010
0001
1000
0100
0010
0100
,
1000
0100
0010
0001
1000
0100
0010
0001
1000
0100
1000
0010
0100
0001
1000
0001
,
1000
0010
0100
0001
1000
0010
0100
0001
1000
0100
1000
0010
0100
0001
0010
0001
,
1000
0100
0010
0001
1000
0100
0010
0001
1000
0100
1000
0001
0100
0001
0010
0100
,
1000
0010
0100
0001
1000
0010
0100
0001
1000
0100
1000
0010
0100
0001
0010
0001
,
1000
0100
0010
0001
1000
0100
0010
0001
1000
0100
1000
0001
0100
0001
0010
0100
,
1000
0001
0100
0001
1000
0010
0100
0010
1000
0100
0010
0001
1000
0001
0100
0001
,
0010
0100
0010
0001
1000
0010
0100
0010
1000
0100
0010
0001
1000
0001
0100
0001
,
1000
0100
0010
0100
1000
0001
0100
0001
0010
0100
1000
0010
0100
0010
1000
0001
,
0100
0010
1000
0001
0010
0001
1000
0100
0010
0100
1000
0001
0100
0001
1000
0010
,
0100
0001
0010
0001
1000
0100
0010
0100
1000
0010
0100
0001
0010
0001
1000
0100
,
0010
0001
1000
0001
0100
0001
0010
0001
1000
0010
0100
0010
1000
0100
0010
0001
,
1000
0100
1000
0010
0100
0000
0000
0000
0001
0010
0100
1000
0001
0000
0000
0000
,
1000
0100
1000
0010
0100
0000
0000
0000
0001
0010
0100
1000
0001
0000
0000
0000
,
1000
0100
1000
0100
0010
0000
0001
0000
1000
0100
1000
0010
0100
0000
0001
0000
,
0010
0100
1000
0100
0010
0000
0001
0000
1000
0100
1000
0010
0100
0000
0001
0000
,
0010
0100
0010
0001
1000
0000
0010
0000
0100
0001
0010
0001
1000
0000
0100
0000
,
0010
0001
1000
0001
0010
0000
0100
0000
1000
0001
0100
0001
1000
0000
0100
0000
,
0010
0000
0001
0000
1000
0000
0010
0000
0100
0001
1000
0100
0010
0000
0001
0000
,
1000
0000
0010
0000
0100
0000
0001
0000
0010
0100
1000
0001
1000
0000
0100
0000
,
0020
0030
0020
0030
0020
0030
0020
0030
0020
0030
0020
0030
0001
0100
0001
1000
,
0100
0000
0000
0000
0000
0000
0010
0000
0000
0000
0000
0000
0001
0000
0000
0100
0000
0000
0001
0000
0000
1000
0000
0000
0100
0000
0000
0000
0000
0000
0010
0000
0000
0000
0000
0000
0001
0000
1000
0000
0001
0000
1000
0000
0001
0000
1000
0000
,
0002
0000
0000
0000
,
0000
0000
0000
0000
,
0000
0000
0000
0000
,
0000
0000
0000
0000
,
0000
0000
0000
0000
,
0000
0000
0000
0000
,
0000
0000
0000
0000
,
0000
0000
0000
0000
,
0000
0000
0000
0000
,
0000
0000
0000
0000
,
0000
0000
0000
0000
,
0000
0000
0000
0000
,
0000
0000
0000
0000
,
0000
0000
0000
0000
,
0000
0000
0000
0000
,
0000
0000
0000
0000
,
0000
0000
0000
0000
,
0000
0000
0000
0000
,
0000
0000
0000
0000
,
0003
0000
0000
0000
;
