#TITLE:Trim;
#SUBTITLE:;
#ARTIST:kobo;
#TITLETRANSLIT:;
#SUBTITLETRANSLIT:;
#ARTISTTRANSLIT:;
#CREDIT:;
#BANNER:Trim-bn.png;
#BACKGROUND:Trim-bg.png;
#LYRICSPATH:;
#CDTITLE:Inujosha-cd.bmp;
#MUSIC:kobo - Trim.mp3;
#OFFSET:-0.018;
#SAMPLESTART:68.990;
#SAMPLELENGTH:12.000;
#SELECTABLE:YES;
#DISPLAYBPM:170.000:340.000;
#BPMS:0.000=339.999,329.000=170.000,361.000=339.999,489.000=170.000;
#STOPS:;
#BGCHANGES:;
// cache tags:
#FIRSTBEAT:41.000;
#LASTBEAT:526.500;
#SONGFILENAME:Songs/keyboard/Trim/Trim.sm;
#HASMUSIC:1;
#HASBANNER:0;
#MUSICLENGTH:108.126;
// end cache tags

//---------------dance-single - ----------------
#NOTES:
     dance-single:
     :
     Hard:
     9:
     0.667,1.000,0.546,0.037,0.111,442.000,59.000,4.000,0.000,0.000:
0000
0000
0000
0000
,
0000
0000
0000
0000
,
0000
0000
0000
0000
,
0000
0000
0000
0000
,
0000
0000
0000
0000
,
0000
0000
0000
0000
,
0000
0000
0000
0000
,
0000
0000
0000
0000
,
0000
0000
0000
0000
,
0000
0000
0000
0000
,
0000
1000
0010
0001
,
0000
0100
0001
0000
0010
0000
0000
0000
,
0001
1000
0000
0000
,
0000
0000
0000
0000
,
0000
0100
0010
0001
,
1000
0000
0100
0010
0000
0000
0001
0000
,
0000
0100
1000
0000
0000
0000
0000
0000
,
0000
0000
0000
0000
,
0000
0000
1001
0000
0000
0000
0000
1000
,
0100
1000
0000
0000
0000
0000
0000
0000
,
0000
0000
0000
0000
,
0000
0000
0000
0000
,
0000
0000
0000
0000
,
0000
0000
0000
0000
,
0000
1001
0000
0110
,
1001
0000
0000
0000
,
0000
0000
1001
0000
0000
0000
0000
0001
,
0010
0001
0000
0000
0000
0000
0000
0000
,
0000
0000
0000
0000
,
0000
0000
0000
0000
,
0000
0000
0000
0000
,
0000
0000
0000
0000
,
0000
1000
0010
0001
,
0100
0001
0000
0000
1000
0000
0010
0000
,
0000
1001
0000
1000
,
0000
0100
0000
0010
0100
0000
1001
0000
,
0000
0100
0000
0001
,
0000
0100
0000
0001
0010
0000
1000
0000
,
0000
0100
0000
0001
,
0000
1000
0000
0010
0001
0000
0100
0000
,
1000
0001
0000
1000
,
0100
0000
0011
1001
,
0000
0100
0000
0001
,
0000
1000
0000
0010
0001
0000
1000
0000
,
0000
0010
0000
0001
,
0000
0100
0000
0010
0100
0000
1000
0000
,
0000
1001
0000
0110
,
0000
0011
0000
0110
1100
0000
0011
0000
,
1000
0001
0000
1000
,
0001
0000
0100
0001
,
0000
1001
0000
0001
,
0000
1000
0000
0010
1000
0000
0010
0000
,
0001
1000
0000
0001
,
0000
0100
0000
0001
1000
0000
0001
0000
,
0000
0110
0000
1000
,
0000
0001
0000
1000
0001
0000
0010
0000
,
1001
0110
0000
0001
,
1000
0000
0001
0100
,
0001
1000
0000
0100
,
0000
0001
0000
1000
0001
0000
0100
0000
,
0010
0001
0000
1000
,
0000
0100
0000
1000
0001
0000
1000
0000
,
0000
0001
0000
0100
,
0000
0001
0000
0010
0001
0000
1000
0000
,
0010
1000
0000
0001
,
0000
0001
0000
1000
0001
0000
0100
0010
,
0100
0010
1001
0000
0000
0000
0100
0000
,
0000
0001
0000
1000
0001
0000
0100
0000
,
0000
0100
0000
0001
,
1000
0000
0000
0001
1000
0000
0001
0000
,
0000
0100
0000
0001
,
0000
1000
0000
0010
0100
0000
0001
0000
,
1000
0001
0000
1000
,
0001
0000
0100
0010
,
0000
1100
0000
0001
,
0000
0100
0000
0001
1000
0000
0001
0000
,
0000
1000
0000
0001
,
0000
0100
0000
0010
1000
0000
0001
0000
,
0000
0100
0000
0001
,
0000
0100
0000
0010
0001
0000
1000
0000
,
0001
0100
0000
0000
,
0100
0000
1000
0001
1000
0000
0001
1000
,
0001
1000
0001
0000
1001
0000
1010
0000
,
0110
0011
1100
0011
,
0000
1001
0000
0110
0000
0000
0110
0000
,
0011
0000
1100
0000
0110
0000
0000
1001
,
0000
0000
0110
0000
0000
0011
0000
0000
,
1100
0000
0110
1100
,
0000
0101
0000
0110
0000
0000
0000
0000
,
0000
0000
1000
0100
0100
0001
0001
1000
,
2002
0000
3003
0100
0000
0000
0000
0000
0000
0001
0000
0000
,
0000
0000
1000
0000
0000
0000
0001
0000
0010
0000
0000
0000
0001
0010
0001
0010
,
0001
0000
0000
0000
0100
0010
0100
1000
,
0000
0000
0001
0000
0100
0010
0000
0001
,
0000
0010
0100
0010
0100
0010
0000
0000
1000
0000
0000
0000
0001
0000
0000
0000
,
0000
1000
0000
0001
0100
0000
0010
0000
,
0001
0000
1000
0000
0010
0000
0000
0000
0000
0000
0000
0010
0100
0010
0100
0000
,
1001
0110
0011
1100
,
1000
0100
1000
0100
1000
0000
0001
0000
0100
0000
1000
0000
0001
0000
0000
0000
,
0000
0100
0000
0010
0001
0000
1000
0001
,
0100
0000
0010
0000
1000
0000
0000
0000
0000
0000
0000
0000
0010
0001
0010
0001
,
0000
0000
1001
0110
,
0000
0100
0001
1000
,
0000
0001
0000
0100
1000
0000
0001
0000
,
1000
0010
1000
0000
0000
0000
1000
0100
,
0000
0001
0100
0000
1000
0001
0000
0001
,
1000
0100
1000
0100
1001
0000
0000
0000
1000
0000
0000
0000
0001
0000
0000
0000
,
0000
0100
0000
0001
1000
0000
0001
0000
,
0110
1100
0011
1000
,
0001
0100
0000
1000
0001
0000
0010
0000
,
0001
0010
0001
0010
0001
0000
0000
0000
1000
0000
0000
0000
0010
0000
0000
0000
,
0000
0001
0000
1000
0100
0000
0001
0010
,
0001
1000
0010
0000
0000
0000
1000
0100
,
0000
0000
1001
0110
,
0000
1001
0000
1000
,
0000
0010
0000
0001
1000
0000
0010
0000
,
0000
0001
1000
0000
0000
0000
1000
0010
,
0000
0001
0000
1000
0010
0000
0001
0000
,
1001
0110
0000
0100
,
0000
0001
0000
1000
0010
0000
0001
1000
,
0010
1000
0100
0000
0001
0100
0010
0000
,
0001
0000
1000
0000
0000
0000
0010
0000
0001
0000
0100
0000
1000
0001
1000
0001
,
1000
0001
1000
0001
0110
0000
0000
0000
0010
0001
0010
0000
0010
0000
0100
0000
,
1000
0001
0100
0010
0001
1000
0010
0001
,
1000
0100
0000
0001
0000
1000
0010
0001
,
1000
0010
0001
1000
0010
0000
0001
1000
,
0000
0000
0001
0000
0100
0000
0000
0000
1000
0100
1000
0100
0001
0000
0010
0000
,
0001
0100
1000
0001
0010
0001
0010
0100
,
1000
0100
0010
0001
0010
0001
0010
1000
,
0100
0000
1000
0000
0010
0100
0010
0000
0001
0000
1000
0000
0001
0100
0010
0000
,
0001
0010
2002
0000
0000
0000
0000
0000
,
0000
0000
0000
0000
0000
3003
0000
0000
;
