#TITLE:Love Tropicana Final (TV Edit);
#SUBTITLE:- Jungle Wa Itsumo Hale Nochi Guu Final OVA Opening;
#ARTIST:Sister Mayo With Rikako Aikawa;
#TITLETRANSLIT:;
#SUBTITLETRANSLIT:;
#ARTISTTRANSLIT:;
#CREDIT:;
#BANNER:Love Tropicana Final (TV Edit).png;
#BACKGROUND:Love Tropicana Final (TV Edit)-bg.png;
#LYRICSPATH:;
#CDTITLE:Dj DMA Otaku Original.png;
#MUSIC:Love Tropicana Final (TV Edit).mp3;
#OFFSET:0.200;
#SAMPLESTART:41.408;
#SAMPLELENGTH:12.000;
#SELECTABLE:YES;
#BPMS:0.000=144.900;
#STOPS:;
#BGCHANGES:1.750=Love Tropicana Final (TV Edit).avi=1.000=0=0=1,
99999=-nosongbg-=1.000=0=0=0 // don't automatically add -songbackground-
;
// cache tags:
#FIRSTBEAT:6.000;
#LASTBEAT:196.000;
#SONGFILENAME:Songs/Otaku's Dream 1st Anime Mix/DJ DMAxel - Love Tropicana Final (TV Edit)/Love Tropicana Final (TV Edit).sm;
#HASMUSIC:1;
#HASBANNER:1;
#MUSICLENGTH:81.946;
// end cache tags

//---------------dance-single - ----------------
#NOTES:
     dance-single:
     :
     Hard:
     7:
     0.478,0.508,0.378,0.024,0.037,241.000,31.000,2.000,0.000,0.000:
0000
0000
0000
0000
,
0000
0000
0000
0000
0000
0010
1000
0000
,
0010
0100
0010
0001
,
0010
0011
0100
0010
,
1000
0010
2000
0000
,
0000
0000
3001
0000
,
0000
0000
0000
0000
0001
0010
0100
1000
,
0010
1000
0010
0100
0010
0001
0010
0000
,
0100
1000
0010
0100
1010
0000
0001
0010
,
0100
0010
0001
0010
1000
0010
1000
0010
,
0100
0000
0010
0000
0001
0000
0010
0000
0000
0100
0000
0000
0100
0000
0000
0100
,
0000
0000
0000
0000
0000
0000
0000
0000
0010
0000
0000
0010
0000
0000
0010
0000
,
0000
0001
1000
0000
1010
0010
0100
0010
,
0001
0000
0101
0010
1000
0010
0000
1000
,
0010
0100
0010
0110
0000
1000
1000
0000
,
1100
0000
0000
0101
0000
0010
0001
0000
,
0001
0010
0000
0100
0010
1000
0010
0000
,
1000
0000
0010
0110
0000
0000
0000
0000
,
1001
0000
0000
0000
0000
0001
0100
1000
,
0010
0010
1000
0000
0010
0000
0100
0000
,
0100
0000
0110
0000
0000
1000
0001
0100
,
0000
0010
0000
0010
0010
0000
0011
0000
,
0100
0000
0100
0000
0001
0100
1000
0010
,
1000
0010
0100
0010
0001
0000
0000
0011
,
0100
0000
0110
0000
0000
1000
1000
1000
,
0000
0001
0001
0001
0000
0000
0100
0000
,
0110
0000
0001
0000
1000
0000
0010
0010
,
1000
0000
0000
0000
0100
0100
0010
0001
,
0010
1000
0010
1000
0100
1000
0010
0001
,
0010
1000
0010
0001
0100
0000
0101
0000
,
0010
1010
0100
0110
,
1000
0000
1100
0000
0000
0011
1000
0010
,
1000
0010
0100
0010
0100
0010
0001
0010
,
0100
0010
0100
0000
0100
0000
0110
0000
,
0100
1100
0001
0101
,
0010
0001
0002
0000
,
0000
0000
1003
0000
,
0000
0000
0000
0000
1000
0010
1000
0010
,
0100
0010
0011
0100
1000
0010
0000
0001
,
0010
0100
1000
0010
1000
0010
0100
0010
,
0001
0100
0010
0001
0011
0000
0100
0010
,
1000
0000
0010
0000
1000
0000
0010
0000
0100
0000
0000
0100
0000
0000
0100
0000
,
0000
0000
0000
0000
0000
0000
0000
0001
0000
0000
0001
0000
0000
0001
0000
0000
,
0000
1000
0010
1000
0010
0100
0010
1000
,
1010
0000
0100
0100
0110
0000
0000
0010
,
0010
0010
0001
0100
0001
0010
1000
0000
,
1010
0000
0000
0100
0000
0010
0100
0000
,
0110
0000
0000
1010
0000
0100
0001
0000
,
0010
0000
0010
0011
0000
0000
0000
0000
,
0101
0000
0000
0000
;

//---------------dance-single - ----------------
#NOTES:
     dance-single:
     :
     Challenge:
     8:
     0.532,0.508,0.500,0.085,0.250,257.000,41.000,7.000,0.000,0.000:
0000
0000
0000
0000
,
0000
0000
0000
0000
0000
0000
0000
0000
0000
0000
0000
0100
0000
0010
0000
1000
,
0000
0000
0001
0000
1000
0000
0010
0000
0000
1000
0010
1000
0010
0000
0100
0001
,
0100
0001
0000
0000
0010
0000
0001
0000
0000
0000
0010
0000
0000
1000
0000
0010
,
0000
0100
0000
0000
0010
0000
0100
0000
0000
0100
0001
0100
0001
0000
1000
0000
,
0010
0000
1000
0000
0010
1000
0000
0010
0000
2002
0000
0000
0000
0000
0000
0000
,
0000
0000
3003
0000
1000
0010
1000
0010
,
0000
0100
0001
0010
1000
0010
1000
0010
,
1000
0010
0100
0010
1000
0100
0001
0010
,
0100
0000
1000
0000
0010
0000
1000
0000
1010
0000
0000
0100
0000
0000
0100
0000
,
0000
0000
0000
0010
0000
0001
0000
1000
0000
0010
0000
0010
0000
0000
0010
0000
,
0000
0000
0100
0000
0010
0000
1000
0000
0100
0000
0000
0100
0000
0100
0000
0000
,
0000
1001
0000
0000
0000
0000
0010
0000
1000
0000
0000
0000
0000
0000
0022
0000
,
0000
0000
0000
0000
0000
0000
0000
0000
0000
0033
0000
0000
0000
0000
0000
1000
,
0000
0001
0000
1000
0010
0000
0100
0000
0000
0000
0010
0000
1000
0000
0000
0000
,
0101
0000
0000
0010
0000
1000
0010
0000
,
0110
0000
0000
1010
0000
0100
0001
0000
,
0011
0000
0100
0101
0000
0000
0000
0000
,
0101
0000
0000
0000
0000
1000
0010
1000
,
0010
0100
0010
0001
0010
0000
0110
0000
,
0010
0000
1010
0000
0000
1000
0100
0001
,
0000
0101
0000
0010
0011
0000
0000
0101
,
0000
0000
1000
0000
0010
1000
0010
0100
,
0010
1000
0010
0100
0110
0000
0101
0000
,
0010
0000
1000
0000
0000
1010
0010
1000
,
0000
0100
0001
0010
0000
0000
0011
0000
,
0101
0010
1010
0100
,
0110
0000
1000
0000
1000
0100
0001
0010
,
0100
1000
0010
1000
0010
0100
0010
0001
,
0010
0100
0010
1000
1010
0000
0100
0000
,
0110
1001
0100
0101
,
0011
0000
1010
0000
0100
0010
1000
0010
,
0100
0010
1000
0010
0100
0010
1000
0001
,
0100
1000
0100
1000
1100
0000
0100
0000
,
0110
0100
0101
0010
,
0011
0000
0000
0000
0000
0000
0000
0000
1000
0001
1000
0000
0010
0100
0000
0010
,
0000
1000
0010
0000
0100
0010
0000
0000
0001
0000
0000
0000
0000
0000
0000
0000
,
0000
0000
0000
0000
1000
0010
0100
0010
,
0001
0000
0010
0000
0100
0000
0010
0000
0110
0000
0000
0100
0000
0000
0100
0000
,
0000
1000
0001
1000
0010
1000
0010
0100
,
0010
0000
0001
0000
0010
0000
0100
0000
0110
0000
0000
0100
0000
0000
0100
0000
,
0000
0000
0000
0000
0010
0000
0001
0000
0010
0000
0000
1000
0000
0000
1000
0000
,
0000
0000
0010
0000
1000
0000
0010
0000
1000
0000
0000
0010
0000
0000
0010
0000
,
0000
0000
0100
0000
0000
0010
0000
0000
0002
0000
0000
0000
0000
0000
0000
0003
,
1000
0000
0000
0010
0000
0000
1000
0000
0000
0001
0000
0000
0000
0000
0000
0010
,
0000
1000
0010
0000
1100
0000
0010
0000
0000
0000
0100
0000
0001
0000
0000
0000
,
0101
0000
0000
1010
0000
0100
0010
0000
,
0110
0000
0000
0101
0000
0010
1000
0000
,
1010
0000
0100
0220
0000
0000
0000
0000
,
0330
0000
0000
0000
;

//---------------dance-single - ----------------
#NOTES:
     dance-single:
     :
     Medium:
     6:
     0.356,0.419,0.073,0.061,0.000,193.000,6.000,5.000,0.000,0.000:
0000
0000
0000
0000
,
0000
0000
0010
1000
,
0001
0100
0010
0001
,
0010
1000
0010
0100
,
0010
0001
0002
0000
,
0000
0000
0000
0000
1000
0003
0000
0000
,
0000
0000
1000
0010
,
1000
0000
0010
0100
0010
0000
0001
0000
,
0010
0000
1000
0001
1000
0000
0010
0000
,
0100
0000
0010
0001
0010
0000
1000
0000
,
0010
0100
0010
1000
0010
0000
1000
0000
,
0010
0000
1000
0000
1000
0001
1000
0000
,
0010
0000
1000
0000
1000
0010
1000
0000
,
0010
0100
0010
0000
0001
0000
0010
0000
,
0022
0000
0003
0030
0000
0100
0001
0000
,
1000
0000
0000
1000
0000
0010
1000
0000
,
0010
0000
0000
0100
0000
0010
0001
0010
,
1000
0000
0010
0100
0000
0000
0000
0000
,
0110
0000
0100
0001
,
1000
0010
1000
0010
,
1000
0010
0100
0010
,
0001
0010
1000
0010
,
0100
0010
1000
0001
,
0100
0010
0001
0010
,
0001
0100
0010
0110
,
1000
1010
0100
0001
,
0010
1000
0010
1000
,
0010
0000
0002
0000
,
0000
0003
2000
0000
,
0000
0000
0000
3000
0010
0000
1000
0000
,
0010
1000
0010
0100
,
0010
0000
0001
0000
0001
0100
1000
0000
,
1000
0100
0001
0000
1000
0010
1000
0000
,
0100
0010
0001
0000
0010
0000
0100
0000
,
0010
1000
0010
0100
,
0001
0010
0100
0000
,
0000
0000
1001
0000
,
0000
0000
0000
0000
1000
0010
0000
0100
,
0000
0010
0001
0010
0100
1000
0010
1000
,
0000
1000
0010
0100
0010
0000
0010
0001
,
0010
0000
0100
0010
0001
0000
0010
1000
,
0000
1000
0001
0100
1000
0000
0010
0000
,
0100
0000
0010
1000
0010
0000
0010
0000
,
0100
0000
0001
0010
0001
0010
0000
0000
,
1000
0001
1000
0010
,
1000
0000
0100
0010
0000
0001
0010
0000
,
1000
0000
0000
1000
0000
0100
0010
0000
,
1000
0000
0000
0001
0000
1000
0010
0000
,
0100
0000
0010
0001
0000
0000
0000
0000
,
0011
0000
0000
0000
;

//---------------dance-single - ----------------
#NOTES:
     dance-single:
     :
     Easy:
     3:
     0.281,0.269,0.024,0.232,0.000,140.000,2.000,19.000,0.000,0.000:
0000
0000
0000
0000
,
0000
0000
0010
0100
,
0001
1000
0010
1000
,
0100
0100
0010
0001
,
0010
1000
0200
0000
,
0000
0000
0000
0000
0001
0300
0000
0000
,
0000
0000
0001
1000
,
0010
1000
0010
0100
,
0010
1000
0010
0100
,
0001
0010
1000
0010
,
0100
0010
0001
0010
,
1000
0010
1000
0100
,
0100
0010
0001
0010
,
1000
0010
0110
0000
,
0001
0000
0000
2000
0000
0000
0000
0000
,
0001
3000
0000
0002
0000
0000
0000
0000
,
1000
0003
0000
2000
0000
0000
0000
0000
,
0000
0000
0000
3010
0000
0000
0000
0000
,
0101
0000
0000
0010
,
1000
0010
0100
0010
,
0200
0000
0000
0300
0000
0001
0000
0000
,
0010
0000
1000
0000
0002
0000
0000
0003
,
0000
1000
0010
1000
,
0010
1000
0200
0000
,
0300
0010
1000
0020
,
0000
0030
2000
0000
0000
3000
0002
0000
,
0000
0000
0003
2000
,
0000
0000
0000
3000
0010
0000
0100
0000
,
0001
0010
1000
0010
,
1000
0010
0200
0000
,
0001
0000
0001
0300
0000
0000
0002
0000
,
1000
0000
1000
0003
0010
0000
1000
0000
,
0010
0100
0010
1000
,
0100
0001
0020
0000
,
0130
0000
0000
0000
0002
0000
0000
1003
,
0000
0000
0020
0000
,
0000
0000
0130
0000
,
0000
0000
0001
0001
,
0010
0010
0100
1000
,
0010
1000
0100
0010
,
0001
0010
0100
0001
,
0010
1000
0010
0100
,
0100
0010
1000
0100
,
0010
0001
0010
1000
,
0100
0010
0001
0010
,
0001
0000
0100
0002
0000
0000
0000
0000
,
1003
0000
0000
2000
0000
0000
0000
0000
,
3010
0000
0000
0002
0000
0000
0000
0000
,
0000
0000
0000
0103
0000
0000
0000
0000
,
0010
0000
0000
0000
;
