#TITLE:+ﾟ.ＲＡＩＮ+ﾟ｡';
#SUBTITLE:;
#ARTIST:Kobaryo;
#TITLETRANSLIT:RAIN;
#SUBTITLETRANSLIT:;
#ARTISTTRANSLIT:;
#CREDIT:Owem;
#BANNER:../banner.png;
#BACKGROUND:../bg.png;
#LYRICSPATH:;
#CDTITLE:../cdtitleowem.png;
#MUSIC:Kobaryo - RAIN.ogg;
#OFFSET:-1.150;
#SAMPLESTART:98.348;
#SAMPLELENGTH:29.999;
#SELECTABLE:YES;
#BPMS:0.000=50.000,127.000=48.750,128.000=45.000;
#STOPS:;
#BGCHANGES:;
// cache tags:
#FIRSTBEAT:1.000;
#LASTBEAT:229.250;
#SONGFILENAME:Songs/Owem's Simfiles 08 - 1.2/RAIN - [Owem, Braeden]/RAIN.sm;
#HASMUSIC:1;
#HASBANNER:1;
#MUSICLENGTH:296.071;
// end cache tags

//---------------dance-single - ----------------
#NOTES:
     dance-single:
     :
     Beginner:
     1:
     0.052,0.056,0.003,0.000,0.000,107.000,1.000,0.000,0.000,0.000:
0000
0010
0000
0100
,
0000
0010
0000
1000
,
0000
0010
0000
0100
,
0000
0001
0000
1000
,
0000
0001
0000
0010
,
0000
0100
0000
0010
,
0000
0100
0000
0010
,
0000
0001
0000
1000
,
0000
0001
0000
1000
,
0000
0010
0000
0100
,
0000
0001
0000
1000
,
0000
0010
0000
0100
,
0000
0010
1000
0001
,
0000
1000
0100
0010
,
0000
0001
1000
1000
,
0000
0010
0000
0100
,
0000
1001
0000
0001
,
0000
0100
0000
0010
,
0000
0100
0000
0010
,
0000
1000
0000
0001
,
0000
0100
0000
0010
,
0010
0010
0000
0100
,
0100
0100
0000
0010
,
0010
0010
0000
0001
,
0000
1000
0000
0000
,
0000
0001
0000
0000
,
0000
0100
0000
0010
,
0000
0100
0000
0001
,
0000
1000
0000
0000
,
0000
0010
0000
0000
,
0100
0000
0001
0000
,
0100
0000
0010
0000
,
0100
0000
0000
0000
,
0001
0000
1000
0000
,
0001
0000
0100
0000
,
0010
0000
0100
0000
,
0010
0000
1000
0000
,
0001
0000
0100
0000
,
0010
0000
0100
0000
,
0010
0000
0001
0000
,
0100
0000
0010
0000
,
0100
0000
0010
0000
,
1000
0000
0001
0000
,
0010
0000
0100
0000
,
0010
0000
0001
0000
,
0100
0000
0010
0000
,
0100
0000
0010
0000
,
0100
0000
0010
0000
,
1000
0000
0010
0000
,
0000
0100
0000
0000
,
0010
0000
0000
0000
,
0000
0010
0000
0000
,
0100
0000
0000
0000
,
0001
0000
0000
1000
,
0000
0000
0010
0000
,
0000
0100
0000
0000
;

//---------------dance-single - ----------------
#NOTES:
     dance-single:
     :
     Easy:
     4:
     0.200,0.160,0.000,0.098,0.000,385.000,0.000,29.000,0.000,0.000:
0000
0000
0001
1000
0001
0100
0010
1000
,
0001
0100
0010
1000
0100
0010
0001
0100
,
0010
1000
0001
0100
0010
1000
0001
1000
,
0100
1000
0010
0100
0001
0100
0010
1000
,
0100
0010
0001
0100
0010
1000
0001
0100
,
0010
1000
0001
0100
0010
1000
0001
1000
,
0010
1000
0001
0100
0010
1000
0001
0010
,
0100
0010
0100
1000
0010
0010
0100
0100
,
0001
1000
0002
0000
1003
0010
0200
0000
,
0301
1000
0020
0000
0130
0001
0020
0000
,
0031
0100
0020
0000
1030
0001
0020
0000
,
0130
1000
0020
0000
0130
0001
0020
0000
,
0130
0010
0002
0000
1003
0001
0200
0000
,
0310
1000
0020
0000
0130
0001
0020
0000
,
0031
0100
0020
0000
1030
0001
2000
0000
,
3010
0010
0020
0000
0130
0100
2000
0000
,
3001
1000
0010
0100
0001
0010
0100
1000
,
0010
0100
0001
1000
0010
0100
0001
1000
,
0010
1000
0001
0001
0100
0010
1000
0100
,
0010
0001
0100
0010
1000
0001
1000
0100
,
1000
0010
0100
0100
0010
0010
1000
1000
,
0001
0001
1000
0010
1000
0010
0100
0001
,
0100
0001
1000
0100
0010
0001
0100
0010
,
1000
0001
1000
0010
0100
0001
1000
1000
,
0010
0100
0001
0010
0100
1000
0010
0100
,
0001
1000
0100
0010
0001
0100
0010
1000
,
0001
1000
0010
1000
0001
0100
0010
1000
,
0001
1000
0010
1000
0001
0100
0010
1000
,
0001
0100
0010
1000
0010
0100
1000
0100
,
0010
1000
0001
0100
0010
1000
0100
0010
,
0001
0100
0010
1000
0001
1000
0010
1000
,
0001
1000
0010
0100
0010
0100
0001
1000
,
0010
0000
1000
0000
0001
1000
0010
0100
,
0001
0010
0100
0010
0001
0100
0010
1000
,
0100
1000
0001
0100
0010
1000
0100
0010
,
0001
0100
0010
1000
0010
0100
0001
0010
,
0010
0100
1000
0010
0100
0001
0010
0100
,
0010
0001
0100
0010
1000
0001
0100
0010
,
1000
0001
0100
0010
1000
0001
0010
0100
,
0010
0100
1000
0010
0100
0010
0100
0001
,
0010
0100
0010
0100
1000
0010
0100
0010
,
0100
0001
0010
0100
1000
0010
0100
0001
,
1000
0100
0010
0001
1000
0010
1000
0100
,
1000
0001
0100
0001
0010
0001
0100
0010
,
1000
1000
0001
0001
0100
0100
0010
0010
,
1000
1000
0001
0001
0100
0100
0001
0001
,
1000
1000
0001
0001
0100
0100
0001
0001
,
1000
1000
0010
0010
0100
0100
0001
0001
,
1000
0100
0010
0100
1000
0100
0010
0001
,
0200
0000
0000
0320
,
0000
2030
0000
3002
,
0000
0203
0000
0302
,
0000
0023
0000
0032
,
0000
0203
0000
0320
,
0000
2030
0000
3002
,
0000
2003
0000
3000
;

//---------------dance-single - ----------------
#NOTES:
     dance-single:
     :
     Medium:
     6:
     0.426,0.311,0.000,0.000,0.743,882.000,0.000,0.000,0.000,0.000:
0000
0000
0000
0000
0001
1000
0001
1000
0001
0010
0001
0010
0100
1000
0100
1000
,
0001
0100
0001
0100
0010
1000
0100
0010
0001
1000
0010
0100
0001
0100
0010
1000
,
0001
0010
0100
1000
0001
0100
0001
0100
0010
1000
0010
1000
0100
1000
0001
1000
,
0100
0010
0001
0100
0010
1000
0010
1000
0100
0010
0001
1000
0001
0100
0001
0010
,
0001
1000
0100
0010
0001
0100
0001
1000
0100
0010
0100
0010
0001
0100
0010
1000
,
0001
0010
0001
0010
0100
1000
0010
0100
0001
0010
0100
1000
0001
0100
0010
1000
,
0001
0010
0001
0010
0100
1000
0010
0100
0010
1000
0100
0010
0001
1000
0001
1000
,
0100
0010
0001
0100
0010
1000
0001
0010
0001
0100
0010
1000
0001
0010
0100
1000
,
0010
0100
0001
1000
0100
0010
0100
1000
0001
0010
0001
0100
0001
1000
0100
0010
,
0001
1000
0010
0100
0001
0010
0100
1000
0010
0100
0010
0100
0001
1000
0001
0100
,
0001
1000
0001
1000
0010
0100
0001
0010
0100
0010
0001
0010
0001
1000
0001
0100
,
0010
0100
0001
0100
0010
1000
0010
1000
0100
0010
0001
0010
0100
1000
0100
1000
,
0001
0100
0010
1000
0100
0010
0100
0010
0001
0100
0010
1000
0001
0100
0010
1000
,
0100
0010
0001
0100
0010
0100
0001
1000
0010
1000
0001
0100
0010
1000
0001
0100
,
0010
1000
0100
0010
0001
1000
0001
1000
0010
0100
0001
0010
0100
1000
0010
0100
,
0001
0010
0100
1000
0001
0100
0010
1000
0100
0010
0001
0100
0010
1000
0001
1000
,
0010
0100
0001
0010
0100
0010
0100
1000
0010
1000
0001
0100
0010
1000
0100
0010
,
0001
1000
0010
0100
0001
1000
0100
1000
0100
1000
0100
1000
0001
0100
0010
1000
,
0100
0010
0001
0100
0010
1000
0001
0010
0100
1000
0001
0100
0010
0100
0001
0010
,
0001
1000
0100
1000
0001
1000
0010
1000
0001
0010
0001
0100
0001
0100
0010
1000
,
0100
0010
0001
1000
0010
0100
0010
0100
0001
1000
0100
0010
0001
0100
0010
0100
,
0001
0010
0001
0100
0001
1000
0100
1000
0001
1000
0010
1000
0001
1000
0100
0010
,
0001
0100
0010
1000
0100
0010
0001
0100
0010
1000
0100
1000
0001
0010
0001
0100
,
0010
1000
0100
0010
0001
0100
0010
1000
0001
0010
0001
0010
0100
1000
0010
0100
,
0001
0010
0100
1000
0010
0100
0001
0100
0001
1000
0100
1000
0001
0100
0010
1000
,
0100
0010
0001
0100
0010
1000
0100
1000
0001
0010
0001
0100
0010
1000
0100
0010
,
0001
0010
0100
1000
0001
0100
0010
1000
0100
1000
0001
0100
0010
1000
0001
0010
,
0100
0010
0001
0100
0010
1000
0100
0010
0001
0100
0010
1000
0001
0010
0100
1000
,
0001
0100
0010
1000
0100
0010
0001
0100
0010
0100
0001
1000
0010
1000
0001
0010
,
0100
0010
0001
0100
0010
1000
0100
1000
0001
0010
0001
0100
0010
0100
0001
1000
,
0010
1000
0001
0010
0100
0010
0001
0100
0010
1000
0100
1000
0001
0010
0001
1000
,
0100
1000
0001
0010
0001
1000
0100
1000
0001
0010
0001
1000
0001
0000
0000
0000
,
0000
0000
0000
0000
0010
0100
0010
0100
0010
0001
0100
0010
1000
0100
1000
0001
,
0100
0010
1000
0100
1000
0001
0010
0100
0010
0001
1000
0010
0100
0001
1000
0100
,
0010
0100
1000
0010
0100
0010
1000
0100
1000
0010
0100
0010
1000
0001
0010
0100
,
1000
0010
1000
0001
1000
0010
1000
0001
0010
0100
1000
0010
0100
0001
1000
0100
,
1000
0010
0100
0001
1000
0100
0010
0001
0100
0010
1000
0001
0010
0100
1000
0010
,
0100
0001
1000
0010
1000
0001
0010
0100
1000
0010
0100
0001
1000
0010
1000
0001
,
0100
0010
1000
0100
0010
0100
1000
0010
0100
0010
1000
0100
1000
0001
0010
0100
,
0010
0001
0100
0010
1000
0001
0010
0100
1000
0100
0010
0001
0100
0010
1000
0100
,
0010
0001
0100
0010
1000
0001
1000
0010
1000
0001
0100
0010
1000
0100
0010
0100
,
1000
0001
0100
0010
1000
0001
0010
0100
1000
0010
0100
0001
1000
0010
1000
0001
,
0100
0010
1000
0100
0010
0100
1000
0001
1000
0010
1000
0001
0100
0010
0100
0001
,
1000
0010
1000
0001
0010
0001
1000
0010
1000
0100
0010
0100
1000
0001
0100
0010
,
1000
0001
0010
0100
0010
0001
0100
0010
1000
0100
1000
0001
0010
0100
0010
0001
,
1000
0010
1000
0100
0001
0010
0100
1000
0010
0001
1000
0100
0010
0001
0100
0010
,
1000
0100
0010
0001
0100
0010
1000
0001
0010
0100
1000
0010
0100
0001
1000
0100
,
0010
0100
1000
0001
0100
0010
1000
0001
1000
0010
1000
0001
0010
0100
1000
0010
,
0100
0001
1000
0100
0010
0100
1000
0001
0100
0010
1000
0001
1000
0010
0100
0001
,
1000
0010
1000
0001
0010
0100
0010
0100
1000
0010
0100
0001
1000
0010
1000
0010
,
0100
0001
0010
0100
1000
0001
1000
0001
1000
0100
0010
0100
1000
0001
0010
0100
,
1000
0100
0010
0001
1000
0010
0100
0001
0010
0100
1000
0010
0100
0001
1000
0100
,
0010
0100
1000
0001
1000
0010
1000
0001
0100
0010
1000
0001
0010
0100
1000
0010
,
0100
0001
1000
0100
0010
0100
1000
0001
0100
0001
1000
0100
1000
0001
0010
0100
,
0010
0001
1000
0100
0010
0100
1000
0001
0010
0100
0010
0001
1000
0100
0010
0100
,
1000
0001
0100
0010
0100
0001
1000
0010
0100
0010
1000
0001
0100
0000
0000
0000
;

//---------------dance-single - Braeden----------------
#NOTES:
     dance-single:
     Braeden:
     Hard:
     11:
     0.861,0.687,0.003,0.155,1.000,1736.000,1.000,46.000,34.000,0.000:
0000
0000
0000
0000
0000
0000
0000
0000
1000
0100
0010
0001
1000
0001
0100
0010
0100
0001
1000
0010
1000
0100
0010
0001
1000
0100
1000
0010
0100
0001
1000
0001
,
0010
0000
0100
0000
0010
0000
0001
0000
1000
0000
0100
0000
1000
0000
0001
0000
0200
0300
0010
0000
1000
0000
0020
0030
0100
0000
0010
0000
2000
3000
0001
0000
0100
0000
0001
0000
1000
0000
0100
0000
0010
0000
0100
0000
1000
0000
0001
0000
0010
0000
0001
0000
0100
0000
0010
0000
1000
0000
0001
0000
0010
0000
0100
0000
,
1000
0001
0010
0001
0100
0010
1000
0001
1000
0100
0010
0100
1000
0001
0010
0001
0100
0010
1000
0010
0100
0001
1000
0100
0010
0001
1000
0100
1000
0001
0100
0010
,
1000
0000
0001
0000
1000
0000
0100
0000
0010
0000
0001
0000
1000
0000
0100
0000
2000
3000
0001
0000
0100
0000
0002
0003
1000
0000
0100
0000
2000
3000
0010
0000
0100
0000
0010
0000
1000
0000
0001
0000
0010
0000
0100
0000
0010
0000
0001
0000
1000
0000
0100
0000
1000
0000
0001
0000
0100
0000
0010
0000
1000
0000
0010
0000
,
0100
0010
1000
0001
0100
0001
1000
0100
0010
0001
1000
0100
1000
0001
0010
0001
0100
0010
1000
0010
0100
0010
1000
0001
0100
0001
1000
0100
0010
0100
1000
0001
,
0010
0000
0001
0000
0100
0000
0010
0000
1000
0000
0001
0000
0010
0000
0001
0000
0200
0300
0010
0000
1000
0000
0002
0003
1000
0000
0100
0000
0020
0030
0001
0000
1000
0000
0100
0000
1000
0000
0001
0000
0100
0000
0010
0000
0100
0000
0001
0000
1000
0000
0010
0000
1000
0000
0100
0000
0010
0000
0001
0000
1000
0000
0100
0000
,
1000
0001
0100
0010
0100
0001
1000
0010
1000
0100
0010
0001
1000
0100
1000
0001
1000
0010
0100
0010
1000
0001
1000
0100
0010
0001
1000
0100
1000
0001
0010
0001
,
0100
0000
0010
0000
1000
0000
0010
0000
0100
0000
0001
0000
1000
0000
0001
0000
0200
0300
0010
0000
0100
0000
0002
0003
1000
0000
0010
0000
2000
3000
0100
0000
0010
0000
0001
0000
1000
0000
0100
0000
1000
0000
0001
0000
0100
0000
0001
0000
1000
0000
0010
0000
0100
0000
0001
0000
1000
0000
0001
0000
0010
0000
0001
0000
,
0100
0010
1000
0010
0100
0001
1000
0001
1000
0100
0010
0001
0100
0010
1000
0001
0010
0100
1000
0001
0100
0010
0100
0001
1000
0100
0010
0001
0100
0010
1000
0001
,
0010
0100
1000
0010
0100
0001
1000
0100
0010
0001
0100
0010
1000
0001
1000
0010
0100
0001
0010
0100
1000
0010
0100
0001
1000
0100
0010
0001
1000
0010
1000
0001
,
0010
0100
0010
0001
0100
0010
1000
0001
0010
0100
1000
0001
0100
0010
0100
0001
1000
0100
0010
0001
0100
0010
1000
0001
0010
0100
1000
0001
0100
0010
0100
0001
,
1000
0100
0010
0001
0100
0010
1000
0001
1000
0010
1000
0001
0100
0010
1000
0001
0010
0100
1000
0010
0100
0001
1000
0100
0010
0100
1000
0001
0100
0010
0100
0001
,
0100
0010
1000
0001
0010
0100
1000
0010
0100
0001
1000
0100
0010
0001
0100
0010
1000
0001
0010
0100
1000
0010
0100
0001
1000
0010
1000
0001
0010
0100
0010
0001
,
0100
0010
1000
0001
0010
0100
1000
0010
0100
0001
1000
0100
0010
0001
0100
0010
1000
0001
0100
0010
1000
0001
0010
0100
0010
0001
0100
0010
1000
0001
0010
0100
,
0010
0001
0100
0010
1000
0001
0010
0100
1000
0010
0100
0001
1000
0100
0010
0001
0100
0010
1000
0001
0010
0100
1000
0010
0100
0001
1000
0100
1000
0001
0010
0001
,
0100
0010
1000
0001
0100
0010
1000
0001
0010
0100
1000
0010
0100
0001
1000
0100
0010
0001
0100
0010
1000
0001
0010
0100
1000
0010
0100
0001
1000
0100
0010
0001
,
1000
0100
2000
3020
0230
0302
2003
0000
3001
1000
0100
1000
0001
0100
0010
1000
0100
0010
0100
1000
0001
0100
0010
1000
0001
0010
0100
1000
0010
0100
0001
1000
,
0100
0010
0100
1000
0001
0100
0010
0100
0001
1000
0010
1000
0001
0010
0100
1000
0010
0100
0001
1000
0100
0010
0001
0100
0010
0100
0001
1000
0010
1000
0100
0010
,
0100
1000
0001
0100
0010
1000
0001
0010
0100
1000
0010
0100
0001
1000
0100
0010
0001
0100
0010
1000
0001
0010
0100
1000
0010
0100
0001
1000
0100
0010
0001
0100
,
0010
0100
0001
1000
0010
1000
0001
0010
0001
1000
0100
0010
0001
1000
0010
1000
0001
0010
0100
0010
0001
0100
0010
1000
0001
0100
0010
0100
0001
1000
0010
1000
,
0001
0100
0010
0100
0001
1000
0100
0010
0001
0100
0010
0100
0001
1000
0010
1000
0001
0010
0100
1000
0010
0100
0001
1000
0100
0010
0001
0100
0010
0100
0001
1000
,
0010
1000
0001
0010
0100
0010
0001
0100
0010
1000
0001
0010
0100
0010
0001
1000
0010
0100
0001
1000
0100
0010
0001
0100
0010
1000
0001
0010
0100
1000
0001
0100
,
0010
0100
0001
1000
0100
0010
0100
1000
0010
0100
0001
1000
0010
1000
0001
0010
0100
0010
0001
0100
0010
1000
0100
0010
0001
0100
0010
1000
0001
0010
0100
0010
,
0001
1000
0010
0100
0001
1000
0010
1000
0001
0010
0100
1000
0010
0100
0001
1000
0100
0010
0001
0100
0010
1000
0100
0010
0001
0100
0010
1000
0001
0010
0100
1000
,
0010
0100
0001
1000
0100
0010
0001
0100
0010
1000
0001
0100
0010
1000
0001
1000
0100
0010
0100
1000
0001
0010
0001
0100
0010
1000
0001
1000
0100
0010
0001
1000
,
0100
0000
1000
0000
0001
0000
0100
0000
0010
0000
1000
0000
0010
0000
0100
0000
0002
0003
1000
0000
0100
0000
2000
3000
0001
0000
0010
0000
0002
0003
0100
0000
0010
0000
1000
0000
0010
0000
0100
0000
0001
0000
1000
0000
0010
0000
1000
0000
0100
0000
0010
0000
0001
0000
1000
0000
0100
0000
1000
0000
0001
0000
0100
0000
,
0001
1000
0010
0100
0001
1000
0100
1000
0001
0010
0100
0010
0001
1000
0100
1000
0001
0100
0010
1000
0010
0100
0001
1000
0100
1000
0001
0010
0001
0100
0010
1000
,
0010
0000
0100
0000
0001
0000
1000
0000
0001
0000
0100
0000
0010
0000
1000
0000
0200
0300
1000
0000
0001
0000
2000
3000
0100
0000
0010
0000
0002
0003
1000
0000
0100
0000
0010
0000
0100
0000
1000
0000
0001
0000
1000
0000
0001
0000
0100
0000
0010
0000
0100
0000
0001
0000
1000
0000
0100
0000
0010
0000
0001
0000
0100
0000
,
0001
0000
1000
0000
0010
0100
0010
0000
0100
0001
0100
0000
0010
1000
0010
0000
0100
0000
0001
0000
1000
0000
0100
0000
1000
0000
0001
0000
0010
0000
0100
0000
0010
0000
0001
0000
1000
0000
0100
0000
1000
0000
0001
0000
0100
0000
0010
0000
1000
0000
0010
0000
0100
0000
0001
0000
1000
0000
0001
0000
0100
0000
0010
0000
,
1000
0000
0001
0000
0010
0000
0100
0000
0010
0000
0001
0000
1000
0000
0100
0000
2000
3000
0001
0000
1000
0000
0020
0030
0100
0000
0001
0000
2000
3000
0001
0000
0100
0000
0010
0000
0100
0000
0001
0000
1000
0000
0010
0000
1000
0000
0100
0000
0010
0000
0100
0000
1000
0000
0001
0000
0010
0000
0001
0000
0100
0000
0001
0000
,
1000
0100
0010
0100
1000
0001
0010
0001
0100
0010
1000
0001
0010
0001
0100
0010
1000
0001
1000
0100
0010
0001
1000
0100
1000
0001
0010
0001
0100
0010
1000
0010
,
0100
0000
0001
0000
1000
0000
0010
0000
1000
0000
0100
0000
0020
0030
0001
0000
2000
3000
0100
0000
1000
0000
0002
0003
0100
0000
0010
0000
0200
0300
0001
0000
1000
0000
0010
0000
1000
0000
0001
0000
0010
0000
0001
0000
0100
0000
0010
0000
2000
0000
0000
0000
0000
0000
0000
0000
0000
0000
0000
0000
0000
0000
0000
0000
,
3000
0000
0000
0000
0000
0000
0000
0000
1000
0010
0100
0010
1000
0001
0010
0100
1000
0010
0100
0001
1000
0100
0010
0100
1000
0001
0100
0010
1000
0001
0010
0100
,
1000
0001
0100
0010
0100
0001
1000
0100
0010
0001
0100
0010
1000
0001
0010
0100
1000
0010
0100
0001
1000
0100
0010
0001
0100
0010
1000
0001
0010
0100
1000
0010
,
0100
0001
1000
0010
1000
0001
0010
0100
1000
0010
0100
0001
1000
0100
0010
0100
1000
0010
0100
0001
1000
0100
0010
0001
0100
0010
0100
0001
0010
0100
0010
0001
,
0100
0010
1000
0001
0010
0100
1000
0010
0100
0001
1000
0100
0010
0100
1000
0001
0100
0010
0100
0001
1000
0010
1000
0001
0100
0010
1000
0001
0010
0100
1000
0010
,
0100
0001
1000
0100
0010
0001
0100
0010
1000
0001
0010
0100
1000
0010
0100
0001
1000
0100
0010
0001
0100
0010
1000
0001
0010
0100
1000
0001
0100
0010
0100
0001
,
1000
0100
0010
0001
0100
0010
1000
0001
1000
0010
0100
0001
0010
0100
1000
0010
0100
0001
1000
0100
0010
0001
0100
0010
1000
0001
0010
0100
1000
0001
0100
0010
,
0100
0001
1000
0010
1000
0100
0010
0100
0010
0001
1000
0010
1000
0100
0010
0001
0100
0010
1000
0001
0010
0100
0010
0001
0100
0010
1000
0001
0010
0100
0010
0001
,
0100
0010
1000
0001
0010
0100
0010
0001
0100
0010
1000
0001
0010
0100
0010
0001
0100
0010
1000
0001
0010
0100
0010
0001
1000
0010
1000
0100
0010
0001
0100
0010
,
1000
0000
0001
0000
0010
0000
0100
0000
1000
0000
0010
0000
0100
0000
0000
0000
0001
0000
0000
0000
0100
0000
0000
0000
0010
0000
0000
0000
0100
0000
0000
0000
1002
0003
0000
0000
0000
0000
0000
0000
0004
0000
0000
0000
0003
0000
0000
0000
1000
0000
0010
0000
0100
0000
0001
0000
1000
0000
0100
0000
0010
0000
0001
0000
,
0100
0000
0000
0000
0000
0000
0000
0000
0000
0000
0000
0000
0001
0000
0100
0000
0001
0000
0100
0000
0000
0010
0000
0000
1000
0000
0000
0001
0000
0000
0100
0000
0000
0010
0000
0000
1000
0000
0000
0001
0000
0000
0010
0000
0000
0100
0000
0000
1000
0000
0000
0001
0000
0000
0100
0000
0000
0010
0000
0000
1000
0000
0000
0100
0000
0000
0010
0000
0000
0100
0000
0000
1000
0000
0000
0001
0000
0000
0100
0000
0000
0010
0000
0000
1000
0000
0000
0001
0000
0000
0010
0000
0000
0100
0000
0000
,
1000
0000
0000
0001
0000
0000
1000
0000
0000
0010
0000
0000
0100
0000
0001
0000
0100
0000
0002
0000
0000
0000
0000
0000
1003
0000
0000
0010
0000
0000
1000
0000
0000
0001
0000
0000
0010
0000
0000
0100
0000
0000
1000
0000
0000
0010
0000
0000
0100
0000
0000
0001
0000
0000
0010
0000
0000
0100
0000
0000
1000
0000
0000
0010
0000
0000
0100
0000
0000
0001
0000
0000
1000
0000
0000
0100
0000
0000
0010
0000
0000
0001
0000
0000
0100
0000
0000
0010
0000
0000
1000
0000
0000
0100
0000
0000
,
0010
0100
1000
0001
0100
0000
0001
0000
1000
0001
0100
0010
1000
0001
0010
0100
1000
0001
0100
0010
0100
0001
1000
0100
0010
0001
0100
0010
1000
0001
0010
0100
,
1000
0001
0010
0001
1000
0000
0001
0000
1000
0010
1000
0100
1000
0001
1000
0010
0100
0001
0010
0100
1000
0001
0100
0010
1000
0001
0010
0001
0100
0001
1000
0010
,
1000
0100
0010
0001
1000
0010
1000
0001
0010
0100
1000
0010
0100
0001
1000
0100
0010
0001
0100
0010
1000
0001
0010
0100
1000
0001
0100
0010
0100
0001
1000
0100
,
0010
0001
0100
0010
1000
0001
0010
0100
1000
0001
0100
0010
1000
0001
0010
0100
1000
0010
0100
0001
1000
0100
1000
0001
0100
0010
1000
0100
1000
0010
0100
0001
,
0010
0001
1000
0100
1000
0010
0100
0001
0010
0100
1000
0010
0100
0001
1000
0100
0010
0001
0100
0010
1000
0001
1000
0010
1000
0100
0010
0001
0100
0010
1000
0001
,
0010
0100
1000
0100
0010
0001
0010
0000
0100
1000
0001
0010
0100
1000
0010
0100
0001
1000
0001
0010
0001
0100
0010
1000
0001
0100
0001
0010
0100
1000
0001
1000
,
0010
0000
0100
0000
0010
0000
1000
0000
0001
0000
0100
0000
0001
0000
1000
0000
0002
0003
0010
0000
0100
0000
0020
0030
0001
0000
1000
0000
0002
0003
0010
0000
0100
0000
1000
0000
0001
0000
0100
0000
0010
0000
0100
0000
0001
0000
1000
0000
0010
0000
1000
0000
0100
0000
0010
0000
0001
0000
1000
0000
0010
0000
0100
0000
,
0001
1000
0010
1000
0100
0010
0001
1000
0001
0100
0010
0100
0001
1000
0010
1000
0100
0010
0001
0010
0100
1000
0001
0100
0010
1000
0001
0100
0001
1000
0100
0010
,
0001
0000
1000
0000
0001
0000
0100
0000
0010
0000
1000
0000
0001
0000
0100
0000
0002
0003
1000
0000
0100
0000
2000
3000
0001
0000
0100
0000
0002
0003
0010
0000
0100
0000
0010
0000
0001
0000
1000
0000
0010
0000
0100
0000
0010
0000
1000
0000
0001
0000
0100
0000
0001
0000
1000
0000
0100
0000
0010
0000
0001
0000
1000
0000
,
0100
0010
0001
1000
0100
1000
0001
0100
0010
1000
0001
0100
0001
1000
0010
1000
0100
0010
0001
0010
0100
0010
0001
1000
0100
1000
0001
0100
0010
0100
0001
1000
,
0010
0000
1000
0000
0100
0000
0010
0000
0001
0000
1000
0000
0010
0000
1000
0000
0200
0300
0010
0000
0001
0000
2000
3000
0001
0000
0100
0000
0020
0030
1000
0000
0001
0000
0100
0000
0001
0000
1000
0000
0100
0000
0010
0000
0100
0000
1000
0000
0001
0000
0010
0000
0001
0000
0100
0000
0010
0000
1000
0000
0001
0000
0100
0000
,
0001
1000
0100
0010
0001
1000
0010
0100
0001
0100
0010
1000
0001
0010
0100
1000
0001
0010
0100
0010
0001
1000
0001
0100
0010
1000
0001
0100
0001
1000
0010
1000
,
0100
0000
0010
0000
0001
0000
0010
0000
0100
0000
1000
0000
0001
0000
1000
0000
0200
0300
0010
0000
0100
0000
2000
3000
0001
0000
0010
0000
0002
0003
0000
0000
2000
0000
0000
0000
0M00
0000
0000
0000
000M
0000
0000
0000
0M00
0000
0000
0000
00M0
0000
0000
0000
0M00
0000
0000
0000
000M
0000
0000
0000
0M00
0000
0000
0000
,
00M0
0000
0000
0000
0000
0000
0M00
0000
0000
0000
0000
0000
000M
0000
0000
0000
0000
0000
0M00
0000
0000
0000
0000
0000
00M0
0000
0000
0000
0000
0000
0M00
0000
0000
0000
0000
0000
000M
0000
0000
0000
0000
0000
0M00
0000
0000
0000
0000
0000
00M0
0000
0000
0000
0000
0000
0M00
0000
0000
0000
0000
0000
000M
0000
0000
0000
0000
0000
3M00
0000
0000
0000
0000
0000
0MMM
0000
0000
0000
0000
0000
0M00
0000
0000
0000
0000
0000
00M0
0000
000M
0000
0000
0000
0000
M000
0000
0000
0000
0000
,
000M
0000
0000
0M00
0000
0000
00M0
0000
0000
0000
0000
M000
0000
0000
0000
0000
000M
0000
0000
0000
00M0
0000
0000
0000
0M00
0000
0000
0000
0000
0000
M000
0000
0000
0000
0000
0000
0000
0000
0000
0000
0000
0000
0000
0000
0000
0000
0000
0000
0000
0000
0000
0000
0000
0000
0000
0000
0000
0000
0000
0000
0000
0000
0000
0000
0000
0000
0000
0000
0000
0000
0000
0000
0000
0000
0000
0000
0000
0000
0000
0000
0000
0000
0000
0000
0000
0000
0000
0000
0000
0000
0000
0000
0000
0000
0000
0000
;

//---------------dance-single - 15- (Owem)----------------
#NOTES:
     dance-single:
     15- (Owem):
     Challenge:
     15:
     1.000,0.978,0.091,0.574,1.000,2117.000,27.000,170.000,76.000,0.000:
0000
0000
0000
0000
0000
0000
0000
0000
1000
0100
0010
0001
1000
0001
0100
0010
0100
0001
1000
0010
1000
0100
0010
0001
1000
0100
1000
0010
0100
0001
1000
0001
,
0010
0000
0100
0000
0010
0000
0001
0000
1000
0000
0100
0000
1000
0000
0001
0000
0200
0300
0010
0000
1000
0000
0020
0030
0100
0000
0010
0000
2000
3000
0001
0000
0100
0000
0001
0000
1000
0000
0100
0000
0010
0000
0100
0000
1000
0000
0001
0000
0010
0000
0001
0000
0100
0000
0010
0000
1000
0000
0001
0000
0010
0000
0100
0000
,
10M0
0001
0M10
0001
M100
0010
1000
0001
10M0
0100
0010
0100
1000
0001
0010
0001
0100
0010
1000
0010
0100
0001
1000
0100
M010
0001
1000
0100
1000
0001
0100
0010
,
1000
0000
0001
0000
1000
0000
0100
0000
0010
0000
0001
0000
1000
0000
0100
0000
2000
3000
0001
0000
0100
0000
0002
0003
1000
0000
0100
0000
2000
3000
0010
0000
0100
0000
0010
0000
1000
0000
0001
0000
0010
0000
0100
0000
0010
0000
0001
0000
1000
0000
0100
0000
1000
0000
0001
0000
0100
0000
0010
0000
1000
0000
0010
0000
,
M100
0010
1M00
0001
01M0
0001
1000
0100
0010
0001
1000
0100
1000
0001
0010
0001
0100
0010
1000
0010
0100
0010
1000
0001
0100
0001
1000
0100
0010
0100
1000
0001
,
0010
0000
0001
0000
0100
0000
0010
0000
1000
0000
0001
0000
0010
0000
0001
0000
0200
0300
0010
0000
1000
0000
0002
0003
1000
0000
0100
0000
0020
0030
0001
0000
1000
0000
0100
0000
1000
0000
0001
0000
0100
0000
0010
0000
0100
0000
0001
0000
1000
0000
0010
0000
1000
0000
0100
0000
0010
0000
0001
0000
1000
0000
0100
0000
,
1000
0001
0100
001M
M100
0001
1M00
0010
1000
0100
0010
0001
1000
0100
1000
0001
1000
0010
0100
0010
1000
0001
1000
0100
0010
0001
1000
0100
1000
0001
0010
0001
,
0100
0000
0010
0000
1000
0000
0010
0000
0100
0000
0001
0000
1000
0000
0001
0000
0200
0300
0010
0000
0100
0000
0002
0003
1000
0000
0010
0000
2000
3000
0100
0000
0010
0000
0001
0000
1000
0000
0100
0000
1000
0000
0001
0000
0100
0000
0001
0000
1000
0000
0010
0000
0100
0000
0001
0000
1000
0000
0001
0000
0010
0000
0001
0000
,
M100
0000
0010
0000
1M00
0000
0010
0000
M100
0000
0001
0000
1000
0000
0001
0000
1000
0100
0010
0001
1000
0001
0100
0010
1000
0010
0100
0001
0100
0010
1000
0001
0200
0000
0000
0000
0000
0000
0000
0000
0301
1000
0001
0010
0100
1000
0001
1000
0100
0010
0001
1000
0010
0000
0000
0000
0100
0001
1000
0001
0010
0100
0010
0001
,
2000
0000
0000
0000
3400
0000
0000
0000
0310
0001
0010
0100
1000
0001
1000
0010
0100
0001
0100
0010
1000
0001
0100
0001
0010
0100
1000
0001
1000
0010
0100
0001
2000
0000
0000
0000
0000
0000
0000
0000
3001
0100
0001
0010
0100
1000
0100
0010
0001
1000
0001
0100
0010
0000
0000
0000
0010
0000
1000
0010
0100
0001
1000
0010
,
2000
0000
0000
0000
3002
0000
0203
0000
0320
0000
0000
0000
2030
0000
0000
0000
3001
0100
0010
0100
0001
1000
0010
1000
0100
0010
0001
1000
0001
0000
0000
0000
2001
0000
0000
0000
0000
0000
0000
0000
3010
0100
0001
1000
0100
1000
0001
0010
0100
1000
0001
1000
0010
0000
0000
0000
0100
0001
0100
0010
1000
0001
1000
0100
,
0020
0000
0000
0000
0034
0000
0000
0000
0103
0010
0100
0010
1000
0001
1000
0100
0010
0001
1000
0100
0010
0100
1000
0001
1000
0010
0100
0001
1000
0001
0010
0100
2000
0000
0000
0000
0000
0000
0000
0000
3001
0100
0001
1000
0100
0010
0100
1000
0001
0100
0001
0010
0100
0000
0000
0000
1000
0000
0100
0010
0100
1000
0001
0100
,
0020
0000
0000
0000
2030
0000
3200
0000
0320
0000
0000
0000
0032
0000
0000
0000
1003
0100
1000
0001
0010
0100
1000
0001
0100
0001
0010
0100
1000
0000
0000
0000
1200
0000
0000
0000
0000
0000
0000
0000
0310
0001
1000
0100
0010
0100
1000
0001
0100
0010
1000
0001
0010
0000
0000
0000
0100
1000
0001
1000
0010
0100
0010
1000
,
0002
0000
0000
0000
0043
0000
0000
0000
0130
1000
0001
0010
0001
1000
0100
0010
0001
1000
0010
1000
0100
0010
0001
1000
0001
0100
0010
1000
0001
0100
0010
1000
0002
0000
0000
0000
0000
0000
0000
0000
1003
0100
0010
0001
1000
0001
0100
0010
0100
0001
1000
0001
0010
0000
0000
0000
0100
0000
1000
0001
1000
0100
0010
0001
,
0020
0000
0000
0000
0230
0000
2300
0000
3002
0000
0000
0000
0203
0000
0000
0000
0310
1000
0001
1000
0001
0010
0100
1000
0001
0100
0001
0010
0100
1000
0001
1000
0020
0000
0000
0000
0000
0000
0000
0000
0130
0001
1000
0001
0010
0100
1000
0100
0010
0001
1000
0001
0100
0000
0000
0000
0010
1000
0001
1000
0100
0010
0001
1000
,
0200
0000
0000
0000
4300
0000
0000
0000
3010
0100
0010
1000
0001
0100
0001
0010
0100
1000
0001
1000
0010
0100
0001
1000
0100
0010
0100
1000
0001
0100
0010
0100
0002
0000
0000
0000
0000
0000
0000
0000
1003
0100
0010
0000
0001
1000
0001
0100
0010
1000
0010
0100
0001
0000
0000
0000
1000
0000
0010
0100
0001
1000
0001
0010
,
0200
0000
0000
0000
2300
0000
3020
0000
0230
0000
0302
0000
2003
0000
0000
0000
3010
0100
0001
1000
0010
0100
0001
1000
0100
1000
0010
0100
0001
1000
0010
0100
0002
0000
0000
0000
0000
0000
0000
0000
1003
0001
1000
0100
0010
0100
1000
0001
0100
0010
1000
0001
0010
0000
0000
0000
0100
1000
0001
1000
0010
0100
0010
1000
,
0002
0000
0000
0000
0043
0000
0000
0000
0130
1000
0001
0010
0001
1000
0100
0010
0001
1000
0010
1000
0100
0010
0001
1000
0001
0100
0010
1000
0001
0010
0100
1000
0002
0000
0000
0000
0000
0000
0000
0000
1003
0010
0100
0001
0010
0001
1000
0001
0100
0010
1000
0001
0010
0000
0000
0000
0100
0000
1000
0001
1000
0100
0010
0001
,
0020
0000
0000
0000
0230
0000
2300
0000
3002
0000
0000
0000
0203
0000
0000
0000
0310
1000
0001
1000
0100
0010
0100
1000
0001
0100
0001
0010
0100
0000
0000
0000
2100
0000
0000
0000
0000
0000
0000
0000
3001
1000
0001
0010
0100
1000
0100
0010
0001
1000
0001
0100
0010
0000
0000
0000
1000
0001
1000
0100
0010
0001
1000
0010
,
2000
0000
0000
0000
3004
0000
0000
0000
0013
0100
0010
0001
1000
0100
1000
0010
0100
0001
1000
0001
0010
0100
1000
0001
0100
0010
0100
0001
1000
0100
0010
0100
2000
0000
0000
0000
0000
0000
0000
0000
3001
0100
0010
0000
1000
0001
1000
0100
0010
0001
0010
0100
1000
0000
0000
0000
0001
0000
0010
0100
1000
0001
1000
0010
,
0200
0000
0000
0000
0302
0000
0023
0000
0230
0000
0000
0000
2300
0000
0000
0000
3001
0100
0001
0010
0100
1000
0001
1000
0010
0100
0001
1000
0100
0000
0000
0000
0120
0000
0000
0000
0000
0000
0000
0000
0031
1000
0100
0010
0001
1000
0010
1000
0100
0010
0001
1000
0010
0000
0000
0000
0100
0001
1000
0001
0010
0100
1000
0001
,
0200
0000
0000
0000
0340
0000
0000
0000
1030
0001
1000
0100
0010
0001
0100
0001
1000
0100
0010
0001
1000
0001
0100
0010
1000
0001
0100
0001
0010
0100
1000
0001
2000
0000
0000
0000
0000
0000
0000
0000
3001
0100
0010
1000
0010
0100
0001
1000
0001
0010
0100
1000
0001
0000
0000
0000
0100
0000
0010
1000
0001
1000
0100
0010
,
0002
0000
0000
0000
2003
0000
3200
0000
0320
0000
0000
0000
0032
0000
0000
0000
1003
0100
0010
0001
1000
0010
1000
0100
0010
0001
1000
0001
0100
0010
1000
0001
0020
0000
0000
0000
0000
0000
0000
0000
0130
1000
0001
1000
0010
0100
0010
1000
0001
0100
0001
0010
0100
0000
0000
0000
1000
0100
0010
0001
1000
0100
0010
0100
,
2000
0000
0000
0000
3004
0000
0000
0000
0013
0100
0010
0100
1000
0001
0010
0001
1000
0001
0100
0010
1000
0001
0100
0001
0010
0100
1000
0001
1000
0010
0100
0001
2000
0000
0000
0000
0000
0000
0000
0000
3100
0010
0100
0000
1000
0001
0010
0001
0100
0010
1000
0001
0010
0000
0000
0000
0100
0000
1000
0001
0010
0001
1000
0100
,
0020
0000
0032
2003
3002
0203
0320
0000
1030
0001
1000
0100
0010
0001
1000
0001
0100
0010
0100
0001
1000
0010
1000
0100
0010
0001
1000
0001
0100
0010
1000
0001
,
0100
0000
0001
0000
1000
0000
0100
0000
0010
0000
0001
0000
0010
0000
0100
0000
2000
3000
0001
0000
0100
0000
0002
0003
1000
0000
0010
0000
2000
3000
0100
0000
0010
0000
0001
0000
0010
0000
0100
0000
1000
0000
0001
0000
0010
0000
0001
0000
0100
0000
0010
0000
1000
0000
0001
0000
0100
0000
0001
0000
1000
0000
0100
0000
,
10M0
0001
M010
0100
1000
0001
01M0
0001
1M00
0010
0100
0010
1000
0001
0100
0001
1000
0100
0010
0001
0010
0100
1000
0001
01M0
0001
1000
0010
1000
0100
0010
0001
,
0010
0000
0100
0000
1000
0000
0001
0000
1000
0000
0100
0000
0010
0000
0001
0000
0200
0300
0001
0000
1000
0000
0002
0003
0100
0000
0010
0000
2000
3000
0001
0000
0100
0000
0010
0000
0100
0000
0001
0000
1000
0000
0001
0000
1000
0000
0100
0000
001M
0000
0100
0000
1000
0000
00M1
0000
0100
0000
0010
0000
1000
0000
0100
0000
,
1000
0000
0001
0000
0010
0100
0010
0000
0100
1000
0100
0000
0010
0001
0010
0000
0100
0000
1000
0000
0001
0000
0100
0000
0001
0000
1000
0000
0010
0000
0100
0000
0010
0000
1000
0000
0001
0000
0100
0000
0001
0000
1000
0000
0100
0000
0010
0000
0M01
0000
0010
0000
0100
0000
10M0
0000
0001
0000
10M0
0000
0100
0000
0010
0000
,
0M01
0000
1000
0000
0010
0000
0100
0000
001M
0000
1000
0000
0001
0000
01M0
0000
0002
0003
1000
0000
0001
0000
0020
0030
0100
0000
1000
0000
0002
0003
1000
0000
0100
0000
0010
0000
0100
0000
1000
0000
0001
0000
0010
0000
0001
0000
0100
0000
M010
0000
0100
0000
0001
00M0
1000
0M00
0010
0000
100M
0000
0100
0000
1000
0000
,
0001
0100
0010
0100
0001
1000
0010
1000
0100
0010
0001
1000
0M10
1000
0100
0010
0001
1000
0001
0100
0010
1000
0001
0100
0001
1000
0010
1000
0100
0010
0001
0010
,
0100
0000
1000
0000
0001
0000
0010
0000
0001
0000
0100
0000
0020
0030
1000
0000
0002
0003
0100
0000
0001
0000
2000
3000
0100
0000
0010
0000
0200
0300
1000
0000
0001
0000
0010
0000
0001
0000
1000
0000
0010
0000
1000
0000
0100
0000
0010
0000
0M02
0000
0000
0000
0M00
0000
0000
0000
0M00
0000
0000
0000
0M00
0000
0000
0000
,
4M03
0000
0000
0000
0M00
0000
0000
0000
0M00
0000
0000
0000
0M00
0000
0000
0000
3001
0010
0100
0010
0001
1000
0010
0100
0001
0010
0100
1000
0001
0100
0010
1000
0002
0000
0000
0000
0000
0000
0000
0000
1003
0100
1000
0010
0100
0001
1000
0001
0100
0010
1000
0001
0010
0000
0000
0000
0100
1000
0001
1000
0010
0100
0010
1000
,
0002
0000
0000
0000
0403
0000
0000
0000
0310
1000
0010
0100
0001
1000
0001
0010
0100
1000
0100
0010
0001
1000
0100
1000
0010
0100
0001
1000
0001
0010
0100
1000
0002
0000
0000
0000
0000
0000
0000
0000
1003
0100
0010
0001
0100
0010
0100
0001
1000
0010
1000
0100
0010
0000
0000
0000
0001
0000
0100
0010
0100
0001
1000
0010
,
2000
0000
0000
0000
3002
0000
0203
0000
0320
0000
0000
0000
2030
0000
0000
0000
3001
0100
0010
0100
0001
1000
0010
1000
0100
0010
0001
1000
0001
0000
0000
0000
2001
0000
0000
0000
0000
0000
0000
0000
3010
0100
0001
1000
0100
1000
0001
0010
0100
1000
0001
1000
0010
0000
0000
0000
0100
0001
0100
0010
1000
0001
1000
0100
,
0020
0000
0000
0000
0034
0000
0000
0000
0103
0010
1000
0010
0100
0001
1000
0100
0010
0001
1000
0100
0010
0100
1000
0001
1000
0010
0100
0001
1000
0100
0010
0001
2000
0000
0000
0000
0000
0000
0000
0000
3001
0100
0001
1000
0100
0010
0100
1000
0001
0100
0001
1000
0010
0000
0000
0000
1000
0000
0100
0010
0100
1000
0001
0100
,
0020
0000
0000
0000
2030
0000
3200
0000
0320
0000
0000
0000
0032
0000
0000
0000
1003
0100
1000
0001
0010
0100
1000
0001
0100
0001
0010
0100
1000
0000
0000
0000
1200
0000
0000
0000
0000
0000
0000
0000
0310
0001
1000
0100
0010
0100
1000
0001
0100
0010
1000
0001
0010
0000
0000
0000
0100
1000
0001
1000
0010
0100
0010
1000
,
0002
0000
0000
0000
0043
0000
0000
0000
0130
1000
0001
0010
0001
1000
0100
0010
0001
1000
0010
1000
0100
0010
0001
1000
0001
0100
0010
1000
0001
0010
0001
1000
0020
0000
0000
0000
0000
0000
0000
0000
1030
0001
1000
0100
0010
0001
1000
0001
0100
0010
1000
0001
0010
0000
0000
0000
0100
0000
1000
0001
1000
0100
0010
0001
,
0020
0000
0000
0000
0230
0000
2300
0000
3002
0000
0000
0000
0203
0000
0000
0000
0310
1000
0001
0010
0100
0010
0001
1000
0100
0010
0001
0010
0100
1000
0001
1000
0020
0000
0000
0000
0000
0000
0000
0000
0130
0001
1000
0001
0010
0100
1000
0100
0010
0001
1000
0001
0100
0000
0000
0000
0010
1000
0001
1000
0100
0010
0001
1000
,
0002
0000
0000
0000
4003
0000
0000
0000
3001
0100
0010
1000
0001
0100
0001
0010
0100
1000
0001
1000
0010
0100
0001
1000
0100
0010
0100
1000
0001
0100
0010
0100
0002
0000
0000
0000
0000
0000
0000
0000
1003
0010
0100
0000
0010
1000
0001
0100
0010
1000
0100
0010
0001
0000
0000
0000
1000
0000
0001
0100
0010
1000
0001
0010
,
0200
0000
0000
0000
2300
0000
3020
0000
0230
0000
0302
0000
2003
0000
0000
0000
3010
0000
0000
0000
0100
0000
0000
0000
0001
0000
0000
0000
2000
3000
0000
0000
1002
0003
0000
0000
0000
0000
0000
0000
0004
0000
0000
0000
1003
0100
0010
0001
1000
0001
0100
0010
0100
0000
0000
0000
0001
1000
0001
0100
0010
1000
0001
1000
,
0200
0000
0000
0000
0340
0000
0000
0000
0031
0100
0010
1000
0001
0100
0001
0010
0100
1000
0001
1000
0010
0100
0001
1000
0100
0010
0100
1000
0001
0100
0010
0100
0002
0000
0000
0000
0000
0000
0000
0000
1003
0100
0010
0000
0001
1000
0001
0100
0010
1000
0010
0100
0001
0000
0000
0000
1000
0000
0100
0010
0001
1000
0001
0010
,
0200
0000
0000
0000
0000
0000
0000
0000
0000
0000
0000
0000
2300
0000
0000
0000
0000
0000
3020
0000
0000
0000
0000
0000
0130
0000
0000
0000
0001
0000
0000
0000
0100
0000
0000
0000
0002
0000
0000
0000
0000
0000
0000
0000
0000
0000
0000
0000
1003
0000
0000
0100
0000
0000
1000
0000
0000
0010
0000
0000
0100
0000
0000
0001
0000
0000
1000
0000
0000
0001
0000
0000
0010
0000
0000
0100
0000
0000
1000
0000
0000
0001
0000
0000
0100
0000
0000
0000
0000
0000
0000
0000
0000
0000
0000
0000
0120
0000
0000
0000
0000
0000
0000
0000
0000
0000
0000
0000
0000
0000
0000
0000
0000
0000
0000
0000
0000
0000
0000
0000
1030
0000
0000
0100
0000
0000
1000
0000
0000
0001
0000
0000
0100
0000
0000
0010
0000
0000
1000
0000
0000
0010
0000
0000
0100
0000
0000
0001
0000
0000
1000
0000
0000
0100
0000
0000
0010
0000
0000
0000
0000
0000
0000
0000
0000
0000
0000
0000
0001
0000
0000
0100
0000
0000
0001
0000
0000
1000
0000
0000
0010
0000
0000
0100
0000
0000
0001
0000
0000
0100
0000
0000
,
0020
0000
0000
0000
4030
0000
0000
0000
3001
0100
0001
1000
0010
0100
0001
1000
0100
0010
0100
1000
0001
0010
0001
1000
0001
0100
0010
1000
0010
0100
0001
1000
0200
0000
0000
0000
0000
0000
0000
0000
0310
0001
1000
0000
0010
0100
0010
1000
0001
0010
0100
1000
0001
0000
0000
0000
0100
0000
0010
1000
0010
0100
0001
1000
,
0200
0000
0000
0000
0320
0000
0032
0000
2003
0000
0000
0000
3020
0000
0000
0000
0130
0001
1000
0100
1000
0001
0010
0100
0010
0001
1000
0100
0010
0000
0000
0000
0012
0000
0000
0000
0000
0000
0000
0000
1003
0010
0100
0001
1000
0100
1000
0010
0100
0001
1000
0100
0010
0000
0000
0000
0001
1000
0001
0100
0010
1000
0001
0010
,
0200
0000
0000
0000
4300
0000
0000
0000
3010
0100
0001
1000
0100
1000
0001
0010
0100
0010
0001
1000
0100
1000
0010
1000
0001
0100
0010
0100
0001
1000
0100
0010
0002
0000
0000
0000
0000
0000
0000
0000
0103
0010
1000
0000
0001
0100
0001
1000
0010
0100
0010
1000
0001
0000
0000
0000
0010
0000
0100
1000
0001
1000
0010
0100
,
0002
0000
0000
0000
2003
0000
3020
0000
1030
0001
1000
0001
2000
0000
0000
0000
3001
0010
0100
0010
0001
1000
0010
1000
0100
0010
0001
1000
0001
0100
0010
1000
0200
0000
0000
0000
0000
0000
0000
0000
0310
0001
1000
0100
0010
0100
1000
0001
0100
0010
1000
0001
0010
0000
0000
0000
0100
1000
0001
0010
0001
1000
0100
0010
,
0200
0000
0000
0000
4300
0000
0000
0000
3001
0100
0001
1000
0010
1000
0100
0010
0001
1000
0001
0100
0010
1000
0010
0100
0001
1000
0010
1000
0100
0010
0001
0010
0200
0000
0000
0000
0000
0000
0000
0000
1300
0001
1000
0000
0010
0100
0001
1000
0001
0010
0100
1000
0100
0000
0000
0000
0010
0000
0001
0010
0100
1000
0001
1000
,
0020
0000
0230
0302
2003
3002
0023
0000
0130
1000
0001
0010
0100
1000
0010
0100
0001
1000
0001
0010
0001
0100
0010
1000
0001
0100
0001
0010
0100
1000
0001
1000
,
0010
0000
0100
0000
0010
0000
1000
0000
0001
0000
0100
0000
0001
0000
1000
0000
0002
0003
0010
0000
0100
0000
0020
0030
0001
0000
1000
0000
0002
0003
0010
0000
0100
0000
1000
0000
0001
0000
0100
0000
0010
0000
0100
0000
0001
0000
1000
0000
0010
0000
1000
0000
0100
0000
0010
0000
0001
0000
1000
0000
0010
0000
0100
0000
,
0001
1000
0010
1000
0100
0010
0001
1000
0001
0100
0010
0100
0001
1000
0010
1000
0100
0010
0001
0010
0100
1000
0001
0100
0010
1000
0001
0100
0001
1000
0100
0010
,
0001
0000
1000
0000
0001
0000
0100
0000
0010
0000
1000
0000
0001
0000
0100
0000
0002
0003
1000
0000
0100
0000
2000
3000
0001
0000
0100
0000
0002
0003
0010
0000
0100
0000
0010
0000
0001
0000
1000
0000
0010
0000
0100
0000
0010
0000
1000
0000
0001
0000
0100
0000
0001
0000
1000
0000
0100
0000
0010
0000
0001
0000
1000
0000
,
0100
0010
0001
1000
0100
1000
0001
0100
0010
1000
0001
0100
0001
1000
0010
1000
0100
0010
0001
0010
0100
0010
0001
1000
0100
1000
0001
0100
0010
0100
0001
1000
,
0010
0000
1000
0000
0100
0000
0010
0000
0001
0000
1000
0000
0010
0000
1000
0000
0200
0300
0010
0000
0001
0000
2000
3000
0001
0000
0100
0000
0020
0030
1000
0000
0001
0000
0100
0000
0001
0000
1000
0000
0100
0000
0010
0000
0100
0000
1000
0000
0001
0000
0010
0000
0001
0000
0100
0000
0010
0000
1000
0000
0001
0000
0100
0000
,
0001
1000
0100
0010
0001
1000
0010
0100
0001
0100
0010
1000
0001
0010
0100
1000
0001
0010
0100
0010
0001
1000
0001
0100
0010
1000
0001
0100
0001
1000
0010
1000
,
0100
0000
0010
0000
0001
0000
0010
0000
0100
0000
1000
0000
0001
0000
1000
0000
0200
0300
0010
0000
0100
0000
2000
3000
0001
0000
0010
0000
0002
0003
0000
0000
20M0
0000
0000
0000
0M00
0000
0000
0000
000M
0000
0000
0000
0M00
0000
0000
0000
00M0
0000
0000
0000
0M00
0000
0000
0000
000M
0000
0000
0000
0M00
0000
0000
0000
,
00M0
0000
0000
0000
0000
0000
0M00
0000
0000
0000
0000
0000
000M
0000
0000
0000
0000
0000
0M00
0000
0000
0000
0000
0000
00M0
0000
0000
0000
0000
0000
0M00
0000
0000
0000
0000
0000
000M
0000
0000
0000
0000
0000
0M00
0000
0000
0000
0000
0000
00M0
0000
0000
0000
0000
0000
0M00
0000
0000
0000
0000
0000
000M
0000
0000
0000
0000
0000
3M00
0000
0000
0000
0000
0000
MMMM
0000
0000
0000
0000
0000
0M00
0000
0000
0000
0000
0000
00M0
0000
000M
0000
0000
0000
0000
M000
0000
0000
0000
0000
,
000M
0000
0000
0M00
0000
0000
00M0
0000
0000
0000
0000
M000
0000
0000
0000
0000
000M
0000
0000
0000
00M0
0000
0000
0000
0M00
0000
0000
0000
0000
0000
M000
0000
0000
0000
0000
0000
0000
0000
0000
0000
0000
0000
0000
0000
0000
0000
0000
0000
0000
0000
0000
0000
0000
0000
0000
0000
0000
0000
0000
0000
0000
0000
0000
0000
0000
0000
0000
0000
0000
0000
0000
0000
0000
0000
0000
0000
0000
0000
0000
0000
0000
0000
0000
0000
0000
0000
0000
0000
0000
0000
0000
0000
0000
0000
0000
0000
;
