#TITLE:The Cure;
#SUBTITLE:;
#ARTIST:Metea11;
#TITLETRANSLIT:;
#SUBTITLETRANSLIT:;
#ARTISTTRANSLIT:;
#CREDIT:Mad Matt;
#BANNER:../Tachyon Delta-bn.png;
#BACKGROUND:../Tachyon Delta-bg.png;
#LYRICSPATH:;
#CDTITLE:;
#MUSIC:The Cure.ogg;
#OFFSET:-0.030;
#SAMPLESTART:42.532;
#SAMPLELENGTH:12.000;
#SELECTABLE:YES;
#DISPLAYBPM:163.000;
#BPMS:0.000=163.000;
#STOPS:;
#BGCHANGES:;
// cache tags:
#FIRSTBEAT:16.000;
#LASTBEAT:468.000;
#SONGFILENAME:Songs/Tachyon Delta/The Cure - [Mad Matt]/The Cure.sm;
#HASMUSIC:1;
#HASBANNER:1;
#MUSICLENGTH:176.719;
// end cache tags

//---------------dance-single - Mad Matt----------------
#NOTES:
     dance-single:
     Mad Matt:
     Challenge:
     17:
     1.000,1.000,0.011,0.300,1.000,1364.000,2.000,53.000,0.000,1.000:

0000
0000
0000
0000
,
0000
0000
0000
0000
,
0000
0000
0000
0000
,
0000
0000
0000
0000
,
1000
0010
0100
0001
1000
0010
0100
0001
,
1000
0000
0100
0000
0010
0000
0001
0000
1000
0000
0100
0000
0010
0100
1000
0000
,
0001
0010
0100
1000
0001
0010
0100
1000
,
0001
0000
0100
0000
0010
0000
1000
0000
0001
0000
0100
0000
0010
0100
0001
0000
,
1000
0010
0100
0001
1000
0010
0100
0001
,
1000
0000
0100
0000
0010
0000
0001
0000
1000
0000
0100
0000
0010
0100
1000
0000
,
0001
0010
0100
1000
0001
0010
0100
1000
,
0001
0000
0100
0000
0010
0000
1000
0000
0001
0000
0100
0000
0010
0100
0001
0000
,
1000
0100
1000
0001
1000
0100
0010
0001
1000
0010
1000
0001
1000
0100
0010
0001
,
1000
0100
1000
0001
1000
0100
0010
0001
1000
0010
1000
0001
1000
0100
0010
0001
,
1000
0001
0010
0001
1000
0100
0010
0001
1000
0001
0100
0001
1000
0100
0010
0001
,
1000
0001
0010
0001
1000
0100
0010
0001
1000
0001
0100
0001
1000
0100
0010
0001
,
0100
0001
1000
0001
1000
0100
0010
0001
0100
0010
1000
0001
1000
0100
0010
0001
,
0100
0001
1000
0001
1000
0100
0010
0001
0100
0010
1000
0001
1000
0100
0010
0001
,
1000
0001
1000
0010
1000
0100
0010
0001
1000
0001
0100
0010
1000
0100
0010
0001
,
1000
0001
1000
0010
1000
0100
0010
0001
1000
0001
0100
0010
1000
0100
0010
0001
,
2000
3002
0203
0302
,
2003
3002
0203
0320
,
2030
3002
0023
0230
,
4300
0000
0000
0000
,
3001
0010
0100
1000
0001
1000
0001
0010
0100
1000
0001
1000
0001
0010
0100
1000
0001
1000
0100
0010
0001
0010
0100
1000
,
0001
0010
0100
1000
0100
1000
0001
0010
0100
1000
0100
1000
0001
0010
0100
1000
0001
1000
0100
0010
0001
0010
0100
1000
,
0001
0100
0010
1000
0001
1000
0001
0100
0010
1000
0001
1000
0001
0100
0010
1000
0001
1000
0010
0100
0001
0100
0010
1000
,
0001
0100
0010
1000
0010
1000
0001
0100
0010
1000
0010
1000
0001
0100
0010
1000
0001
1000
0010
0100
0001
0100
0010
1000
,
0001
1000
0001
0010
0100
1000
0001
0010
0001
0010
0100
1000
0001
1000
0100
0010
0001
1000
0100
1000
0001
0100
0001
0100
,
0010
1000
0001
1000
0010
0100
0001
1000
0010
1000
0001
0100
0010
1000
0001
0100
0001
1000
0010
0100
0001
1000
0010
1000
,
0001
0010
0001
1000
0100
0010
0001
1000
0100
1000
0001
0010
0001
0010
0100
1000
0001
1000
0100
0010
0001
1000
0001
0100
,
0010
1000
0001
0100
0001
0100
0010
1000
0001
0100
0010
1000
0001
1000
0100
1000
0001
0100
0010
1000
0001
1000
0010
0100
,
0001
1000
0001
1000
0100
0010
0001
0010
0100
1000
0001
0010
0001
1000
0100
0010
0001
1000
0001
0010
0100
1000
0001
1000
,
0001
0100
0001
0100
0010
1000
0001
0100
0001
1000
0010
0100
0001
0100
0001
1000
0010
1000
0001
0100
0001
0100
0010
1000
,
0001
1000
0010
1000
0001
1000
0010
0100
0001
1000
0001
0100
0001
1000
0010
1000
0001
0010
0001
1000
0100
0010
0001
1000
,
0100
1000
0001
0010
0001
1000
0010
1000
0001
0100
0001
1000
0010
0100
0001
0100
0010
1000
0002
0000
0000
0000
0000
0000
,
4003
0000
0000
3000
0004
0000
0000
0003
0040
0000
0000
0030
0400
0000
0000
0300
,
4000
0000
0000
3000
0004
0000
0000
0003
0040
0000
0000
0030
0400
0000
0000
0300
,
4000
0000
0000
3000
0004
0000
0000
0003
0040
0000
0000
0030
0400
0000
0000
0300
,
4000
0000
0000
3000
0004
0000
0000
0003
0400
0000
0000
0300
0040
0000
0000
0030
,
1000
0010
1000
0010
1000
0010
0200
0000
,
1300
0010
1000
0010
1000
0010
0200
0000
,
1300
0010
1000
0010
1000
0010
0200
0000
,
1300
0010
1000
0010
0200
0000
0000
0000
,
1300
0010
0100
0001
1000
0010
0100
0001
1000
0010
0100
0001
1000
0010
0010
0001
,
1000
0100
0010
0001
1000
0100
0010
0001
1000
0100
0010
0001
1000
0100
0100
0001
,
0100
0010
1000
0001
0100
0010
1000
0001
0100
0010
1000
0001
0100
0010
0010
0001
,
0010
0100
1000
0001
0010
0100
1000
0001
0010
0100
1000
0001
0010
0100
0100
0001
,
1000
0010
0100
0001
1000
0010
0100
0001
1000
0010
0100
0001
1000
0100
0100
0001
,
1000
0100
0010
0001
1000
0100
0010
0001
1000
0100
0010
0001
1000
0010
0010
0001
,
0100
0010
1000
0001
0100
0010
1000
0001
0100
0010
1000
0001
0010
0100
0100
0001
,
0010
0100
1000
0001
0010
0100
1000
0001
0010
0100
1000
0001
0100
0010
0010
0001
,
4000
3000
0000
0000
0000
0000
0000
0000
0040
0000
0030
0000
0000
0000
0000
0000
0400
0000
0000
0300
0000
0000
0000
0000
0004
0000
0000
0000
0003
0000
0000
0000
4000
0000
0000
0000
0000
0000
0000
0000
0000
3000
0000
0000
0040
0000
0000
0000
0000
0000
0000
0000
0000
0000
0030
0000
0400
0000
0000
0000
0000
0000
0000
0300
,
0004
0000
0000
0003
4000
0000
0000
3000
0040
0000
0000
0030
0400
0000
0000
0300
,
0004
0000
0000
0000
0000
0000
0000
0003
4000
0000
0000
0000
0000
0000
0000
3000
,
0040
0000
0000
0000
0000
0000
0000
0000
0000
0000
0000
0000
0000
0000
0000
0030
,
1000
0100
0010
0001
1000
0000
0001
0010
0100
1000
0001
0000
,
1000
0010
0100
0001
1000
0000
0002
0000
0000
0000
0000
0000
,
1003
0000
0000
0010
0000
0000
1000
0000
0000
0010
0000
0000
1000
0000
0000
0001
1000
0010
0100
0000
0000
0010
0100
0001
,
2000
0000
0000
0000
0000
0000
0000
0000
0004
0000
0000
0000
0000
0000
3000
0003
,
0020
0000
0000
0000
,
0230
0000
0000
0000
,
2300
0000
0000
0000
,
3002
0000
0000
0000
,
0023
0000
0000
0000
,
0230
0000
0000
0000
,
2300
0000
0000
0000
,
3002
0000
0023
0000
,
0031
0000
0000
1000
0000
0000
0010
0000
0000
0100
0000
0000
0001
0000
1000
0000
0001
0000
1000
0000
0000
0010
0000
0000
1000
0000
0000
0001
0000
0000
0100
0000
0000
0010
0000
0000
1000
0000
0001
0000
1000
0000
0001
0000
0000
0010
0000
0000
,
0001
0000
0000
1000
0000
0000
0100
0000
0000
0010
0000
0000
0001
0000
1000
0000
0001
0000
1000
0000
0000
0100
0000
0000
1000
0000
0000
0001
0000
0000
0010
0000
0000
0100
0000
0000
1000
0000
0001
0000
1000
0000
0001
0000
0000
1000
0000
0000
,
0010
0000
0000
0100
0000
0000
0001
0000
0000
1000
0000
0000
0010
0000
0100
0000
0010
0000
0100
0000
0000
0001
0000
0000
0100
0000
0000
0010
0000
0000
1000
0000
0000
0001
0000
0000
0100
0000
0010
0000
0100
0000
0010
0000
0000
1000
0000
0000
,
0100
0000
0000
0010
0000
0000
0001
0000
0000
1000
0000
0000
0100
0000
0010
0000
0100
0000
0010
0000
0000
0001
0000
0000
0010
0000
0000
0100
0000
0000
1000
0000
0000
0001
0000
0000
0010
0000
0100
0000
0010
0000
0100
0000
0000
1000
0000
0000
,
0001
0000
0000
0100
0000
0000
0010
0000
0000
1000
0000
0000
0001
0000
0100
0000
0001
0000
0100
0000
0000
0001
0000
0000
1000
0000
0000
0010
0000
0000
0100
0000
0000
0001
0000
0000
1000
0000
0010
0000
1000
0000
0010
0000
0000
0100
0000
0000
,
0001
0000
0000
1000
0000
0000
0001
0000
0000
0010
0000
0000
0100
0000
1000
0000
0100
0000
1000
0000
0000
0100
0000
0000
0010
0000
0000
0001
0000
0000
1000
0000
0000
0100
0000
0000
0010
0000
0001
0000
0010
0000
0001
0000
0000
1000
0000
0000
,
0001
0000
0000
0100
0000
0000
0010
0000
0000
1000
0000
0000
0001
0000
0100
0000
0010
0000
1000
0000
0000
0001
0000
0000
0100
0000
0000
0010
0000
0000
0100
0000
0000
0001
0000
0000
1000
0000
0010
0000
0100
0000
0001
0000
0000
1000
0000
0000
,
0001
0000
0000
0010
0000
0000
0100
0000
0000
1000
0000
0000
0001
0000
0010
0000
0100
0000
1000
0000
0000
0001
0000
0000
0010
0000
0000
0100
0000
0000
0010
0000
0000
0001
0000
0000
1000
0000
0100
0000
0010
0000
0001
0000
0000
0000
0000
0000
,
1000
0100
0010
0001
1000
0001
0010
0100
1000
0100
0010
0001
1000
0100
1000
0001
0010
0001
1000
0010
1000
0001
0100
0001
,
1000
0010
0100
0001
1000
0001
0100
0010
1000
0010
0100
0001
1000
0010
1000
0001
0100
0001
1000
0100
1000
0001
0010
0001
,
1000
0100
0010
0001
1000
0100
1000
0001
0010
0100
0010
0001
1000
0100
1000
0001
0010
0001
1000
0010
1000
0001
0100
0001
,
1000
0010
0100
0001
1000
0010
1000
0001
0100
0010
0100
0001
1000
0010
1000
0001
0100
0001
1000
0100
1000
0001
0010
0001
,
1000
0100
0010
0001
1000
0001
0010
0100
1000
0100
0010
0001
1000
0100
1000
0001
0100
0001
1000
0010
1000
0001
0010
0001
,
1000
0010
0100
0001
1000
0001
0100
0010
1000
0010
0100
0001
1000
0010
1000
0001
0010
0001
1000
0100
1000
0001
0100
0001
,
1000
0100
0010
0001
1000
0100
1000
0001
0010
0100
0010
0001
1000
0100
1000
0001
0100
0001
1000
0010
1000
0001
0010
0001
,
1000
0010
0100
0001
1000
0010
1000
0001
0100
0010
0100
0001
1000
0010
1000
0001
0010
0001
1000
0100
1000
0001
0100
0001
,
4000
0000
0000
0000
0000
0000
0000
0000
0000
0000
0000
0000
0000
0000
0000
3000
,
0004
0000
0000
0000
0000
0000
0000
0000
0000
0000
0000
0000
0000
0000
0000
0003
,
0040
0000
0000
0000
0000
0000
0000
0000
0000
0000
0000
0000
0000
0000
0000
0030
,
0400
0000
0000
0000
0000
0000
0000
0000
0000
0000
0000
0000
0000
0000
0000
0300
,
4000
0000
0000
0000
0000
0000
0000
0000
0000
0000
0000
0000
0000
0000
0000
3000
,
0004
0000
0000
0000
0000
0000
0000
0000
0000
0000
0000
0000
0000
0000
0000
0003
,
0040
0000
0000
0000
0000
0000
0000
0000
0000
0000
0000
0000
0000
0000
0000
0030
,
0400
0000
0000
0000
0000
0000
0000
0300
0040
0000
0000
0000
0000
0000
0000
0030
,
0001
0010
0001
1000
0001
0010
0100
1000
0001
0100
0001
1000
0001
0010
0100
1000
,
0001
0010
0001
1000
0001
0010
0100
1000
0001
0100
0001
1000
0001
0010
0100
1000
,
0010
1000
0001
1000
0001
0010
0100
1000
0010
0100
0001
1000
0001
0010
0100
1000
,
0010
1000
0001
1000
0001
0010
0100
1000
0010
0100
0001
1000
0001
0010
0100
1000
,
0001
1000
0100
1000
0001
0010
0100
1000
0001
1000
0010
1000
0001
0010
0100
1000
,
0001
1000
0100
1000
0001
0010
0100
1000
0001
1000
0010
1000
0001
0010
0100
1000
,
0010
1000
0001
1000
0001
0010
0100
1000
0010
0100
0001
1000
0001
0010
0100
1000
,
0010
1000
0001
1000
0001
0010
0100
1000
0010
0100
0001
0010
0001
0100
0010
1000
,
0001
0100
0001
1000
0001
0100
0010
1000
0001
0010
0001
1000
0001
0100
0010
1000
,
0001
0100
0001
1000
0001
0100
0010
1000
0001
0010
0001
1000
0001
0100
0010
1000
,
0100
1000
0001
1000
0001
0100
0010
1000
0100
0010
0001
1000
0001
0100
0010
1000
,
0100
1000
0001
1000
0001
0100
0010
1000
0100
0010
0001
1000
0001
0100
0010
1000
,
0001
1000
0010
1000
0001
0100
0010
1000
0001
1000
0100
1000
0001
0100
0010
1000
,
0001
1000
0010
1000
0001
0100
0010
1000
0001
1000
0100
1000
0001
0100
0010
1000
,
0100
1000
0001
1000
0001
0100
0010
1000
0100
0010
0001
1000
0001
0100
0010
1000
,
0100
1000
0001
1000
0001
0100
0010
1000
0100
0010
0001
1000
0020
0000
0000
0000
,
0030
0000
0000
0000
,
0000
0000
0000
0000
,
2222
0000
0000
0000
0000
0000
3333
0000
0000
0000
0000
0000
1000
0010
0100
0001
0100
0001
1000
0100
1000
0001
0010
0001
,
0010
0100
1000
0001
1000
0100
0010
0001
1000
0001
0010
0100
1000
0100
1000
0001
0100
0001
2000
0000
0000
3002
0000
0000
,
1003
0100
1000
0001
0010
0001
1000
0010
0100
0001
1000
0100
1000
0001
0100
0001
1000
0100
0010
0001
1000
0010
1000
0001
,
0100
0001
1000
0100
0010
0001
1000
0010
1000
0001
0010
0001
1000
0010
0100
0001
1000
0100
2000
0000
0000
0000
0000
0000
,
0000
0000
3020
0230
0320
2030
3002
0023
,
0230
2300
3020
0230
0320
2030
3002
0023
,
0032
0203
0320
0000
,
0030
0000
0000
0000
;
