#TITLE:Superman;
#SUBTITLE:;
#ARTIST:Eminem;
#TITLETRANSLIT:;
#SUBTITLETRANSLIT:;
#ARTISTTRANSLIT:;
#CREDIT:;
#BANNER:SupermanBN.png;
#BACKGROUND:Superman.png;
#LYRICSPATH:;
#CDTITLE:;
#MUSIC:Superman.ogg;
#OFFSET:-7.460;
#SAMPLESTART:53.614;
#SAMPLELENGTH:14.500;
#SELECTABLE:YES;
#BPMS:0.000=130.000;
#STOPS:;
#BGCHANGES:;
// cache tags:
#FIRSTBEAT:0.000;
#LASTBEAT:270.000;
#SONGFILENAME:Songs/lvsb tourney pack/Superman/Superman.sm;
#HASMUSIC:1;
#HASBANNER:0;
#MUSICLENGTH:105.000;
// end cache tags

//---------------dance-single - NEMORIGINAL----------------
#NOTES:
     dance-single:
     NEMORIGINAL:
     Challenge:
     9:
     0.776,0.900,0.505,0.000,0.310,517.000,53.000,0.000,151.000,0.000:





1000
0100
0001
00M0
0100
000M
1000
0M00
,
0001
0100
1000
00M0
0001
0010
1000
0M00
,
0011
0000
0001
0000
0100
0000
0010
0000
1000
0100
1000
0000
0010
0000
0001
0000
,
0010
1000
0100
0001
1000
0010
0001
MMMM
,
1001
0001
0100
1000
0001
0010
1000
0001
,
1001
1000
0100
0001
1000
0010
0001
MMMM
,
1001
0000
1000
0000
0010
0000
0001
0000
1000
0100
1000
0000
0100
0000
0001
0000
,
1001
0001
0010
1000
0001
0100
1000
MMMM
,
1001
1000
0100
0001
1000
0010
0001
1000
,
1001
0001
0100
1000
0001
0010
1000
MMMM
,
1001
0000
0001
0000
0010
0000
1000
0000
0001
0100
0001
0000
0100
0000
1000
0000
,
1001
1000
0010
0001
1000
0100
0001
MMMM
,
1001
0001
0010
1000
0100
1000
0010
0001
,
1001
1000
0010
0001
1000
0100
0001
MMMM
,
1001
0000
1000
0000
0100
0000
0001
0000
0100
1000
0100
0000
0010
0000
0001
0000
,
1001
0001
0100
1000
0001
0010
1000
MMMM
,
1001
1000
0010
0001
0010
1000
0001
MMMM
,
1001
0001
0010
1000
0010
0001
1000
MMMM
,
1001
0000
0001
0000
0100
0000
1000
0000
0001
0010
0001
0000
0010
0000
1000
0000
,
1001
MMMM
0110
0011
0110
1100
1001
0001
,
0100
0000
0010
1000
0000
0000
00M0
0000
0100
0000
0010
0000
0001
0000
0100
0010
,
1000
0000
0001
0010
0000
0000
M000
0001
0100
0000
0010
1000
0000
0000
MMMM
0000
,
1001
0000
0001
0000
0100
0000
0010
1000
0100
0000
0010
0001
0M00
0000
0000
1000
,
0010
0100
0001
1000
0100
0010
0001
0000
0100
0000
0010
1000
0000
0001
0010
0100
,
1000
0100
0001
00M0
0100
1000
0010
M000
,
0001
0000
0010
0000
1000
0000
0M00
0001
0010
0000
0100
0000
1000
0000
MMMM
0000
,
1001
0000
0001
0010
0000
0000
0100
0000
1000
0000
0010
0000
0001
0000
MMMM
0000
,
0011
0000
0010
1000
0100
0000
0010
0000
0001
0000
0100
0000
1000
0000
MMMM
0000
,
1100
0000
0100
0010
1000
0000
0110
0000
1001
0000
0001
0100
0010
0000
0110
0000
,
1001
0000
0001
0010
0100
1000
0100
0010
0001
0000
1000
0010
0100
0000
MMMM
0000
,
1001
0001
0100
0110
1001
1000
0100
0110
,
0001
0100
0010
1000
0001
0000
0100
0010
1000
0000
0100
0000
0010
0000
0001
0100
,
0010
0001
0010
0M00
1000
0100
0001
00M0
,
1000
0010
0001
M000
0010
1000
0001
00M0
,
0100
1000
0010
0M00
0001
0010
1000
0M00
,
0001
0000
1000
0100
0010
0000
1000
0000
0010
0000
0001
0000
0100
0000
MMMM
0000
,
1001
0000
1000
0000
0001
0000
0000
1000
0100
0000
0010
0000
0001
0000
MMMM
0000
,
1001
0000
0001
0000
1000
0000
0000
0001
0100
0000
0010
0000
1000
0000
MMMM
0000
,
1001
0000
1000
0000
0100
0000
000M
0000
0010
0000
1000
0000
0010
0000
0001
0100
,
0010
0000
1000
0000
0010
0000
0001
0010
1000
0000
0100
0000
0010
0000
0000
1000
,
0010
0001
0100
000M
1000
0100
0001
00M0
,
1000
0000
0100
0010
0001
0000
1000
0010
0001
0000
0010
0000
1000
0000
MMMM
0000
,
1001
0000
1000
0100
0010
0001
0010
0100
1000
0000
0010
0000
0100
0000
MMMM
0000
,
1001
0000
0001
0100
0010
0001
0000
0000
1000
0000
0100
0000
0001
0000
MMMM
0000
,
0001
1000
0100
0000
0010
0000
1000
0000
0010
0000
0001
0000
0100
0000
MMMM
0000
,
1001
1000
0010
0100
1000
0100
0001
MMMM
,
1001
0000
0001
0010
0100
0000
0001
0000
0100
0000
1000
0000
0010
0000
0001
0000
,
0001
0010
1000
0100
0001
0100
1000
MMMM
,
1001
1000
0100
0001
0010
0001
0100
1000
,
1000
0001
0100
1000
0010
1000
0100
MMMM
,
1001
1000
0010
0001
0100
0001
0010
1000
,
0100
0000
0001
0000
0010
0000
0001
0000
0100
0000
1000
0000
0001
0000
0M00
1000
,
0010
0000
0000
0000
0100
0000
0000
0000
0001
0000
0000
0000
0010
0000
0000
0000
0100
0000
0000
0000
0001
0000
0100
0000
0000
0000
0000
0000
0000
MMMM
0000
0000
,
0000
0000
0000
0000
1000
0000
0000
0000
0100
0000
0000
0000
0010
0000
0000
0000
1000
0000
0000
0000
0010
0000
0001
0000
0000
0000
0000
0000
0000
MMMM
0000
0000
,
0000
0000
0000
0000
1000
0000
0000
0000
0010
0000
0000
0000
0100
0000
0000
0000
1000
0000
0000
0000
0100
0000
0001
0000
0000
0000
0000
0000
0000
MMMM
0000
0000
,
0000
0000
0000
0000
0100
0000
0000
0000
0001
0000
0000
0000
0010
0000
0000
0000
1000
0000
0000
0000
0010
0000
0001
0000
0000
0000
0000
MMMM
0000
0000
0000
0000
,
0100
0000
0000
0000
0010
0000
0000
0000
1000
0000
0000
0000
0100
0000
0000
0000
0010
0000
0000
0000
1000
0000
0010
0000
0000
0000
0000
0000
0000
MMMM
0000
0000
,
0000
0000
0000
0000
0001
0000
0000
0000
0010
0000
0000
0000
0100
0000
0000
0000
0001
0000
0000
0000
0100
0000
1000
0000
0000
0000
0000
0000
0000
MMMM
0000
0000
,
0000
0000
0001
0000
0100
0000
0010
0000
0001
0000
0010
1000
0000
0000
0010
0000
,
0100
0000
0001
1000
0000
0000
0100
0000
0010
0000
1000
0010
0000
0000
0110
0000
,
1001
0001
0100
1000
0100
0001
0010
1000
,
0001
0100
1000
0010
0110
00M0
0M00
0001
,
1001
0000
0001
0000
0010
0000
1000
0000
0010
0001
0010
0000
1000
0000
0010
0000
,
0001
0100
1000
0100
0101
000M
0M00
0000
,
1001
0001
0100
1000
0010
1000
0100
0001
,
1000
0010
0001
0010
1010
M000
00M0
1000
,
1001
0000
1000
0000
0100
0000
0001
0000
1000
0010
0001
0000
1000
0000
0010
0000
,
0110
0100
0001
0010
1001
0000
0000
0000
;

//---------------dance-single - NEMORIGINAL----------------
#NOTES:
     dance-single:
     NEMORIGINAL:
     Hard:
     7:
     0.580,0.579,0.562,0.000,0.000,367.000,59.000,0.000,0.000,0.000:

1000
0001
1000
0000
0000
0000
0000
0000
,
0001
0010
0001
0000
1000
0100
1000
0000
,
0011
0000
0101
1001
,
0110
0000
1001
0000
,
0011
1100
0011
0101
,
0110
1010
1001
0110
,
0011
0000
1001
0101
,
1010
0000
1001
0000
,
1100
0110
0011
0101
,
0110
1010
0110
1001
,
0110
0100
1000
1001
,
0101
0000
0110
0000
,
0110
1010
0110
0101
,
0011
0110
1100
1001
,
0101
0001
1000
0110
,
1001
0000
0011
0000
,
1100
1010
0110
0101
,
0011
0101
1001
1100
,
1001
0001
0100
0110
,
1001
0000
0001
0010
0100
1000
0001
0100
,
0010
1000
0100
0000
1000
0010
0100
0000
,
0001
0010
0100
1000
,
0001
0100
0010
0100
0001
1000
0100
0000
,
1000
0010
0100
0010
1000
0100
1000
0001
,
0010
0100
1000
0000
0001
0100
0010
0000
,
1000
0010
0100
0000
0001
0010
0100
0000
,
1000
0001
1000
0010
0100
0001
1000
0000
,
0100
0010
0001
0010
0100
1000
0010
0000
,
0100
0010
0100
0000
0001
0100
0001
0000
,
1000
0100
1000
0010
0100
0001
1000
0000
,
0100
0010
0100
0000
0010
0001
0010
0000
,
0001
0100
0010
1000
0100
0001
0100
1000
,
0010
0100
0001
0000
1000
0010
0001
0000
,
0010
1000
0100
0000
0010
1000
0010
0000
,
0001
0100
0010
0000
1000
0100
0010
0000
,
0001
0100
0010
0100
0001
0010
1000
0000
,
0010
0001
0100
0000
0010
1000
0100
0000
,
1000
0010
0100
0000
0010
0100
0001
0000
,
0010
0100
1000
0000
0001
0100
0010
0100
,
1000
0100
0010
0001
0010
1000
0100
0000
,
0010
0001
1000
0000
0010
0100
0001
0000
,
1000
0100
0001
0100
1000
0010
0001
0000
,
0000
0010
1000
0001
0100
0010
1000
0000
,
0100
0010
0001
0000
0100
0010
1000
0000
,
0000
0001
0100
0010
1000
0100
0010
0000
,
0000
0001
0100
0010
1000
0100
0010
0000
,
0000
0001
0100
1000
0100
0001
0010
1000
,
0000
0010
0001
0100
0010
1000
0100
0000
,
0000
1000
0010
0100
0001
1000
0100
0010
,
0000
0100
0010
0001
0100
0010
1000
0000
,
0000
0010
0100
1000
0100
0010
0001
0010
,
1000
0100
0010
1000
0010
0001
0100
0000
,
0010
1000
0100
1000
0010
0100
0001
0000
,
0000
0010
0001
0100
0010
0100
0001
0000
,
0000
0010
0100
1000
0010
0100
0010
0000
,
0000
1000
0010
0100
0001
1000
0100
0000
,
0010
0001
0010
0100
0010
0001
0100
0000
,
0000
0010
1000
0100
1000
0010
0100
0000
,
0000
0010
1000
0100
0001
0100
1000
0010
,
0001
0010
1000
0100
0001
0100
1000
0000
,
0001
0100
0010
0000
1000
0000
0001
0000
,
0010
0001
0010
0000
0100
1000
0100
0000
,
0001
0100
0010
0000
1000
0000
1100
0000
,
0011
0000
1001
0000
,
0001
0100
0001
0000
1000
0000
0010
0000
,
0100
0010
1000
0000
0010
0100
0001
0000
,
0010
0100
1000
1001
,
0110
0000
1001
0000
;

//---------------dance-single - NEMORIGINAL----------------
#NOTES:
     dance-single:
     NEMORIGINAL:
     Medium:
     5:
     0.392,0.418,0.305,0.000,0.000,256.000,32.000,0.000,0.000,0.000:

1000
0010
1000
0000
0000
0000
0000
0000
,
0001
0010
0001
0000
0100
0010
0100
0000
,
0110
0000
0000
1010
,
1001
0000
0110
0000
,
0001
0010
1000
0010
,
0001
0100
1000
0100
,
0001
0000
0110
0001
,
0001
0000
0110
0000
,
1000
0010
0001
0010
,
1000
0100
0001
0100
,
1000
0000
0110
0001
,
0001
0000
0110
0000
,
1000
0010
0001
1000
,
0100
0001
1000
0010
,
0001
0010
1000
1001
,
1001
0000
0010
0000
,
0001
0010
1000
0001
,
0100
1000
0001
0010
,
1000
0010
0001
1001
,
1001
0000
0110
0000
,
1000
0000
0000
0000
0001
0010
0001
0000
,
1000
0000
0000
0000
0010
0100
0010
0000
,
1000
0100
0001
0000
,
1000
0010
0001
0000
,
1000
0010
1000
0000
0001
0010
0001
0000
,
1000
0100
1000
0000
0001
0100
0001
0000
,
1000
0001
0100
0010
,
0010
0000
0110
0000
,
0010
1000
0100
0000
,
0010
0001
0100
0000
,
0001
0000
0100
0000
0010
1000
0010
0000
,
1000
0000
0100
0000
0010
0001
0010
0000
,
0001
0100
0010
1000
,
0001
0010
0100
1000
,
0001
0100
1000
0100
,
0001
0010
1000
0010
,
0001
0100
0001
0000
1000
0000
0010
0000
,
1000
0100
1000
0000
0001
0000
0010
0000
,
0001
0100
0001
0000
1000
0010
1000
0000
,
0001
0000
0010
0000
0100
1000
0100
0000
,
1000
0010
1000
0000
0001
0100
0001
0000
,
0010
0001
0010
0000
0100
1000
0100
0000
,
0000
0000
1000
0000
0010
0110
0010
0000
,
0100
0000
0001
0000
0010
0001
0010
0000
,
0000
0100
1000
0010
,
0100
0000
1001
0000
,
0000
0001
0010
1000
,
0010
0000
0011
0000
,
0000
0001
0100
1000
,
0100
0010
1000
0000
,
0000
0001
0010
1000
,
0010
0001
0100
0000
,
0010
0000
0100
0000
0010
1000
0010
0000
,
1000
0000
0100
0000
0010
0001
0010
0000
,
0001
0000
0100
0000
0010
1000
0010
0000
,
1001
0000
0000
0000
0010
0100
0010
0000
,
1000
0000
0100
0000
0010
0001
0010
0000
,
0000
0000
0001
0000
0100
0010
0100
0000
,
0010
0000
1000
0000
0100
1000
0100
0000
,
0010
0100
0010
0000
0001
0010
0001
0000
,
1001
0001
0000
0100
,
0110
0000
1010
0000
,
1100
0100
0010
0000
,
0011
0000
0101
0000
,
1001
0001
0100
0110
,
1010
0000
1001
0000
,
0110
0100
0010
0011
,
1001
0000
0110
0000
;

//---------------dance-single - NEMORIGINAL----------------
#NOTES:
     dance-single:
     NEMORIGINAL:
     Easy:
     4:
     0.369,0.418,0.467,0.000,0.000,222.000,49.000,0.000,0.000,0.000:

1000
0010
0100
0001
,
0001
0000
1000
0000
,
0100
0000
0010
0001
,
0001
0000
0100
0000
,
0110
0010
1000
0100
,
0110
0010
0001
0100
,
0110
0000
0010
1010
,
1010
0000
1001
0000
,
0011
0001
0010
0110
,
0110
0100
1000
0010
,
0110
0000
0100
0101
,
0101
0000
1001
0000
,
0011
0010
0100
1010
,
1010
0010
0100
0001
,
1100
0000
0001
0011
,
0011
0000
1001
0000
,
0110
0010
1000
1100
,
1100
0100
0010
0001
,
0101
0001
0100
0110
,
0110
0000
1000
0001
,
1000
0010
0001
0000
,
0001
0010
1000
0000
,
0001
0100
1000
0100
,
0001
0000
1001
0000
,
1000
0010
0100
0010
,
1000
0100
0010
0000
,
0001
0010
0100
0010
,
0001
0100
1000
0000
,
0100
0001
1000
0000
,
0001
0010
1000
0000
,
0010
0001
0100
0100
,
0010
1000
0100
0000
,
1000
0010
1000
0001
,
0100
0010
1000
0000
,
0001
0010
0100
0010
,
0001
0100
1000
0100
,
1001
0000
1001
0000
,
0110
0000
1001
0000
,
0011
0000
0011
0000
,
1100
0100
1000
0000
,
0110
0010
1000
0100
,
1100
0000
0110
0000
,
0011
0001
0100
0010
,
0110
0000
1010
0000
,
1001
0001
0100
0010
,
1000
0000
1001
0000
,
0110
0010
1000
0100
,
0001
0100
1100
0000
,
1000
0010
0100
0010
,
1000
0100
0010
0000
,
1000
0010
0001
0100
,
0010
0001
0010
1000
,
0100
1000
0010
0100
,
0010
0000
1010
0000
,
0001
0010
0100
1000
,
0100
0010
0011
0000
,
0001
0100
1000
0100
,
0001
0010
1010
0000
,
0010
0001
0100
0010
,
0100
0001
0010
1000
,
0010
0001
0100
0000
,
0010
1000
0100
1000
,
0010
0100
0001
1000
,
0100
0000
1100
0000
,
0100
1000
0010
0100
,
0001
0010
0100
0000
,
0010
0001
0100
0010
,
1000
0000
1001
0000
;

//---------------dance-single - NEMORIGINAL----------------
#NOTES:
     dance-single:
     NEMORIGINAL:
     Beginner:
     1:
     0.173,0.257,0.257,0.000,0.000,100.000,27.000,0.000,0.000,0.000:

1000
0000
1000
0000
,
1000
0000
0000
0000
,
0001
0000
0001
0000
,
0001
0000
0000
0000
,
0010
0000
0010
0000
,
0010
0000
0010
0000
,
0010
0000
0000
0000
,
1001
0000
0000
0000
,
0100
0000
0100
0000
,
0100
0000
0100
0000
,
0100
0000
0000
0000
,
1001
0000
0000
0000
,
0001
0000
0001
0000
,
0001
0000
0001
0000
,
0010
0000
0000
0000
,
0110
0000
0000
0000
,
1000
0000
1000
0000
,
1000
0000
1000
0000
,
0100
0000
0000
0000
,
0110
0000
0000
0000
,
0001
0000
0001
0000
,
0001
0000
0000
0000
,
1000
0000
1000
0000
,
1000
0000
0000
0000
,
0010
0000
0010
0000
,
0010
0000
0000
0000
,
0100
0000
0100
0000
,
0100
0000
0000
0000
,
1001
0000
0001
0000
,
0100
0000
0000
0000
,
1001
0000
1000
0000
,
0100
0000
0000
0000
,
0110
0000
0010
0000
,
1000
0000
0000
0000
,
0110
0000
0010
0000
,
0001
0000
0000
0000
,
1001
0000
0010
0000
,
0100
0000
0000
0000
,
1001
0000
0100
0000
,
0010
0000
0000
0000
,
1000
0000
1000
0000
,
1000
0000
0001
0000
,
1000
0000
0000
0000
,
0000
0000
0000
0000
,
0001
0000
0001
0000
,
0100
0000
0100
0000
,
0001
0000
0000
0000
,
1001
0000
0000
0000
,
1000
0000
1000
0000
,
0100
0000
0100
0000
,
1000
0000
0000
0000
,
1001
0000
0000
0000
,
0110
0000
0000
0000
,
1001
0000
0000
0000
,
0110
0000
0000
0000
,
1001
0000
0110
0000
,
1001
0000
0000
0000
,
0110
0000
0000
0000
,
1001
0000
0000
0000
,
0110
0000
1001
0000
,
0110
0000
0010
0000
,
0010
0000
0000
0000
,
0110
0000
0100
0000
,
0100
0000
0000
0000
,
1001
0000
0001
0000
,
0010
0000
0000
0000
,
1001
0000
1000
0000
,
0100
0000
1001
0000
;
