#TITLE:KAMUI;
#SUBTITLE:Ez2Dj 7thR Violet O.S.T;
#ARTIST:Sasakure.UK;
#TITLETRANSLIT:;
#SUBTITLETRANSLIT:;
#ARTISTTRANSLIT:;
#CREDIT:ALICE_;
#BANNER:KAMUI.png;
#BACKGROUND:KAMUI.jpg;
#LYRICSPATH:;
#CDTITLE:cdtitle.png;
#MUSIC:KAMUI.mp3;
#OFFSET:-0.326;
#SAMPLESTART:99.940;
#SAMPLELENGTH:12.000;
#SELECTABLE:YES;
#BPMS:0.000=210.001,112.000=209.981;
#STOPS:;
#BGCHANGES:;
// cache tags:
#FIRSTBEAT:1.000;
#LASTBEAT:419.500;
#SONGFILENAME:Songs/alice 4th complete step/KAMUI/KAMUI.sm;
#HASMUSIC:1;
#HASBANNER:1;
#MUSICLENGTH:121.920;
// end cache tags

//---------------dance-single - Copied from----------------
#NOTES:
     dance-single:
     Copied from:
     Challenge:
     18:
     1.000,1.000,1.000,1.000,0.919,909.000,281.000,294.000,0.000,230.000:
0000
0000
0000
0000
0100
0000
0010
0000
0000
0100
0000
0010
0000
0000
0000
0000
,
1000
0000
0000
1000
0000
0000
1000
0000
0000
1000
0000
0000
1000
0000
0000
0000
,
1022
0000
0030
0013
0000
0010
0000
0010
,
0000
0010
0000
0010
0000
0022
0000
0033
,
2002
0000
3000
1003
0000
1000
0000
1000
,
0000
1000
0000
1000
0000
2000
0000
3000
,
0220
0000
0030
0310
0000
0010
0000
0010
,
0000
0010
0000
0010
0000
0220
0000
0330
,
0202
0000
0003
0301
0000
0001
0000
0001
,
0220
0000
0000
0000
0000
0000
0000
0330
,
2001
0000
0100
0000
3010
0000
1001
0100
0010
0000
1100
0000
0010
0000
1001
0100
,
0010
0000
1100
0000
0010
0000
1001
0100
0010
0000
2100
0000
0010
0000
3100
0010
,
0201
0000
1000
0000
0310
0000
0101
1000
0010
0000
1100
0000
0010
0000
0101
1000
,
0010
0000
1100
0000
0101
0000
0010
0100
2001
0000
0210
0000
3001
0000
2310
0001
,
3200
0000
0001
0000
1310
0000
0100
1000
0010
0000
1100
0000
0010
0000
0110
1000
,
0001
0000
1100
0000
0010
0000
0120
1000
0001
0030
1200
0000
0011
0000
0310
1000
,
0102
0000
1000
0000
0013
0000
0101
1000
0010
0000
1001
0000
0100
0000
0011
1000
,
0100
1010
0001
1100
0011
0100
1001
0100
0010
1000
0011
0100
,
2010
0000
0100
0000
0001
0000
0010
0100
0021
0000
0100
0000
0001
0000
0130
0001
,
3210
0000
1000
0000
0001
0000
0310
1000
0021
0000
0100
0000
1000
0000
0130
0010
,
2102
0000
0010
0000
0100
0000
3010
1000
0120
0000
0100
0000
1000
0000
0130
1000
,
0213
0000
1000
0000
0001
0000
1300
0010
2001
0000
0100
0000
0001
0000
3010
0100
,
0001
1010
1001
0100
0011
1100
1001
0010
0101
1010
0100
0011
,
1000
0101
0110
0001
1010
0110
1000
1001
0110
1010
0100
0011
,
1000
0100
0001
0010
0001
0010
0001
0010
1000
0100
0001
0010
0001
0010
0001
0010
,
1000
0001
0100
0010
1000
0001
0100
0010
1100
0011
1100
0011
1100
0011
1100
0011
,
2200
0000
3010
0002
0003
0320
1032
0200
,
0300
2000
3010
0200
0323
2000
0132
3000
,
2203
0000
3001
2020
3300
0002
2103
0032
,
0203
0300
0000
0000
0000
0000
0000
0000
0020
0000
0000
0000
0000
0000
0000
0000
0031
0000
0000
0000
0000
0000
0000
0000
0202
0300
0000
0000
0000
0000
0000
0000
3023
0000
0000
0000
0000
0000
0000
0000
2200
3000
0000
0000
0000
0000
0000
0000
0032
0000
0000
0000
0000
0000
0000
0000
0320
0030
0000
0000
0000
0000
0000
0000
,
2203
0000
3010
2302
3000
0020
1233
2000
,
3000
0020
1030
0002
2303
0002
3120
0003
,
2230
0000
3001
0322
0003
2000
3230
0020
,
0031
0000
0010
2000
0001
0000
3310
0000
0001
0020
1000
0000
2130
0000
0001
0200
0010
0000
0001
0000
0010
3300
0001
0000
,
1022
0000
0103
2001
3000
0230
2301
0120
,
0030
0002
0103
0021
3230
0002
2310
0103
,
3022
0000
1003
1202
0033
2000
3012
2300
,
3000
0200
0310
2010
3203
0020
2301
0130
,
3022
0000
0103
2132
0003
0200
3321
1002
,
0003
0200
0301
2100
3032
2000
0213
3001
,
0322
0000
1003
2230
3000
0002
0323
0200
,
2300
0002
0033
0200
3302
0020
0100
0133
,
1010
0100
0001
0010
1000
0100
0010
0100
1001
0010
0001
0100
1000
0010
0001
0100
,
1010
0100
0001
0010
1000
0100
0010
0100
1001
0010
1000
0100
0001
0010
0100
0010
,
0101
1000
0010
0100
0001
1000
0100
0010
1100
0001
0010
1000
0100
0010
0001
0100
,
1010
0100
0001
0100
1000
0010
0001
0010
1100
0001
0010
1000
0100
0001
0010
0100
,
1001
0010
0001
0100
1000
0100
0010
1000
0001
0010
0100
1000
0010
0100
1000
0010
,
0001
0100
0010
1000
0001
0010
1100
0001
0110
1000
0011
0100
1001
0100
1010
0001
,
0010
0100
1000
0001
0100
0010
0100
1000
0001
0010
0100
0010
1000
0100
0001
0010
,
1000
0010
0100
0001
1000
0010
0100
0010
1100
0011
1100
0011
1100
0011
1100
0011
,
0000
0000
0000
0000
0100
0000
0010
0000
0000
0100
0000
0010
0000
0000
0000
0000
,
0100
0000
0000
0100
0000
0000
0100
0000
0000
0100
0000
0000
0100
0001
1000
0010
,
0100
0010
1000
0001
0100
0010
1000
0001
0100
0010
1000
0001
0100
0010
1000
0001
,
0100
1000
0000
0010
0001
0000
0100
1000
0000
0010
0001
0000
0100
1000
0000
0010
0001
0000
0100
1000
0000
0010
0001
0000
0100
1000
0000
0010
0001
0000
0100
1000
0000
0010
0001
0000
0100
1000
0000
0010
0001
0000
0100
1000
0000
0010
0001
0000
,
1100
0010
2001
0100
3010
0001
2100
0010
,
3001
0100
2010
0001
3100
0010
2001
3010
,
1002
0103
0021
0100
1030
0010
0102
0010
,
1023
0030
0000
0000
0000
0000
0000
0000
0100
0000
0000
0000
0000
0000
0000
0000
2001
0000
0000
0000
0000
0000
0000
0000
0012
0003
0000
0000
0000
0000
0000
0000
3100
0000
0000
0000
0000
0000
0000
0000
2001
3000
0000
0000
0000
0000
0000
0000
1200
0000
0000
0000
0000
0000
0000
0000
0012
0003
0000
0000
0000
0000
0000
0000
,
1310
0100
1002
0010
0103
1000
0012
0100
,
1003
0010
0102
1000
0013
0100
1002
0103
,
2001
3010
1200
0010
0301
0100
2010
0001
,
3101
0000
0010
1000
0001
0000
0110
0000
0001
1000
0100
0000
1001
0000
0010
0100
0001
0000
1010
0000
0001
0100
0010
0000
,
1001
0010
0100
1000
0100
0001
0010
1000
0101
1000
0010
0100
0001
0010
0100
1000
,
0011
1000
0100
0010
0001
1000
0010
0100
1001
0010
0100
1000
0100
0010
0001
0100
,
1010
0100
0010
0001
0100
1000
0010
0001
1100
0010
0100
0001
1000
0010
0100
1000
,
0011
0100
1000
0010
0100
0010
0001
0100
1010
0100
0010
0001
0100
1000
0010
0100
,
2001
0010
0100
0001
0010
0100
0001
3010
,
0102
1000
0010
0103
1001
0010
1000
0100
,
0011
0110
1100
0110
1010
0101
0011
1001
,
0100
0010
0001
0010
1000
0010
0100
0010
0001
1000
0010
1000
0100
1000
0010
1000
,
0102
1000
0010
1203
0010
1000
0321
1000
,
0100
1000
0001
0100
1230
0001
0010
0001
,
2310
0100
0001
3120
1000
0001
1230
0010
,
1000
0001
0010
1000
0321
0100
1032
0013
,
1002
0100
0010
1023
0100
0001
1230
0001
,
0010
1000
0001
0010
2301
0100
3021
1000
,
0132
0010
0100
2013
0001
0010
3201
1000
,
0010
0001
1000
0010
0321
1000
0100
1000
,
2131
0010
0001
3211
1000
0010
2311
0100
,
0001
0110
0001
0010
3121
1000
0100
1001
,
0231
0010
1010
1302
0010
1100
0213
0010
,
1010
0001
1320
1001
0132
0010
2113
0001
,
3102
1010
0100
0123
1001
1000
0231
0011
,
1000
0010
1010
0001
2310
0101
3021
1000
,
1231
0010
0001
2311
0001
0100
3211
1010
,
0001
0011
1001
0010
1312
1000
0110
1103
,
2020
0000
0130
3022
0000
0003
2231
0000
,
3000
0002
0010
0003
2320
0000
3001
0200
,
0032
0300
1020
0203
0030
2000
0321
3000
,
0002
0000
0103
2000
0230
3000
2321
3000
,
2030
0002
0010
3203
2000
0000
3321
0200
,
0000
0300
2001
0000
3032
0020
1203
0030
,
2302
0000
0013
3202
0000
0300
2123
0000
,
3000
0200
0001
0300
0232
0000
1023
0030
,
2312
3100
2010
0223
3301
1200
2032
3310
,
0200
2010
3300
0120
2203
3031
2010
0002
,
3323
1002
1200
2333
0012
0210
3323
1200
,
0002
1303
0232
1020
2333
0201
3022
0330
,
2023
0102
0033
3202
1020
0033
2320
0102
,
3003
0201
2001
3300
2032
0120
3233
1002
,
2320
3003
0201
2032
3300
2010
0223
3300
,
1002
1200
0303
1200
2332
0013
0101
3110
,
2222
0000
0000
0000
,
0000
0000
0000
0000
,
0000
0000
0000
0000
0000
0000
0000
3333
;

//---------------dance-single - Copied from Copied f----------------
#NOTES:
     dance-single:
     Copied from Copied f:
     Hard:
     13:
     0.841,1.000,0.640,1.000,0.066,406.000,78.000,230.000,0.000,71.000:
0000
0000
0000
0000
0100
0000
0010
0000
0000
0100
0000
0010
0000
0000
0000
0000
,
1000
0000
0000
1000
0000
0000
1000
0000
0000
1000
0000
0000
1000
0000
0000
0000
,
1022
0000
0030
0013
0000
0010
0000
0010
,
0000
0010
0000
0010
0000
0022
0000
0033
,
2002
0000
3000
1003
0000
1000
0000
1000
,
0000
1000
0000
1000
0000
2000
0000
3000
,
0220
0000
0030
0310
0000
0010
0000
0010
,
0000
0010
0000
0010
0000
0220
0000
0330
,
0202
0000
0003
0301
0000
0001
0000
0001
,
0220
0000
0000
0000
0000
0000
0000
0330
,
1002
0000
1003
0010
1000
0010
1000
0010
,
1000
0010
1000
0010
1000
0010
0100
0000
,
2001
0000
3001
0100
0001
0100
0001
0100
,
0001
0100
0001
0100
0001
0100
0001
0000
,
2002
0000
3103
0010
0100
0010
0100
0010
,
0100
0010
0100
0010
0100
0010
0100
0000
,
2002
0000
3103
0001
0010
0001
0100
0001
,
2200
0000
3322
0000
,
2033
0000
0000
0000
0020
0000
0000
0030
,
3210
0000
0000
0300
0021
0000
0000
0030
,
2002
0000
0000
3000
0020
0000
0000
0030
,
1203
0000
0000
0300
2010
0000
0000
3000
,
0202
0000
0300
0103
0000
0100
0000
0100
,
0000
0000
0100
0000
0000
0000
0110
0000
1000
0100
0001
0000
1000
0000
0010
0000
,
2000
0000
0200
0000
,
0002
0000
0000
0000
0020
0000
0000
3333
,
2200
0000
3000
0000
0000
0300
2002
0000
,
3000
0000
0023
0132
,
2203
0000
3000
0020
0300
0000
2000
0030
,
0000
0000
3020
0032
,
2203
0000
3000
0302
0000
0000
2203
0000
,
3000
0000
0302
2003
,
3220
0000
0030
0302
0000
0000
2023
0000
,
0000
0000
3230
0000
,
1322
0000
0003
0000
0000
0030
2001
0000
,
0000
0000
3200
2300
,
3022
0000
0003
0200
0030
0000
0012
0300
,
0000
0000
0203
2300
,
3022
0000
0003
2130
0000
0000
3220
0000
,
0300
0000
0032
1203
,
0322
0000
0003
2230
0300
0000
3020
0000
,
2000
0000
0000
0000
0000
0000
0000
3030
,
1001
0000
0100
0000
,
0010
0000
0100
0000
,
0001
0000
0010
0000
,
0100
0000
0001
0000
,
2020
0000
0000
0000
,
0000
0000
0000
0000
3030
0000
0100
0000
1000
0100
0010
0000
1000
0000
0002
0000
,
0200
0000
0300
0100
0000
0100
0000
0100
,
0003
0000
0100
0000
0000
0000
0100
0000
0001
1000
0001
1000
0001
1000
0001
1000
,
0000
0000
0000
0000
0100
0000
0010
0000
0000
0100
0000
0010
0000
0000
0000
0000
,
0100
0000
0000
0100
0000
0000
0100
0000
0000
0100
0000
0000
0100
0001
1000
0010
,
0200
0000
0000
0000
,
0020
0000
0000
0000
0000
0000
0000
0330
,
1100
0010
0001
0100
0010
0001
0100
0010
,
0001
0100
0010
0001
0100
0010
0001
0010
,
1001
0100
0001
0100
1000
0010
0100
0010
,
1000
0100
0001
0010
0100
0001
1000
0010
,
1010
0100
1000
0010
0100
1000
0010
0100
,
1000
0010
0100
1000
0010
0100
1000
0100
,
1001
0010
1000
0010
0001
0100
0010
0001
,
0100
1000
0100
0010
0001
0100
1000
0010
,
2002
0000
3200
0000
,
0320
0000
2030
0000
,
3020
0000
0230
0000
,
2300
0000
0000
0000
3020
0000
0000
0033
,
2001
0010
0100
0001
0010
0100
0001
3010
,
0102
1000
0010
0103
1001
0010
1000
0100
,
0001
0010
0100
0010
1000
0001
0010
1000
,
0100
0001
1000
0100
0001
0010
0100
0010
,
2002
0000
0000
0203
0000
0000
0320
0000
,
0000
0000
0000
3000
0230
0000
0000
0000
,
2300
0000
0000
3020
0000
0000
0230
0000
,
0000
0000
0000
0000
0320
0000
0032
0003
,
0202
0000
0300
2003
0000
0000
3200
0000
,
0000
0000
2300
3020
,
0230
0000
0000
0302
0000
0000
0203
0000
,
0000
0000
0320
0000
,
2031
0000
0000
3201
0000
0000
2301
0000
,
0000
0001
0000
0000
3021
0000
0000
0001
,
0230
0000
1000
0302
0000
1000
0203
0000
,
1000
0000
0320
1000
0032
0000
2103
0000
,
3002
0100
0000
0023
1000
0000
0230
0001
,
0000
0000
0001
0000
2300
0001
3020
0000
,
0231
0000
0000
2310
0000
0000
3201
0000
,
0000
0010
0000
0000
1302
0000
0000
0103
,
2020
0030
0000
3022
0003
0000
2230
3000
,
0000
0002
0003
0000
2320
3000
0000
0200
,
0332
0000
0020
0233
0000
2000
3320
0000
,
0002
0003
0000
2000
3230
0000
2320
3000
,
2030
0002
0003
3200
2000
3000
0320
0200
,
0300
0000
2000
3000
0032
0020
0233
0000
,
2302
0003
0000
3202
0300
0000
2023
3000
,
0000
0200
0300
0000
0232
0003
0020
0030
,
2302
3000
0000
0223
0300
0000
2032
3000
,
0000
2000
3000
0000
2203
3000
0000
2000
,
3320
0000
0002
2033
0000
0002
3023
0000
,
0002
0003
0230
0002
2303
0000
3202
0300
,
2003
0020
0030
3200
0002
0003
0320
2000
,
3000
0000
0200
0300
0032
2000
3203
0000
,
2320
3000
0000
2032
3000
0000
0223
0300
,
0000
2000
3000
0000
2032
0003
0020
3030
,
2222
0000
0000
0000
,
0000
0000
0000
0000
,
0000
0000
0000
0000
0000
0000
0000
3333
;
